  0
SECTION
  2
HEADER
  9
$ACADVER
  1
AC1015
  9
$ACADMAINTVER
 70
    20
  9
$DWGCODEPAGE
  3
ANSI_932
  9
$INSBASE
 10
0.0
 20
0.0
 30
0.0
  9
$EXTMIN
 10
-0.0090630292066862
 20
-0.0090630292066862
 30
-0.0015258207003583
  9
$EXTMAX
 10
210.0200048627099
 20
297.0090644122207
 30
0.0000000349246037
  9
$LIMMIN
 10
0.0
 20
0.0
  9
$LIMMAX
 10
297.0
 20
210.0
  9
$ORTHOMODE
 70
     0
  9
$REGENMODE
 70
     1
  9
$FILLMODE
 70
     1
  9
$QTEXTMODE
 70
     0
  9
$MIRRTEXT
 70
     0
  9
$LTSCALE
 40
3.0
  9
$ATTMODE
 70
     1
  9
$TEXTSIZE
 40
1.0
  9
$TRACEWID
 40
0.05
  9
$TEXTSTYLE
  7
Standard
  9
$CLAYER
  8
Center
  9
$CELTYPE
  6
ByLayer
  9
$CECOLOR
 62
   256
  9
$CELTSCALE
 40
1.0
  9
$DISPSILH
 70
     0
  9
$DIMSCALE
 40
1.0
  9
$DIMASZ
 40
3.5
  9
$DIMEXO
 40
1.0
  9
$DIMDLI
 40
10.0
  9
$DIMRND
 40
0.0
  9
$DIMDLE
 40
0.0
  9
$DIMEXE
 40
1.0
  9
$DIMTP
 40
0.1
  9
$DIMTM
 40
0.1
  9
$DIMTXT
 40
3.5
  9
$DIMCEN
 40
0.0
  9
$DIMTSZ
 40
0.0
  9
$DIMTOL
 70
     0
  9
$DIMLIM
 70
     0
  9
$DIMTIH
 70
     0
  9
$DIMTOH
 70
     0
  9
$DIMSE1
 70
     0
  9
$DIMSE2
 70
     0
  9
$DIMTAD
 70
     1
  9
$DIMZIN
 70
     8
  9
$DIMBLK
  1

  9
$DIMASO
 70
     1
  9
$DIMSHO
 70
     1
  9
$DIMPOST
  1

  9
$DIMAPOST
  1
"
  9
$DIMALT
 70
     0
  9
$DIMALTD
 70
     2
  9
$DIMALTF
 40
0.0393701
  9
$DIMLFAC
 40
1.0
  9
$DIMTOFL
 70
     1
  9
$DIMTVP
 40
0.0
  9
$DIMTIX
 70
     0
  9
$DIMSOXD
 70
     0
  9
$DIMSAH
 70
     0
  9
$DIMBLK1
  1

  9
$DIMBLK2
  1

  9
$DIMSTYLE
  2
AM_ISO
  9
$DIMCLRD
 70
   256
  9
$DIMCLRE
 70
   256
  9
$DIMCLRT
 70
     2
  9
$DIMTFAC
 40
0.71
  9
$DIMGAP
 40
1.5
  9
$DIMJUST
 70
     0
  9
$DIMSD1
 70
     0
  9
$DIMSD2
 70
     0
  9
$DIMTOLJ
 70
     0
  9
$DIMTZIN
 70
     8
  9
$DIMALTZ
 70
     0
  9
$DIMALTTZ
 70
     0
  9
$DIMUPT
 70
     0
  9
$DIMDEC
 70
     2
  9
$DIMTDEC
 70
     3
  9
$DIMALTU
 70
     2
  9
$DIMALTTD
 70
     4
  9
$DIMTXSTY
  7
Standard
  9
$DIMAUNIT
 70
     0
  9
$DIMADEC
 70
     0
  9
$DIMALTRND
 40
0.0
  9
$DIMAZIN
 70
     2
  9
$DIMDSEP
 70
    46
  9
$DIMATFIT
 70
     3
  9
$DIMFRAC
 70
     0
  9
$DIMLDRBLK
  1

  9
$DIMLUNIT
 70
     2
  9
$DIMLWD
 70
    -1
  9
$DIMLWE
 70
    -1
  9
$DIMTMOVE
 70
     0
  9
$LUNITS
 70
     2
  9
$LUPREC
 70
     2
  9
$SKETCHINC
 40
0.1
  9
$FILLETRAD
 40
0.0
  9
$AUNITS
 70
     0
  9
$AUPREC
 70
     0
  9
$MENU
  1
ACAD
  9
$ELEVATION
 40
0.0
  9
$PELEVATION
 40
0.0
  9
$THICKNESS
 40
0.0
  9
$LIMCHECK
 70
     0
  9
$CHAMFERA
 40
1.0
  9
$CHAMFERB
 40
1.0
  9
$CHAMFERC
 40
0.0
  9
$CHAMFERD
 40
0.0
  9
$SKPOLY
 70
     0
  9
$TDCREATE
 40
2453314.561093206
  9
$TDUCREATE
 40
2453314.186093206
  9
$TDUPDATE
 40
2455379.445237269
  9
$TDUUPDATE
 40
2455379.070237269
  9
$TDINDWG
 40
0.4504417824
  9
$TDUSRTIMER
 40
0.4504399653
  9
$USRTIMER
 70
     1
  9
$ANGBASE
 50
0.0
  9
$ANGDIR
 70
     0
  9
$PDMODE
 70
     0
  9
$PDSIZE
 40
0.0
  9
$PLINEWID
 40
0.0
  9
$SPLFRAME
 70
     0
  9
$SPLINETYPE
 70
     6
  9
$SPLINESEGS
 70
     8
  9
$HANDSEED
  5
184C
  9
$SURFTAB1
 70
     6
  9
$SURFTAB2
 70
     6
  9
$SURFTYPE
 70
     6
  9
$SURFU
 70
     6
  9
$SURFV
 70
     6
  9
$UCSBASE
  2

  9
$UCSNAME
  2

  9
$UCSORG
 10
0.0
 20
0.0
 30
0.0
  9
$UCSXDIR
 10
1.0
 20
0.0
 30
0.0
  9
$UCSYDIR
 10
0.0
 20
1.0
 30
0.0
  9
$UCSORTHOREF
  2

  9
$UCSORTHOVIEW
 70
     0
  9
$UCSORGTOP
 10
0.0
 20
0.0
 30
0.0
  9
$UCSORGBOTTOM
 10
0.0
 20
0.0
 30
0.0
  9
$UCSORGLEFT
 10
0.0
 20
0.0
 30
0.0
  9
$UCSORGRIGHT
 10
0.0
 20
0.0
 30
0.0
  9
$UCSORGFRONT
 10
0.0
 20
0.0
 30
0.0
  9
$UCSORGBACK
 10
0.0
 20
0.0
 30
0.0
  9
$PUCSBASE
  2

  9
$PUCSNAME
  2

  9
$PUCSORG
 10
0.0
 20
0.0
 30
0.0
  9
$PUCSXDIR
 10
1.0
 20
0.0
 30
0.0
  9
$PUCSYDIR
 10
0.0
 20
1.0
 30
0.0
  9
$PUCSORTHOREF
  2

  9
$PUCSORTHOVIEW
 70
     0
  9
$PUCSORGTOP
 10
0.0
 20
0.0
 30
0.0
  9
$PUCSORGBOTTOM
 10
0.0
 20
0.0
 30
0.0
  9
$PUCSORGLEFT
 10
0.0
 20
0.0
 30
0.0
  9
$PUCSORGRIGHT
 10
0.0
 20
0.0
 30
0.0
  9
$PUCSORGFRONT
 10
0.0
 20
0.0
 30
0.0
  9
$PUCSORGBACK
 10
0.0
 20
0.0
 30
0.0
  9
$USERI1
 70
     0
  9
$USERI2
 70
     0
  9
$USERI3
 70
     0
  9
$USERI4
 70
     0
  9
$USERI5
 70
     0
  9
$USERR1
 40
0.0
  9
$USERR2
 40
0.0
  9
$USERR3
 40
0.0
  9
$USERR4
 40
0.0
  9
$USERR5
 40
0.0
  9
$WORLDVIEW
 70
     1
  9
$SHADEDGE
 70
     3
  9
$SHADEDIF
 70
    70
  9
$TILEMODE
 70
     1
  9
$MAXACTVP
 70
    64
  9
$PINSBASE
 10
0.0
 20
0.0
 30
0.0
  9
$PLIMCHECK
 70
     0
  9
$PEXTMIN
 10
1.0
 20
1.0
 30
0.0
  9
$PEXTMAX
 10
201.0
 20
288.0
 30
0.0
  9
$PLIMMIN
 10
-3.174999952316282
 20
-3.174999952316282
  9
$PLIMMAX
 10
206.7348358631134
 20
293.8568298816682
  9
$UNITMODE
 70
     0
  9
$VISRETAIN
 70
     1
  9
$PLINEGEN
 70
     0
  9
$PSLTSCALE
 70
     1
  9
$TREEDEPTH
 70
  3020
  9
$CMLSTYLE
  2
Standard
  9
$CMLJUST
 70
     0
  9
$CMLSCALE
 40
1.0
  9
$PROXYGRAPHICS
 70
     1
  9
$MEASUREMENT
 70
     1
  9
$CELWEIGHT
370
    -1
  9
$ENDCAPS
280
     0
  9
$JOINSTYLE
280
     0
  9
$LWDISPLAY
290
     0
  9
$INSUNITS
 70
     0
  9
$HYPERLINKBASE
  1

  9
$STYLESHEET
  1

  9
$XEDIT
290
     1
  9
$CEPSNTYPE
380
     0
  9
$PSTYLEMODE
290
     1
  9
$FINGERPRINTGUID
  2
{4067D8D0-9456-4366-A6A6-D0BA481CF7B9}
  9
$VERSIONGUID
  2
{EB2C2165-0808-4B73-9C0B-BF54C27970E3}
  9
$EXTNAMES
290
     1
  9
$PSVPSCALE
 40
0.0
  9
$OLESTARTUP
290
     0
  0
ENDSEC
  0
SECTION
  2
CLASSES
  0
CLASS
  1
ACDBDICTIONARYWDFLT
  2
AcDbDictionaryWithDefault
  3
ObjectDBX Classes
 90
        0
280
     0
281
     0
  0
CLASS
  1
TABLESTYLE
  2
AcDbTableStyle
  3
ObjectDBX Classes
 90
     4095
280
     0
281
     0
  0
CLASS
  1
VAACXREFPANELOBJECT
  2
VaAcXREFPanelObject
  3
VAAC_ADDIN
 90
    32768
280
     1
281
     0
  0
CLASS
  1
VAACIMAGEINVENTORY
  2
VaAcImageInventory
  3
VAAC_ADDIN
 90
    32768
280
     1
281
     0
  0
CLASS
  1
DICTIONARYVAR
  2
AcDbDictionaryVar
  3
ObjectDBX Classes
 90
        0
280
     0
281
     0
  0
CLASS
  1
SORTENTSTABLE
  2
AcDbSortentsTable
  3
ObjectDBX Classes
 90
        0
280
     0
281
     0
  0
CLASS
  1
MATERIAL
  2
AcDbMaterial
  3
ObjectDBX Classes
 90
     1153
280
     0
281
     0
  0
CLASS
  1
VISUALSTYLE
  2
AcDbVisualStyle
  3
ObjectDBX Classes
 90
     4095
280
     0
281
     0
  0
CLASS
  1
ACDBPLACEHOLDER
  2
AcDbPlaceHolder
  3
ObjectDBX Classes
 90
        0
280
     0
281
     0
  0
CLASS
  1
LAYOUT
  2
AcDbLayout
  3
ObjectDBX Classes
 90
        0
280
     0
281
     0
  0
CLASS
  1
SCALE
  2
AcDbScale
  3
ObjectDBX Classes
 90
     1153
280
     0
281
     0
  0
CLASS
  1
MLEADERSTYLE
  2
AcDbMLeaderStyle
  3
ACDB_MLEADERSTYLE_CLASS
 90
     4095
280
     0
281
     0
  0
CLASS
  1
AMGSETTINGSOBJ
  2
AmgSettingsObj
  3
"AcadM|Product Description: AutoCAD Mechanical|Company: Autodesk, Inc."
 90
     1024
280
     0
281
     0
  0
CLASS
  1
ACME_DOCUMENT
  2
AcMeDbDoc
  3
AcMeServices
 90
     1024
280
     0
281
     0
  0
CLASS
  1
ACMESCOPE
  2
AcMeScope
  3
AcMeServices
 90
     1024
280
     0
281
     0
  0
CLASS
  1
ACMECOMMANDHISTORY
  2
AcMeCommandHistory
  3
AcMeServices
 90
     1024
280
     0
281
     0
  0
CLASS
  1
ACIMSYSVARMAN
  2
AcImSysVarManager
  3
AcMeServices
 90
     1024
280
     0
281
     0
  0
CLASS
  1
ACIMINTSYSVAR
  2
AcImIntSysVar
  3
AcMeServices
 90
     1024
280
     0
281
     0
  0
CLASS
  1
ACMEDRAWINGMAN
  2
AcMeDrawingMan
  3
AcMeServices
 90
     1024
280
     0
281
     0
  0
CLASS
  1
ACMEVIEW
  2
AcMeView
  3
AcMeServices
 90
     1024
280
     0
281
     0
  0
CLASS
  1
ACDBENTITYCACHE
  2
AcMeEntityCache
  3
AcMeServices
 90
     1024
280
     0
281
     0
  0
CLASS
  1
GSMANAGER
  2
AcMeGSManager
  3
AcMeServices
 90
     1024
280
     0
281
     0
  0
CLASS
  1
AMDTINTERNALREACTOR
  2
AmdtInternalReactor
  3
AcMeServices
 90
     1024
280
     0
281
     0
  0
CLASS
  1
ACMESTATEMGR
  2
AcMeStateMgr
  3
AcMeServices
 90
     1024
280
     0
281
     0
  0
CLASS
  1
ACGREFMASTER
  2
AcGrefMaster
  3
AcAttribServices
 90
     1024
280
     0
281
     0
  0
CLASS
  1
AM_DRAWING_MGR
  2
AcDmDwgMgr
  3
AcMechDwgViewMgmt
 90
     1024
280
     0
281
     0
  0
CLASS
  1
AM_DWG_DOCUMENT
  2
AcDmDwgDocument
  3
AcMechDwgViewMgmt
 90
     1024
280
     0
281
     0
  0
CLASS
  1
AM_DWG_SHEET
  2
AcDmSheet
  3
AcMechDwgViewMgmt
 90
     1024
280
     0
281
     0
  0
CLASS
  1
AM_VIEWDIMPARMAP
  2
AcDmViewDimParMap
  3
AcMechDwgViewMgmt
 90
     1024
280
     0
281
     0
  0
CLASS
  1
ACIMREALSYSVAR
  2
AcImRealSysVar
  3
AcMeServices
 90
     1024
280
     0
281
     0
  0
CLASS
  1
AM_DWGMGR_NAME
  2
AcDmDwgMgrName
  3
AcMechDwgViewMgmt
 90
     1024
280
     0
281
     0
  0
CLASS
  1
ACME_DATABASE
  2
AcMeDbDatabase
  3
AcMeServices
 90
     1024
280
     0
281
     0
  0
CLASS
  1
ACRFINSADJUSTERMGR
  2
AcRfInsAdjusterMgr
  3
AcMeServices
 90
     1024
280
     0
281
     0
  0
CLASS
  1
ACGREFACADMASTER
  2
AcGrefacadMaster
  3
AcGrefServices
 90
     1024
280
     0
281
     0
  0
CLASS
  1
AMDTMENUSTATEMGR
  2
AmdtMenuStateMgr
  3
McadcomServices
 90
     1024
280
     0
281
     0
  0
CLASS
  1
AMDTMCOMMENUSTATE
  2
AmdtMcomMenuState
  3
McadcomServices
 90
     1024
280
     0
281
     0
  0
CLASS
  1
AMIMASTER
  2
AmiMaster
  3
AmiServices
 90
     1024
280
     0
281
     0
  0
CLASS
  1
MAPIAMMOUDLE
  2
MApiAmModule
  3
MApiAmServices
 90
     1024
280
     0
281
     0
  0
CLASS
  1
ACIMSTRSYSVAR
  2
AcImStrSysVar
  3
AcMeServices
 90
     1024
280
     0
281
     0
  0
CLASS
  1
AMDTADMENUSTATE
  2
AmdtAdMenuState
  3
DesignerServices
 90
     1024
280
     0
281
     0
  0
CLASS
  1
ADAPPL
  2
AcAdAppl
  3
DesignerServices
 90
     1024
280
     0
281
     0
  0
CLASS
  1
DEPMGR
  2
AcAdDepMgr
  3
DesignerServices
 90
     1024
280
     0
281
     0
  0
CLASS
  1
PARAMMGR
  2
AcAdParamMgr
  3
DesignerServices
 90
     1024
280
     0
281
     0
  0
CLASS
  1
PARAMSCOPE
  2
AcAdParamScope
  3
DesignerServices
 90
     1024
280
     0
281
     0
  0
CLASS
  1
NAMEDAPPL
  2
AcAdNamedAppl
  3
DesignerServices
 90
     1024
280
     0
281
     0
  0
CLASS
  1
AMDTDMMENUSTATE
  2
AmdtDmMenuState
  3
AcMechDwgViewMgmt
 90
     1024
280
     0
281
     0
  0
CLASS
  1
AMDTAMMENUSTATE
  2
AmdtAmMenuState
  3
DesignerAssemblies
 90
     1024
280
     0
281
     0
  0
CLASS
  1
ACAMPROJECT
  2
AcAmProject
  3
DesignerAssemblies
 90
     1024
280
     0
281
     0
  0
CLASS
  1
ACAMGRCOMPDEF
  2
AcAmGrCompDef
  3
DesignerAssemblies
 90
     1024
280
     0
281
     0
  0
CLASS
  1
ACCMCONTEXT
  2
AcCmContext
  3
DesignerAssemblies
 90
     1024
280
     0
281
     0
  0
CLASS
  1
ACAMCOMPDEF
  2
AcAmCompDef
  3
DesignerAssemblies
 90
     1024
280
     0
281
     0
  0
CLASS
  1
ACAMCOMPDEFMGR
  2
AcAmCompDefMgr
  3
DesignerAssemblies
 90
     1024
280
     0
281
     0
  0
CLASS
  1
AMCONTEXTMGR
  2
AcAmContextMgr
  3
DesignerAssemblies
 90
     1024
280
     0
281
     0
  0
CLASS
  1
ACAMCONTEXTMODELER
  2
AcAmContextModeler
  3
DesignerAssemblies
 90
     1024
280
     0
281
     0
  0
CLASS
  1
ACMDATADICTIONARY
  2
AcmDataDictionary
  3
"AcmSymBB|Product Description: AutoCAD Mechanical|Company: Autodesk, Inc."
 90
     1024
280
     0
281
     0
  0
CLASS
  1
CATALOGSTATE
  2
AcAmCatalogState
  3
DesignerAssemblies
 90
     1024
280
     0
281
     0
  0
CLASS
  1
ACAMGRCOMPDEFSET
  2
AcAmGrCompDefSet
  3
DesignerAssemblies
 90
     1024
280
     0
281
     0
  0
CLASS
  1
AMDTBROWSERDBTAB
  2
AmdtBrowserDbTab
  3
McadcomServices
 90
     1024
280
     0
281
     0
  0
CLASS
  1
CBROWSERAPPOBJECT
  2
CBrowserAppObject
  3
McadcomServices
 90
     1024
280
     0
281
     0
  0
CLASS
  1
DM_PLACEHOLDER
  2
AcDmSelsetPlaceholder
  3
AcMechDwgViewMgmt
 90
     1024
280
     0
281
     0
  0
CLASS
  1
ACMSTANDARDISO
  2
AcmStandardISO
  3
"Amdt_StdImp|Product Description: AutoCAD Mechanical|Company: Autodesk, Inc."
 90
    33792
280
     0
281
     0
  0
CLASS
  1
AMDTEDGESTANDARDISO13715
  2
AmdtEdgeStdISO13715
  3
"Amdt_StdImp|Product Description: AutoCAD Mechanical|Company: Autodesk, Inc."
 90
    33792
280
     0
281
     0
  0
CLASS
  1
ACMSURFSTANDARDISO2002
  2
AcmSurfTextStdISO2002
  3
"Amdt_StdImp|Product Description: AutoCAD Mechanical|Company: Autodesk, Inc."
 90
    33792
280
     0
281
     0
  0
CLASS
  1
ACMFCFSTANDARDISO
  2
AcmFCFStdISO
  3
"Amdt_StdImp|Product Description: AutoCAD Mechanical|Company: Autodesk, Inc."
 90
    33792
280
     0
281
     0
  0
CLASS
  1
ACMWELDSTANDARDISO
  2
AcmWeldingStdISO
  3
"Amdt_StdImp|Product Description: AutoCAD Mechanical|Company: Autodesk, Inc."
 90
    33792
280
     0
281
     0
  0
CLASS
  1
ACMIDSTANDARDISO
  2
AcmIdStdISO
  3
"Amdt_StdImp|Product Description: AutoCAD Mechanical|Company: Autodesk, Inc."
 90
    33792
280
     0
281
     0
  0
CLASS
  1
ACMDATUMSTANDARDISO
  2
AcmDatumStdISO
  3
"Amdt_StdImp|Product Description: AutoCAD Mechanical|Company: Autodesk, Inc."
 90
    33792
280
     0
281
     0
  0
CLASS
  1
ACMBOMSTANDARDISO
  2
AcmBOMStdISO
  3
"Amdt_StdImp|Product Description: AutoCAD Mechanical|Company: Autodesk, Inc."
 90
    33792
280
     0
281
     0
  0
CLASS
  1
ACMDETAILSTANDARDISO
  2
AmdtDetailSymStdISO
  3
"Amdt_StdImp|Product Description: AutoCAD Mechanical|Company: Autodesk, Inc."
 90
    33792
280
     0
281
     0
  0
CLASS
  1
ACMSECTIONSTANDARDISO2001
  2
AmdtSectionSymStdISO2001
  3
"Amdt_StdImp|Product Description: AutoCAD Mechanical|Company: Autodesk, Inc."
 90
    33792
280
     0
281
     0
  0
CLASS
  1
ACMCENTERLINESTANDARDISO
  2
AmdtCenterLineStdISO
  3
"Amdt_StdImp|Product Description: AutoCAD Mechanical|Company: Autodesk, Inc."
 90
    33792
280
     0
281
     0
  0
CLASS
  1
ACMTHREADLINESTANDARDISO
  2
AmdtThreadLineStdISO
  3
"Amdt_StdImp|Product Description: AutoCAD Mechanical|Company: Autodesk, Inc."
 90
    33792
280
     0
281
     0
  0
CLASS
  1
ACMNOTESTANDARDISO
  2
AmdtNoteStdISO
  3
"Amdt_StdImp|Product Description: AutoCAD Mechanical|Company: Autodesk, Inc."
 90
    33792
280
     0
281
     0
  0
CLASS
  1
ACMTAPERSTANDARDISO
  2
AcmTaperStdISO
  3
"Amdt_StdImp|Product Description: AutoCAD Mechanical|Company: Autodesk, Inc."
 90
    33792
280
     0
281
     0
  0
CLASS
  1
ACMANOOTATIONVIEWSTANDARDISO
  2
AmdtAnViewStdISO
  3
"Amdt_StdImp|Product Description: AutoCAD Mechanical|Company: Autodesk, Inc."
 90
    33792
280
     0
281
     0
  0
CLASS
  1
ACAMGLAYSTD
  2
AcAmgLayStd
  3
"AmgLay|Product Description: AutoCAD Mechanical|Company: Autodesk, Inc."
 90
    33792
280
     0
281
     0
  0
CLASS
  1
ACAMGDIMSTD
  2
AcAmgDimStd
  3
"AmgDim|Product Description: AutoCAD Mechanical|Company: Autodesk, Inc."
 90
    33792
280
     0
281
     0
  0
CLASS
  1
AMGOBJPROPCFG
  2
AmgObjPropCfg
  3
"AmgLay|Product Description: AutoCAD Mechanical|Company: Autodesk, Inc."
 90
     1025
280
     0
281
     0
  0
CLASS
  1
ACAMGHOLECHARTSTDISO
  2
AcAmgHoleChartStdISO
  3
AmgDim|Product Description: AutoCAD Mechanical|Company: Autodesk, Inc.
 90
    33792
280
     0
281
     0
  0
CLASS
  1
ACAMGTITLESTD
  2
AcAmgTitleStd
  3
"AmgTitle|Product Description: AutoCAD Mechanical|Company: Autodesk, Inc."
 90
    36863
280
     0
281
     0
  0
CLASS
  1
AMDTNOTETEMPLATEDB
  2
AmdtNoteTemplateDB
  3
AcmSymBB|Product Description: AutoCAD Mechanical|Company: Autodesk, Inc.
 90
    33792
280
     0
281
     0
  0
CLASS
  1
ACAMGFILTERDAT
  2
AcAmgFilterDat
  3
"AcadM|Product Description: AutoCAD Mechanical|Company: Autodesk, Inc."
 90
    33792
280
     0
281
     0
  0
CLASS
  1
CELLSTYLEMAP
  2
AcDbCellStyleMap
  3
ObjectDBX Classes
 90
     1152
280
     0
281
     0
  0
ENDSEC
  0
SECTION
  2
TABLES
  0
TABLE
  2
VPORT
  5
24
330
0
100
AcDbSymbolTable
 70
     1
  0
VPORT
  5
25
330
24
100
AcDbSymbolTableRecord
100
AcDbViewportTableRecord
  2
*Active
 70
     0
 10
0.0
 20
0.0
 11
1.0
 21
1.0
 12
148.4954684853966
 22
148.500000691507
 13
0.0
 23
0.0
 14
1.0
 24
1.0
 15
0.0
 25
0.0
 16
0.0
 26
0.0
 36
1.0
 17
0.0
 27
0.0
 37
0.0
 40
299.3785364012268
 41
2.080901856763925
 42
50.0
 43
0.0
 44
0.0
 50
0.0
 51
0.0
 71
     0
 72
  2000
 73
     1
 74
     1
 75
     0
 76
     0
 77
     0
 78
     0
281
     0
 65
     0
110
0.0
120
0.0
130
0.0
111
1.0
121
0.0
131
0.0
112
0.0
122
1.0
132
0.0
 79
     0
146
0.0
  0
ENDTAB
  0
TABLE
  2
LTYPE
  5
1F
330
0
100
AcDbSymbolTable
 70
    18
  0
LTYPE
  5
20
330
1F
100
AcDbSymbolTableRecord
100
AcDbLinetypeTableRecord
  2
ByBlock
 70
     0
  3

 72
    65
 73
     0
 40
0.0
  0
LTYPE
  5
21
330
1F
100
AcDbSymbolTableRecord
100
AcDbLinetypeTableRecord
  2
ByLayer
 70
     0
  3

 72
    65
 73
     0
 40
0.0
  0
LTYPE
  5
C
330
1F
100
AcDbSymbolTableRecord
100
AcDbLinetypeTableRecord
  2
CONTINUOUS
 70
     0
  3
Solid line
 72
    65
 73
     0
 40
0.0
  0
LTYPE
  5
B7
330
1F
100
AcDbSymbolTableRecord
100
AcDbLinetypeTableRecord
  2
CENTER2
 70
     0
  3
Center (.5x) ___ _ ___ _ ___ _ ___ _ ___ _ ___
 72
    65
 73
     4
 40
1.125
 49
0.75
 74
     0
 49
-0.125
 74
     0
 49
0.125
 74
     0
 49
-0.125
 74
     0
  0
LTYPE
  5
275
330
1F
100
AcDbSymbolTableRecord
100
AcDbLinetypeTableRecord
  2
HIDDEN2
 70
     0
  3
Hidden (.5x) _ _ _ _ _ _ _ _ _ _ _ _ _ _ _ _ _
 72
    65
 73
     2
 40
4.762499999999998
 49
3.174999999999998
 74
     0
 49
-1.587499999999999
 74
     0
  0
LTYPE
  5
155F
330
1F
100
AcDbSymbolTableRecord
100
AcDbLinetypeTableRecord
  2
HIDDEN
 70
     0
  3
Hidden __ __ __ __ __ __ __ __ __ __ __ __ __ _
 72
    65
 73
     2
 40
9.524999999999996
 49
6.349999999999998
 74
     0
 49
-3.174999999999998
 74
     0
  0
LTYPE
  5
1560
330
1F
100
AcDbSymbolTableRecord
100
AcDbLinetypeTableRecord
  2
PHANTOM2
 70
     0
  3
Phantom (.5x) ___ _ _ ___ _ _ ___ _ _ ___ _ _
 72
    65
 73
     6
 40
31.75
 49
15.875
 74
     0
 49
-3.174999999999998
 74
     0
 49
3.174999999999998
 74
     0
 49
-3.174999999999998
 74
     0
 49
3.174999999999998
 74
     0
 49
-3.174999999999998
 74
     0
  0
LTYPE
  5
1561
330
1F
100
AcDbSymbolTableRecord
100
AcDbLinetypeTableRecord
  2
CENTER
 70
     0
  3
Center ____ _ ____ _ ____ _ ____ _ ____ _ ____
 72
    65
 73
     4
 40
50.8
 49
31.75
 74
     0
 49
-6.349999999999998
 74
     0
 49
6.349999999999998
 74
     0
 49
-6.349999999999998
 74
     0
  0
LTYPE
  5
15A7
330
1F
100
AcDbSymbolTableRecord
100
AcDbLinetypeTableRecord
  2
AM_ISO02W050
 70
     0
  3
__ __ __ __ __ __ __ __ __ __ __ __ __ __ __
 72
    65
 73
     2
 40
7.5
 49
6.0
 74
     0
 49
-1.5
 74
     0
  0
LTYPE
  5
15A8
330
1F
100
AcDbSymbolTableRecord
100
AcDbLinetypeTableRecord
  2
AM_ISO08W050
 70
     0
  3
____ . ____ . ____ . ____ . ____ . ____ . ____
 72
    65
 73
     4
 40
18.0
 49
12.0
 74
     0
 49
-1.5
 74
     0
 49
3.0
 74
     0
 49
-1.5
 74
     0
  0
LTYPE
  5
15A9
330
1F
100
AcDbSymbolTableRecord
100
AcDbLinetypeTableRecord
  2
AM_ISO09W050
 70
     0
  3
_____ . . _____ . . _____ . . ____ .. ____
 72
    65
 73
     6
 40
22.5
 49
12.0
 74
     0
 49
-1.5
 74
     0
 49
3.0
 74
     0
 49
-1.5
 74
     0
 49
3.0
 74
     0
 49
-1.5
 74
     0
  0
LTYPE
  5
15AA
330
1F
100
AcDbSymbolTableRecord
100
AcDbLinetypeTableRecord
  2
Amconstr
 70
     0
  3
_______________________
 72
    65
 73
     2
 40
9999.0
 49
9999.0
 74
     0
 49
0.0
 74
     0
  0
LTYPE
  5
15AB
330
1F
100
AcDbSymbolTableRecord
100
AcDbLinetypeTableRecord
  2
AM_ISO08W050x2
 70
     0
  3
__ . __ . __ . __ . __ . __
 72
    65
 73
     4
 40
9.0
 49
6.0
 74
     0
 49
-0.75
 74
     0
 49
1.5
 74
     0
 49
-0.75
 74
     0
  0
LTYPE
  5
15AC
330
1F
100
AcDbSymbolTableRecord
100
AcDbLinetypeTableRecord
  2
AM_ISO02W050x2
 70
     0
  3
 _ _ _ _ _ _ _ _ _ _ _ _
 72
    65
 73
     2
 40
3.75
 49
3.0
 74
     0
 49
-0.75
 74
     0
  0
LTYPE
  5
15AF
330
1F
100
AcDbSymbolTableRecord
100
AcDbLinetypeTableRecord
  2
Amzigzag
 70
     0
  3
/\/-/\/-/\/-/\/-/\/-/\/
 72
    65
 73
     2
 40
11.0001
 49
0.0001
 74
     4
 75
   136
340
15AE
 46
0.04
 50
0.0
 44
0.0
 45
0.0
 49
-11.0
 74
     0
  0
ENDTAB
  0
TABLE
  2
LAYER
  5
16
102
{ACAD_XDICTIONARY
360
17
102
}
330
0
100
AcDbSymbolTable
 70
     8
  0
LAYER
  5
6
102
{ACAD_XDICTIONARY
360
15D9
102
}
330
16
100
AcDbSymbolTableRecord
100
AcDbLayerTableRecord
  2
0
 70
     0
 62
     7
  6
CONTINUOUS
370
    -3
390
7
  0
LAYER
  5
CB
330
16
100
AcDbSymbolTableRecord
100
AcDbLayerTableRecord
  2
Defpoints
 70
     0
 62
     7
  6
CONTINUOUS
290
     0
370
    -3
390
7
  0
LAYER
  5
3F
102
{ACAD_XDICTIONARY
360
15DB
102
}
330
16
100
AcDbSymbolTableRecord
100
AcDbLayerTableRecord
  2
Title
 70
     0
 62
     7
  6
CONTINUOUS
370
    -3
390
7
  0
LAYER
  5
39
102
{ACAD_XDICTIONARY
360
15DD
102
}
330
16
100
AcDbSymbolTableRecord
100
AcDbLayerTableRecord
  2
Dimmention
 70
     0
 62
     3
  6
CONTINUOUS
370
    15
390
7
  0
LAYER
  5
B6
102
{ACAD_XDICTIONARY
360
15DF
102
}
330
16
100
AcDbSymbolTableRecord
100
AcDbLayerTableRecord
  2
Center
 70
     0
 62
     1
  6
CENTER2
370
    15
390
7
  0
LAYER
  5
1CA
102
{ACAD_XDICTIONARY
360
15E1
102
}
330
16
100
AcDbSymbolTableRecord
100
AcDbLayerTableRecord
  2
Visible
 70
     0
 62
     7
  6
CONTINUOUS
370
    50
390
7
  0
LAYER
  5
1D5
102
{ACAD_XDICTIONARY
360
15E3
102
}
330
16
100
AcDbSymbolTableRecord
100
AcDbLayerTableRecord
  2
Visible Narrow
 70
     0
 62
     4
  6
CONTINUOUS
370
    15
390
7
  0
LAYER
  5
186
102
{ACAD_XDICTIONARY
360
15E5
102
}
330
16
100
AcDbSymbolTableRecord
100
AcDbLayerTableRecord
  2
Hatch (ISO)
 70
     0
 62
     3
  6
CONTINUOUS
370
    15
390
7
  0
ENDTAB
  0
TABLE
  2
STYLE
  5
1C
330
0
100
AcDbSymbolTable
 70
     3
  0
STYLE
  5
1D
330
1C
100
AcDbSymbolTableRecord
100
AcDbTextStyleTableRecord
  2
Standard
 70
     0
 40
0.0
 41
1.0
 50
0.0
 71
     0
 42
1.0
  3
MS Gothic.ttf
  4

1001
ACAD
1000
MS Gothic
1071
    32817
  0
STYLE
  5
15AE
330
1C
100
AcDbSymbolTableRecord
100
AcDbTextStyleTableRecord
  2

 70
     1
 40
0.0
 41
1.0
 50
0.0
 71
     0
 42
1.0
  3
genltshp.shx
  4

  0
ENDTAB
  0
TABLE
  2
VIEW
  5
22
330
0
100
AcDbSymbolTable
 70
     1
  0
ENDTAB
  0
TABLE
  2
UCS
  5
23
330
0
100
AcDbSymbolTable
 70
     0
  0
ENDTAB
  0
TABLE
  2
APPID
  5
28
330
0
100
AcDbSymbolTable
 70
    20
  0
APPID
  5
1B
330
28
100
AcDbSymbolTableRecord
100
AcDbRegAppTableRecord
  2
ACAD
 70
     0
  0
APPID
  5
513
330
28
100
AcDbSymbolTableRecord
100
AcDbRegAppTableRecord
  2
DCO15
 70
     0
  0
APPID
  5
52D
330
28
100
AcDbSymbolTableRecord
100
AcDbRegAppTableRecord
  2
ACAD_PSEXT
 70
     0
  0
APPID
  5
152A
330
28
100
AcDbSymbolTableRecord
100
AcDbRegAppTableRecord
  2
ACAD_MLEADERVER
 70
     0
  0
APPID
  5
1532
330
28
100
AcDbSymbolTableRecord
100
AcDbRegAppTableRecord
  2
MCAD_NO_VIS
 70
     0
  0
APPID
  5
1533
330
28
100
AcDbSymbolTableRecord
100
AcDbRegAppTableRecord
  2
ACAD_TEMP_GRAPHIC
 70
     0
  0
APPID
  5
1563
330
28
100
AcDbSymbolTableRecord
100
AcDbRegAppTableRecord
  2
AD_DRAW
 70
     0
  0
APPID
  5
1566
330
28
100
AcDbSymbolTableRecord
100
AcDbRegAppTableRecord
  2
ACATTRIBSERVICES
 70
     0
  0
APPID
  5
1587
330
28
100
AcDbSymbolTableRecord
100
AcDbRegAppTableRecord
  2
DESIGNERASSEMBLIES
 70
     0
  0
APPID
  5
158D
330
28
100
AcDbSymbolTableRecord
100
AcDbRegAppTableRecord
  2
ACADM_DIM_EDIT
 70
     0
  0
APPID
  5
158E
330
28
100
AcDbSymbolTableRecord
100
AcDbRegAppTableRecord
  2
AMDT_DM_ADJ
 70
     0
  0
APPID
  5
15D7
330
28
100
AcDbSymbolTableRecord
100
AcDbRegAppTableRecord
  2
AcAecLayerStandard
 70
     0
  0
APPID
  5
16CA
330
28
100
AcDbSymbolTableRecord
100
AcDbRegAppTableRecord
  2
ACAD_DSTYLE_DIMARC_LENGTH_SYMBOL
 70
     0
  0
APPID
  5
16CB
330
28
100
AcDbSymbolTableRecord
100
AcDbRegAppTableRecord
  2
ACAD_DSTYLE_DIM_LINETYPE
 70
     0
  0
APPID
  5
16CC
330
28
100
AcDbSymbolTableRecord
100
AcDbRegAppTableRecord
  2
ACAD_DSTYLE_DIM_EXT1_LINETYPE
 70
     0
  0
APPID
  5
16CD
330
28
100
AcDbSymbolTableRecord
100
AcDbRegAppTableRecord
  2
ACAD_DSTYLE_DIM_EXT2_LINETYPE
 70
     0
  0
APPID
  5
1731
330
28
100
AcDbSymbolTableRecord
100
AcDbRegAppTableRecord
  2
GENIUS_GENSCREG_15
 70
     0
  0
APPID
  5
1732
330
28
100
AcDbSymbolTableRecord
100
AcDbRegAppTableRecord
  2
GENIUS_GENOBJ-N-SDF_13
 70
     0
  0
APPID
  5
1733
330
28
100
AcDbSymbolTableRecord
100
AcDbRegAppTableRecord
  2
GENIUS_GENODEF_13
 70
     0
  0
APPID
  5
1742
330
28
100
AcDbSymbolTableRecord
100
AcDbRegAppTableRecord
  2
ACAD_EXEMPT_FROM_CAD_STANDARDS
 70
     0
  0
ENDTAB
  0
TABLE
  2
DIMSTYLE
  5
29
330
0
100
AcDbSymbolTable
 70
     9
100
AcDbDimStyleTable
 71
     2
340
15A5
340
2A
  0
DIMSTYLE
105
2A
102
{ACAD_REACTORS
330
C1
330
CF
330
E2
330
EF
330
FC
330
109
330
116
330
120
330
12D
330
13A
330
147
330
156
330
163
330
170
330
187
330
194
330
1A1
330
DC
330
DE
330
E0
330
17D
330
17F
330
2BD
330
2CB
330
2D8
330
2F3
330
300
330
30D
330
31A
330
327
330
334
330
341
330
34E
330
35D
330
367
330
372
330
37D
330
38A
330
3A4
330
3B3
330
3C0
330
3CB
330
3D6
330
3E3
330
3F2
330
481
330
48C
330
499
330
4A7
330
4B6
330
4C5
330
4D4
102
}
330
29
100
AcDbSymbolTableRecord
100
AcDbDimStyleTableRecord
  2
Standard
 70
     0
 40
0.0
 41
2.0
 42
0.3
 43
3.0
 44
0.5
 73
     0
 74
     0
 77
     1
140
2.5
141
0.2
147
0.5
172
     1
176
   256
177
   256
178
   256
179
     3
271
     1
272
     1
289
     2
340
1D
341
2B
342
2B
371
    15
372
    15
  0
DIMSTYLE
105
15A5
330
29
100
AcDbSymbolTableRecord
100
AcDbDimStyleTableRecord
  2
AM_ISO
 70
     0
  4
"
 41
3.5
 42
1.0
 43
10.0
 44
1.0
 47
0.1
 48
0.1
 73
     0
 74
     0
 77
     1
 78
     8
 79
     2
140
3.5
141
0.0
143
0.0393701
146
0.71
147
1.5
172
     1
176
   256
177
   256
178
     2
271
     2
272
     3
274
     4
283
     0
284
     8
340
1D
371
    -1
372
    -1
1001
ACAD_DSTYLE_DIMARC_LENGTH_SYMBOL
1070
   379
1070
     1
1001
ACAD_DSTYLE_DIM_LINETYPE
1070
   380
1005
20
1001
ACAD_DSTYLE_DIM_EXT1_LINETYPE
1070
   381
1005
20
1001
ACAD_DSTYLE_DIM_EXT2_LINETYPE
1070
   382
1005
20
  0
ENDTAB
  0
TABLE
  2
BLOCK_RECORD
  5
1
330
0
100
AcDbSymbolTable
 70
    98
  0
BLOCK_RECORD
  5
2
102
{ACAD_XDICTIONARY
360
3
102
}
330
1
100
AcDbSymbolTableRecord
100
AcDbBlockTableRecord
  2
*Model_Space
340
E
  0
BLOCK_RECORD
  5
10
330
1
100
AcDbSymbolTableRecord
100
AcDbBlockTableRecord
  2
*Paper_Space
340
13
  0
BLOCK_RECORD
  5
2B
330
1
100
AcDbSymbolTableRecord
100
AcDbBlockTableRecord
  2
_Open30
340
0
102
{BLKREFS
331
126
331
127
331
2C4
331
2C5
331
2D1
331
2D2
331
2DE
331
2DF
331
486
331
487
331
491
331
492
331
4A0
331
4A1
331
4AF
331
4B0
331
4BE
331
4BF
331
4CA
331
4CB
331
10F
331
110
331
133
331
134
331
140
331
141
331
14F
331
150
331
15C
331
15D
331
169
331
16A
331
176
331
177
331
18D
331
18E
331
19A
331
19B
331
313
331
314
331
320
331
321
331
32D
331
32E
331
33A
331
33B
331
347
331
348
331
354
331
355
331
362
331
392
331
393
331
3AC
331
3AD
331
3B9
331
3BA
331
3C5
331
3C6
331
3D0
331
3D1
331
3DB
331
3DC
331
3EB
331
3EC
331
3F8
331
3F9
331
4DC
331
4DD
331
C7
331
C8
331
D5
331
D6
331
E8
331
E9
331
F5
331
F6
331
102
331
103
331
11B
331
1A6
331
2F9
331
2FA
331
306
331
307
331
36C
331
36D
331
377
331
378
331
382
331
383
331
1357
331
1358
331
1360
331
1361
331
1369
331
136A
331
1372
331
1373
331
137B
331
137C
331
1384
331
1385
331
138C
331
1393
331
1394
331
139C
331
139D
331
13A5
331
13A6
331
13B0
331
13B1
331
13B9
331
13BA
331
13C2
331
13C3
331
13CB
331
13CC
331
13D4
331
13D5
331
13DD
331
13DE
331
13E5
331
13ED
331
13EE
331
13F6
331
13F7
331
13FF
331
1400
331
1408
331
1409
331
1411
331
1412
331
141A
331
141B
331
1423
331
1424
331
142C
331
142D
331
1435
331
1436
331
143E
331
143F
331
1447
331
1448
331
144E
331
1454
331
1455
331
145B
331
145C
331
1462
331
1463
331
146C
331
146D
331
1477
331
1478
331
1480
331
1481
331
1488
331
1489
331
148F
331
1490
331
1496
331
1497
331
14A0
331
14A1
331
14A9
331
14AA
331
14B1
331
14B2
331
14B8
331
14B9
331
14C1
331
14C2
331
14CC
331
14CD
331
14D7
331
14D8
331
14DF
331
14E0
331
14E9
331
14EA
102
}
  0
BLOCK_RECORD
  5
C2
330
1
100
AcDbSymbolTableRecord
100
AcDbBlockTableRecord
  2
*D1
340
0
  0
BLOCK_RECORD
  5
D0
330
1
100
AcDbSymbolTableRecord
100
AcDbBlockTableRecord
  2
*D2
340
0
  0
BLOCK_RECORD
  5
E3
330
1
100
AcDbSymbolTableRecord
100
AcDbBlockTableRecord
  2
*D3
340
0
  0
BLOCK_RECORD
  5
F0
330
1
100
AcDbSymbolTableRecord
100
AcDbBlockTableRecord
  2
*D4
340
0
  0
BLOCK_RECORD
  5
FD
330
1
100
AcDbSymbolTableRecord
100
AcDbBlockTableRecord
  2
*D5
340
0
  0
BLOCK_RECORD
  5
10A
330
1
100
AcDbSymbolTableRecord
100
AcDbBlockTableRecord
  2
*D6
340
0
  0
BLOCK_RECORD
  5
117
330
1
100
AcDbSymbolTableRecord
100
AcDbBlockTableRecord
  2
*D7
340
0
  0
BLOCK_RECORD
  5
121
330
1
100
AcDbSymbolTableRecord
100
AcDbBlockTableRecord
  2
*D8
340
0
  0
BLOCK_RECORD
  5
12E
330
1
100
AcDbSymbolTableRecord
100
AcDbBlockTableRecord
  2
*D9
340
0
  0
BLOCK_RECORD
  5
13B
330
1
100
AcDbSymbolTableRecord
100
AcDbBlockTableRecord
  2
*D10
340
0
  0
BLOCK_RECORD
  5
148
330
1
100
AcDbSymbolTableRecord
100
AcDbBlockTableRecord
  2
*D11
340
0
  0
BLOCK_RECORD
  5
157
330
1
100
AcDbSymbolTableRecord
100
AcDbBlockTableRecord
  2
*D12
340
0
  0
BLOCK_RECORD
  5
164
330
1
100
AcDbSymbolTableRecord
100
AcDbBlockTableRecord
  2
*D13
340
0
  0
BLOCK_RECORD
  5
171
330
1
100
AcDbSymbolTableRecord
100
AcDbBlockTableRecord
  2
*D14
340
0
  0
BLOCK_RECORD
  5
188
330
1
100
AcDbSymbolTableRecord
100
AcDbBlockTableRecord
  2
*D15
340
0
  0
BLOCK_RECORD
  5
195
330
1
100
AcDbSymbolTableRecord
100
AcDbBlockTableRecord
  2
*D16
340
0
  0
BLOCK_RECORD
  5
1A2
330
1
100
AcDbSymbolTableRecord
100
AcDbBlockTableRecord
  2
*D17
340
0
  0
BLOCK_RECORD
  5
2BE
330
1
100
AcDbSymbolTableRecord
100
AcDbBlockTableRecord
  2
*D18
340
0
  0
BLOCK_RECORD
  5
2CC
330
1
100
AcDbSymbolTableRecord
100
AcDbBlockTableRecord
  2
*D19
340
0
  0
BLOCK_RECORD
  5
2D9
330
1
100
AcDbSymbolTableRecord
100
AcDbBlockTableRecord
  2
*D20
340
0
  0
BLOCK_RECORD
  5
2F4
330
1
100
AcDbSymbolTableRecord
100
AcDbBlockTableRecord
  2
*D21
340
0
  0
BLOCK_RECORD
  5
301
330
1
100
AcDbSymbolTableRecord
100
AcDbBlockTableRecord
  2
*D22
340
0
  0
BLOCK_RECORD
  5
30E
330
1
100
AcDbSymbolTableRecord
100
AcDbBlockTableRecord
  2
*D23
340
0
  0
BLOCK_RECORD
  5
31B
330
1
100
AcDbSymbolTableRecord
100
AcDbBlockTableRecord
  2
*D24
340
0
  0
BLOCK_RECORD
  5
328
330
1
100
AcDbSymbolTableRecord
100
AcDbBlockTableRecord
  2
*D25
340
0
  0
BLOCK_RECORD
  5
335
330
1
100
AcDbSymbolTableRecord
100
AcDbBlockTableRecord
  2
*D26
340
0
  0
BLOCK_RECORD
  5
342
330
1
100
AcDbSymbolTableRecord
100
AcDbBlockTableRecord
  2
*D27
340
0
  0
BLOCK_RECORD
  5
34F
330
1
100
AcDbSymbolTableRecord
100
AcDbBlockTableRecord
  2
*D28
340
0
  0
BLOCK_RECORD
  5
35E
330
1
100
AcDbSymbolTableRecord
100
AcDbBlockTableRecord
  2
*D29
340
0
  0
BLOCK_RECORD
  5
368
330
1
100
AcDbSymbolTableRecord
100
AcDbBlockTableRecord
  2
*D30
340
0
  0
BLOCK_RECORD
  5
373
330
1
100
AcDbSymbolTableRecord
100
AcDbBlockTableRecord
  2
*D31
340
0
  0
BLOCK_RECORD
  5
37E
330
1
100
AcDbSymbolTableRecord
100
AcDbBlockTableRecord
  2
*D32
340
0
  0
BLOCK_RECORD
  5
38B
330
1
100
AcDbSymbolTableRecord
100
AcDbBlockTableRecord
  2
*D33
340
0
  0
BLOCK_RECORD
  5
3A5
330
1
100
AcDbSymbolTableRecord
100
AcDbBlockTableRecord
  2
*D34
340
0
  0
BLOCK_RECORD
  5
3B4
330
1
100
AcDbSymbolTableRecord
100
AcDbBlockTableRecord
  2
*D35
340
0
  0
BLOCK_RECORD
  5
3C1
330
1
100
AcDbSymbolTableRecord
100
AcDbBlockTableRecord
  2
*D36
340
0
  0
BLOCK_RECORD
  5
3CC
330
1
100
AcDbSymbolTableRecord
100
AcDbBlockTableRecord
  2
*D37
340
0
  0
BLOCK_RECORD
  5
3D7
330
1
100
AcDbSymbolTableRecord
100
AcDbBlockTableRecord
  2
*D38
340
0
  0
BLOCK_RECORD
  5
3E4
330
1
100
AcDbSymbolTableRecord
100
AcDbBlockTableRecord
  2
*D39
340
0
  0
BLOCK_RECORD
  5
3F3
330
1
100
AcDbSymbolTableRecord
100
AcDbBlockTableRecord
  2
*D40
340
0
  0
BLOCK_RECORD
  5
482
330
1
100
AcDbSymbolTableRecord
100
AcDbBlockTableRecord
  2
*D41
340
0
  0
BLOCK_RECORD
  5
48D
330
1
100
AcDbSymbolTableRecord
100
AcDbBlockTableRecord
  2
*D42
340
0
  0
BLOCK_RECORD
  5
49A
330
1
100
AcDbSymbolTableRecord
100
AcDbBlockTableRecord
  2
*D43
340
0
  0
BLOCK_RECORD
  5
4A8
330
1
100
AcDbSymbolTableRecord
100
AcDbBlockTableRecord
  2
*D44
340
0
  0
BLOCK_RECORD
  5
4B7
330
1
100
AcDbSymbolTableRecord
100
AcDbBlockTableRecord
  2
*D45
340
0
  0
BLOCK_RECORD
  5
4C6
330
1
100
AcDbSymbolTableRecord
100
AcDbBlockTableRecord
  2
*D46
340
0
  0
BLOCK_RECORD
  5
4D5
330
1
100
AcDbSymbolTableRecord
100
AcDbBlockTableRecord
  2
*D47
340
0
  0
ENDTAB
  0
ENDSEC
  0
SECTION
  2
BLOCKS
  0
BLOCK
  5
5
330
2
100
AcDbEntity
  8
0
100
AcDbBlockBegin
  2
*Model_Space
 70
     0
 10
0.0
 20
0.0
 30
0.0
  3
*Model_Space
  1

  0
ENDBLK
  5
D
330
2
100
AcDbEntity
  8
0
100
AcDbBlockEnd
  0
BLOCK
  5
11
330
10
100
AcDbEntity
 67
     1
  8
0
100
AcDbBlockBegin
  2
*Paper_Space
 70
     0
 10
0.0
 20
0.0
 30
0.0
  3
*Paper_Space
  1

  0
ENDBLK
  5
12
330
10
100
AcDbEntity
 67
     1
  8
0
100
AcDbBlockEnd
  0
BLOCK
  5
2C
330
2B
100
AcDbEntity
  8
0
370
    15
100
AcDbBlockBegin
  2
_Open30
 70
     0
 10
0.0
 20
0.0
 30
0.0
  3
_Open30
  1

  0
LINE
  5
2D
330
2B
100
AcDbEntity
  8
0
  6
ByBlock
 62
     0
370
    -2
100
AcDbLine
 10
-1.0
 20
0.26794919
 30
0.0
 11
0.0
 21
0.0
 31
0.0
  0
LINE
  5
2E
330
2B
100
AcDbEntity
  8
0
  6
ByBlock
 62
     0
370
    -2
100
AcDbLine
 10
0.0
 20
0.0
 30
0.0
 11
-1.0
 21
-0.26794919
 31
0.0
  0
LINE
  5
2F
330
2B
100
AcDbEntity
  8
0
  6
ByBlock
 62
     0
370
    -2
100
AcDbLine
 10
0.0
 20
0.0
 30
0.0
 11
-1.0
 21
0.0
 31
0.0
  0
ENDBLK
  5
30
330
2B
100
AcDbEntity
  8
0
370
    15
100
AcDbBlockEnd
  0
BLOCK
  5
C3
330
C2
100
AcDbEntity
  8
0
100
AcDbBlockBegin
  2
*D1
 70
     1
 10
0.0
 20
0.0
 30
0.0
  3
*D1
  1

  0
LINE
  5
C4
330
C2
100
AcDbEntity
  8
Dimmention
370
    15
100
AcDbLine
 10
61.11724953807875
 20
209.5393393868973
 30
0.0
 11
41.41724953807556
 21
209.5393393868973
 31
0.0
  0
LINE
  5
C5
330
C2
100
AcDbEntity
  8
Dimmention
370
    15
100
AcDbLine
 10
61.11724953807875
 20
236.5393393868973
 30
0.0
 11
41.41724953807556
 21
236.5393393868973
 31
0.0
  0
LINE
  5
C6
330
C2
100
AcDbEntity
  8
Dimmention
370
    15
100
AcDbLine
 10
41.91724953807557
 20
211.5393393868973
 30
0.0
 11
41.91724953807557
 21
234.5393393868973
 31
0.0
  0
INSERT
  5
C7
330
C2
100
AcDbEntity
  8
Dimmention
370
    15
100
AcDbBlockReference
  2
_Open30
 10
41.91724953807557
 20
209.5393393868973
 30
0.0
 41
2.0
 42
2.0
 43
2.0
 50
270.0
  0
INSERT
  5
C8
330
C2
100
AcDbEntity
  8
Dimmention
370
    15
100
AcDbBlockReference
  2
_Open30
 10
41.91724953807557
 20
236.5393393868973
 30
0.0
 41
2.0
 42
2.0
 43
2.0
 50
90.0
  0
MTEXT
  5
C9
330
C2
100
AcDbEntity
  8
Dimmention
100
AcDbMText
 10
40.16724953807552
 20
223.0393393868974
 30
0.0
 40
2.5
 41
0.0
 71
     5
 72
     1
  1
\A1;27.0
 11
0.0000000000000001
 21
1.0
 31
0.0
 73
     1
 44
1.0
1001
ACAD
1000
MTEXTBEGIN
1070
    73
1070
     1
1070
    44
1040
1.0
1070
    74
1070
     0
1000
MTEXTEND
  0
POINT
  5
CA
330
C2
100
AcDbEntity
  8
Defpoints
 62
     0
100
AcDbPoint
 10
61.41724953807877
 20
209.5393393868973
 30
0.0
  0
POINT
  5
CC
330
C2
100
AcDbEntity
  8
Defpoints
 62
     0
100
AcDbPoint
 10
61.41724953807877
 20
236.5393393868973
 30
0.0
  0
POINT
  5
CD
330
C2
100
AcDbEntity
  8
Defpoints
 62
     0
100
AcDbPoint
 10
41.91724953807557
 20
236.5393393868973
 30
0.0
  0
ENDBLK
  5
CE
330
C2
100
AcDbEntity
  8
0
100
AcDbBlockEnd
  0
BLOCK
  5
D1
330
D0
100
AcDbEntity
  8
0
100
AcDbBlockBegin
  2
*D2
 70
     1
 10
0.0
 20
0.0
 30
0.0
  3
*D2
  1

  0
LINE
  5
D2
330
D0
100
AcDbEntity
  8
Dimmention
370
    15
100
AcDbLine
 10
61.41724953807877
 20
209.2393393868973
 30
0.0
 11
61.41724953807877
 21
188.5393393868973
 31
0.0
  0
LINE
  5
D3
330
D0
100
AcDbEntity
  8
Dimmention
370
    15
100
AcDbLine
 10
88.41724953807876
 20
209.2393393868973
 30
0.0
 11
88.41724953807876
 21
188.5393393868973
 31
0.0
  0
LINE
  5
D4
330
D0
100
AcDbEntity
  8
Dimmention
370
    15
100
AcDbLine
 10
63.41724953807876
 20
189.0393393868973
 30
0.0
 11
86.41724953807877
 21
189.0393393868973
 31
0.0
  0
INSERT
  5
D5
330
D0
100
AcDbEntity
  8
Dimmention
370
    15
100
AcDbBlockReference
  2
_Open30
 10
61.41724953807877
 20
189.0393393868973
 30
0.0
 41
2.0
 42
2.0
 43
2.0
 50
180.0
  0
INSERT
  5
D6
330
D0
100
AcDbEntity
  8
Dimmention
370
    15
100
AcDbBlockReference
  2
_Open30
 10
88.41724953807876
 20
189.0393393868973
 30
0.0
 41
2.0
 42
2.0
 43
2.0
  0
MTEXT
  5
D7
330
D0
100
AcDbEntity
  8
Dimmention
100
AcDbMText
 10
74.91724953807876
 20
190.7893393868973
 30
0.0
 40
2.5
 41
0.0
 71
     5
 72
     1
  1
\A1;27.0
 73
     1
 44
1.0
1001
ACAD
1000
MTEXTBEGIN
1070
    73
1070
     1
1070
    44
1040
1.0
1070
    74
1070
     0
1000
MTEXTEND
  0
POINT
  5
D8
330
D0
100
AcDbEntity
  8
Defpoints
 62
     0
100
AcDbPoint
 10
61.41724953807877
 20
209.5393393868973
 30
0.0
  0
POINT
  5
D9
330
D0
100
AcDbEntity
  8
Defpoints
 62
     0
100
AcDbPoint
 10
88.41724953807876
 20
209.5393393868973
 30
0.0
  0
POINT
  5
DA
330
D0
100
AcDbEntity
  8
Defpoints
 62
     0
100
AcDbPoint
 10
88.41724953807876
 20
189.0393393868973
 30
0.0
  0
ENDBLK
  5
DB
330
D0
100
AcDbEntity
  8
0
100
AcDbBlockEnd
  0
BLOCK
  5
E4
330
E3
100
AcDbEntity
  8
0
100
AcDbBlockBegin
  2
*D3
 70
     1
 10
0.0
 20
0.0
 30
0.0
  3
*D3
  1

  0
LINE
  5
E5
330
E3
100
AcDbEntity
  8
Dimmention
370
    15
100
AcDbLine
 10
79.91724953807622
 20
239.3393393868974
 30
0.0
 11
79.91724953807622
 21
251.5393393868973
 31
0.0
  0
LINE
  5
E6
330
E3
100
AcDbEntity
  8
Dimmention
370
    15
100
AcDbLine
 10
89.41724907009017
 20
223.3393393868974
 30
0.0
 11
89.41724907009017
 21
251.5393393868973
 31
0.0
  0
LINE
  5
E7
330
E3
100
AcDbEntity
  8
Dimmention
370
    15
100
AcDbLine
 10
81.91724953807622
 20
251.0393393868973
 30
0.0
 11
87.4172490700902
 21
251.0393393868973
 31
0.0
  0
INSERT
  5
E8
330
E3
100
AcDbEntity
  8
Dimmention
370
    15
100
AcDbBlockReference
  2
_Open30
 10
79.91724953807622
 20
251.0393393868973
 30
0.0
 41
2.0
 42
2.0
 43
2.0
 50
180.0
  0
INSERT
  5
E9
330
E3
100
AcDbEntity
  8
Dimmention
370
    15
100
AcDbBlockReference
  2
_Open30
 10
89.41724907009017
 20
251.0393393868973
 30
0.0
 41
2.0
 42
2.0
 43
2.0
  0
MTEXT
  5
EA
330
E3
100
AcDbEntity
  8
Dimmention
100
AcDbMText
 10
84.66724930408323
 20
252.7893393868974
 30
0.0
 40
2.5
 41
0.0
 71
     5
 72
     1
  1
\A1;9.5
 73
     1
 44
1.0
1001
ACAD
1000
MTEXTBEGIN
1070
    73
1070
     1
1070
    44
1040
1.0
1070
    74
1070
     0
1000
MTEXTEND
  0
POINT
  5
EB
330
E3
100
AcDbEntity
  8
Defpoints
 62
     0
100
AcDbPoint
 10
79.91724953807622
 20
239.0393393868974
 30
0.0
  0
POINT
  5
EC
330
E3
100
AcDbEntity
  8
Defpoints
 62
     0
100
AcDbPoint
 10
89.41724907009017
 20
223.0393393868974
 30
0.0
  0
POINT
  5
ED
330
E3
100
AcDbEntity
  8
Defpoints
 62
     0
100
AcDbPoint
 10
89.41724907009017
 20
251.0393393868973
 30
0.0
  0
ENDBLK
  5
EE
330
E3
100
AcDbEntity
  8
0
100
AcDbBlockEnd
  0
BLOCK
  5
F1
330
F0
100
AcDbEntity
  8
0
100
AcDbBlockBegin
  2
*D4
 70
     1
 10
0.0
 20
0.0
 30
0.0
  3
*D4
  1

  0
LINE
  5
F2
330
F0
100
AcDbEntity
  8
Dimmention
370
    15
100
AcDbLine
 10
58.41724953807872
 20
208.7393393868973
 30
0.0
 11
58.41724953807872
 21
182.5393393868973
 31
0.0
  0
LINE
  5
F3
330
F0
100
AcDbEntity
  8
Dimmention
370
    15
100
AcDbLine
 10
101.4172495380786
 20
212.9554076319185
 30
0.0
 11
101.4172495380786
 21
182.5393393868973
 31
0.0
  0
LINE
  5
F4
330
F0
100
AcDbEntity
  8
Dimmention
370
    15
100
AcDbLine
 10
60.41724953807872
 20
183.0393393868973
 30
0.0
 11
99.41724953807863
 21
183.0393393868973
 31
0.0
  0
INSERT
  5
F5
330
F0
100
AcDbEntity
  8
Dimmention
370
    15
100
AcDbBlockReference
  2
_Open30
 10
58.41724953807872
 20
183.0393393868973
 30
0.0
 41
2.0
 42
2.0
 43
2.0
 50
180.0
  0
INSERT
  5
F6
330
F0
100
AcDbEntity
  8
Dimmention
370
    15
100
AcDbBlockReference
  2
_Open30
 10
101.4172495380786
 20
183.0393393868973
 30
0.0
 41
2.0
 42
2.0
 43
2.0
  0
MTEXT
  5
F7
330
F0
100
AcDbEntity
  8
Dimmention
100
AcDbMText
 10
79.91724953807866
 20
184.7893393868973
 30
0.0
 40
2.5
 41
0.0
 71
     5
 72
     1
  1
\A1;43.0
 73
     1
 44
1.0
1001
ACAD
1000
MTEXTBEGIN
1070
    73
1070
     1
1070
    44
1040
1.0
1070
    74
1070
     0
1000
MTEXTEND
  0
POINT
  5
F8
330
F0
100
AcDbEntity
  8
Defpoints
 62
     0
100
AcDbPoint
 10
58.41724953807872
 20
209.0393393868974
 30
0.0
  0
POINT
  5
F9
330
F0
100
AcDbEntity
  8
Defpoints
 62
     0
100
AcDbPoint
 10
101.4172495380786
 20
213.2554076319185
 30
0.0
  0
POINT
  5
FA
330
F0
100
AcDbEntity
  8
Defpoints
 62
     0
100
AcDbPoint
 10
101.4172495380786
 20
183.0393393868973
 30
0.0
  0
ENDBLK
  5
FB
330
F0
100
AcDbEntity
  8
0
100
AcDbBlockEnd
  0
BLOCK
  5
FE
330
FD
100
AcDbEntity
  8
0
100
AcDbBlockBegin
  2
*D5
 70
     1
 10
0.0
 20
0.0
 30
0.0
  3
*D5
  1

  0
LINE
  5
FF
330
FD
100
AcDbEntity
  8
Dimmention
370
    15
100
AcDbLine
 10
79.91724953807623
 20
206.7393393868973
 30
0.0
 11
79.91724953807623
 21
194.5393393868973
 31
0.0
  0
LINE
  5
100
330
FD
100
AcDbEntity
  8
Dimmention
370
    15
100
AcDbLine
 10
88.41724953807876
 20
209.2393393868973
 30
0.0
 11
88.41724953807876
 21
194.5393393868973
 31
0.0
  0
LINE
  5
101
330
FD
100
AcDbEntity
  8
Dimmention
370
    15
100
AcDbLine
 10
81.91724953807623
 20
195.0393393868973
 30
0.0
 11
86.41724953807877
 21
195.0393393868973
 31
0.0
  0
INSERT
  5
102
330
FD
100
AcDbEntity
  8
Dimmention
370
    15
100
AcDbBlockReference
  2
_Open30
 10
79.91724953807623
 20
195.0393393868973
 30
0.0
 41
2.0
 42
2.0
 43
2.0
 50
180.0
  0
INSERT
  5
103
330
FD
100
AcDbEntity
  8
Dimmention
370
    15
100
AcDbBlockReference
  2
_Open30
 10
88.41724953807876
 20
195.0393393868973
 30
0.0
 41
2.0
 42
2.0
 43
2.0
  0
MTEXT
  5
104
330
FD
100
AcDbEntity
  8
Dimmention
100
AcDbMText
 10
84.16724953807749
 20
196.7893393868973
 30
0.0
 40
2.5
 41
0.0
 71
     5
 72
     1
  1
\A1;8.5
 73
     1
 44
1.0
1001
ACAD
1000
MTEXTBEGIN
1070
    73
1070
     1
1070
    44
1040
1.0
1070
    74
1070
     0
1000
MTEXTEND
  0
POINT
  5
105
330
FD
100
AcDbEntity
  8
Defpoints
 62
     0
100
AcDbPoint
 10
79.91724953807623
 20
207.0393393868973
 30
0.0
  0
POINT
  5
106
330
FD
100
AcDbEntity
  8
Defpoints
 62
     0
100
AcDbPoint
 10
88.41724953807876
 20
209.5393393868973
 30
0.0
  0
POINT
  5
107
330
FD
100
AcDbEntity
  8
Defpoints
 62
     0
100
AcDbPoint
 10
88.41724953807876
 20
195.0393393868973
 30
0.0
  0
ENDBLK
  5
108
330
FD
100
AcDbEntity
  8
0
100
AcDbBlockEnd
  0
BLOCK
  5
10B
330
10A
100
AcDbEntity
  8
0
100
AcDbBlockBegin
  2
*D6
 70
     1
 10
0.0
 20
0.0
 30
0.0
  3
*D6
  1

  0
LINE
  5
10C
330
10A
100
AcDbEntity
  8
Dimmention
370
    15
100
AcDbLine
 10
101.7172495380762
 20
121.6635436617433
 30
0.0
 11
117.9172495380762
 21
121.6635436617433
 31
0.0
  0
LINE
  5
10D
330
10A
100
AcDbEntity
  8
Dimmention
370
    15
100
AcDbLine
 10
100.7172495380762
 20
161.1635436617448
 30
0.0
 11
117.9172495380762
 21
161.1635436617448
 31
0.0
  0
LINE
  5
10E
330
10A
100
AcDbEntity
  8
Dimmention
370
    15
100
AcDbLine
 10
117.4172495380762
 20
123.6635436617433
 30
0.0
 11
117.4172495380762
 21
159.1635436617448
 31
0.0
  0
INSERT
  5
10F
330
10A
100
AcDbEntity
  8
Dimmention
370
    15
100
AcDbBlockReference
  2
_Open30
 10
117.4172495380762
 20
121.6635436617433
 30
0.0
 41
2.0
 42
2.0
 43
2.0
 50
270.0
  0
INSERT
  5
110
330
10A
100
AcDbEntity
  8
Dimmention
370
    15
100
AcDbBlockReference
  2
_Open30
 10
117.4172495380762
 20
161.1635436617448
 30
0.0
 41
2.0
 42
2.0
 43
2.0
 50
90.0
  0
MTEXT
  5
111
330
10A
100
AcDbEntity
  8
Dimmention
100
AcDbMText
 10
115.6672495380762
 20
141.413543661744
 30
0.0
 40
2.5
 41
0.0
 71
     5
 72
     1
  1
\A1;39.5
 11
0.0000000000000001
 21
1.0
 31
0.0
 73
     1
 44
1.0
1001
ACAD
1000
MTEXTBEGIN
1070
    73
1070
     1
1070
    44
1040
1.0
1070
    74
1070
     0
1000
MTEXTEND
  0
POINT
  5
112
330
10A
100
AcDbEntity
  8
Defpoints
 62
     0
100
AcDbPoint
 10
101.4172495380762
 20
121.6635436617433
 30
0.0
  0
POINT
  5
113
330
10A
100
AcDbEntity
  8
Defpoints
 62
     0
100
AcDbPoint
 10
100.4172495380762
 20
161.1635436617448
 30
0.0
  0
POINT
  5
114
330
10A
100
AcDbEntity
  8
Defpoints
 62
     0
100
AcDbPoint
 10
117.4172495380762
 20
161.1635436617448
 30
0.0
  0
ENDBLK
  5
115
330
10A
100
AcDbEntity
  8
0
100
AcDbBlockEnd
  0
BLOCK
  5
118
330
117
100
AcDbEntity
  8
0
100
AcDbBlockBegin
  2
*D7
 70
     1
 10
0.0
 20
0.0
 30
0.0
  3
*D7
  1

  0
LINE
  5
119
330
117
100
AcDbEntity
  8
Dimmention
370
    15
100
AcDbLine
 10
89.41724953807852
 20
223.0393393868983
 30
0.0
 11
96.41724895377471
 21
235.163695377228
 31
0.0
  0
LINE
  5
11A
330
117
100
AcDbEntity
  8
Dimmention
370
    15
100
AcDbLine
 10
97.41724887030279
 20
236.8957462329894
 30
0.0
 11
105.6279076938841
 21
251.1170260618166
 31
0.0
  0
INSERT
  5
11B
330
117
100
AcDbEntity
  8
Dimmention
370
    15
100
AcDbBlockReference
  2
_Open30
 10
97.41724887030279
 20
236.8957462329894
 30
0.0
 41
2.0
 42
2.0
 43
2.0
 50
60.0000027612298
  0
MTEXT
  5
11C
330
117
100
AcDbEntity
  8
Dimmention
100
AcDbMText
 10
101.9017034811438
 20
248.1630506198238
 30
0.0
 40
2.5
 41
0.0
 71
     5
 72
     1
  1
\A1;R16.0
 11
0.4999999582640257
 21
0.8660254278807133
 31
0.0
 73
     1
 44
1.0
1001
ACAD
1000
MTEXTBEGIN
1070
    73
1070
     1
1070
    44
1040
1.0
1070
    74
1070
     0
1000
MTEXTEND
  0
POINT
  5
11D
330
117
100
AcDbEntity
  8
Defpoints
 62
     0
100
AcDbPoint
 10
97.41724887030279
 20
236.8957462329894
 30
0.0
  0
POINT
  5
11E
330
117
100
AcDbEntity
  8
Defpoints
 62
     0
100
AcDbPoint
 10
89.41724953807852
 20
223.0393393868983
 30
0.0
  0
ENDBLK
  5
11F
330
117
100
AcDbEntity
  8
0
100
AcDbBlockEnd
  0
BLOCK
  5
122
330
121
100
AcDbEntity
  8
0
100
AcDbBlockBegin
  2
*D8
 70
     1
 10
0.0
 20
0.0
 30
0.0
  3
*D8
  1

  0
LINE
  5
123
330
121
100
AcDbEntity
  8
Dimmention
370
    15
100
AcDbLine
 10
147.6378519083041
 20
161.4635436617438
 30
0.0
 11
147.6378519083041
 21
183.1635436617477
 31
0.0
  0
LINE
  5
124
330
121
100
AcDbEntity
  8
Dimmention
370
    15
100
AcDbLine
 10
179.6378519083041
 20
161.4635436617438
 30
0.0
 11
179.6378519083041
 21
183.1635436617477
 31
0.0
  0
LINE
  5
125
330
121
100
AcDbEntity
  8
Dimmention
370
    15
100
AcDbLine
 10
149.6378519083041
 20
182.6635436617477
 30
0.0
 11
177.6378519083041
 21
182.6635436617477
 31
0.0
  0
INSERT
  5
126
330
121
100
AcDbEntity
  8
Dimmention
370
    15
100
AcDbBlockReference
  2
_Open30
 10
147.6378519083041
 20
182.6635436617477
 30
0.0
 41
2.0
 42
2.0
 43
2.0
 50
180.0
  0
INSERT
  5
127
330
121
100
AcDbEntity
  8
Dimmention
370
    15
100
AcDbBlockReference
  2
_Open30
 10
179.6378519083041
 20
182.6635436617477
 30
0.0
 41
2.0
 42
2.0
 43
2.0
  0
MTEXT
  5
128
330
121
100
AcDbEntity
  8
Dimmention
100
AcDbMText
 10
163.6378519083041
 20
184.4135436617477
 30
0.0
 40
2.5
 41
0.0
 71
     5
 72
     1
  1
\A1;32.0
 73
     1
 44
1.0
1001
ACAD
1000
MTEXTBEGIN
1070
    73
1070
     1
1070
    44
1040
1.0
1070
    74
1070
     0
1000
MTEXTEND
  0
POINT
  5
129
330
121
100
AcDbEntity
  8
Defpoints
 62
     0
100
AcDbPoint
 10
147.6378519083041
 20
161.1635436617438
 30
0.0
  0
POINT
  5
12A
330
121
100
AcDbEntity
  8
Defpoints
 62
     0
100
AcDbPoint
 10
179.6378519083041
 20
161.1635436617438
 30
0.0
  0
POINT
  5
12B
330
121
100
AcDbEntity
  8
Defpoints
 62
     0
100
AcDbPoint
 10
179.6378519083041
 20
182.6635436617477
 30
0.0
  0
ENDBLK
  5
12C
330
121
100
AcDbEntity
  8
0
100
AcDbBlockEnd
  0
BLOCK
  5
12F
330
12E
100
AcDbEntity
  8
0
100
AcDbBlockBegin
  2
*D9
 70
     1
 10
0.0
 20
0.0
 30
0.0
  3
*D9
  1

  0
LINE
  5
130
330
12E
100
AcDbEntity
  8
Dimmention
370
    15
100
AcDbLine
 10
97.21724953807822
 20
52.6803304708412
 30
0.0
 11
117.9172495380762
 21
52.68033047084119
 31
0.0
  0
LINE
  5
131
330
12E
100
AcDbEntity
  8
Dimmention
370
    15
100
AcDbLine
 10
97.21724953807914
 20
74.68033047084124
 30
0.0
 11
117.9172495380762
 21
74.68033047084124
 31
0.0
  0
LINE
  5
132
330
12E
100
AcDbEntity
  8
Dimmention
370
    15
100
AcDbLine
 10
117.4172495380762
 20
54.68033047084119
 30
0.0
 11
117.4172495380762
 21
72.68033047084124
 31
0.0
  0
INSERT
  5
133
330
12E
100
AcDbEntity
  8
Dimmention
370
    15
100
AcDbBlockReference
  2
_Open30
 10
117.4172495380762
 20
52.68033047084119
 30
0.0
 41
2.0
 42
2.0
 43
2.0
 50
270.0
  0
INSERT
  5
134
330
12E
100
AcDbEntity
  8
Dimmention
370
    15
100
AcDbBlockReference
  2
_Open30
 10
117.4172495380762
 20
74.68033047084124
 30
0.0
 41
2.0
 42
2.0
 43
2.0
 50
90.0
  0
MTEXT
  5
135
330
12E
100
AcDbEntity
  8
Dimmention
100
AcDbMText
 10
115.6672495380762
 20
63.68033047084121
 30
0.0
 40
2.5
 41
0.0
 71
     5
 72
     1
  1
\A1;22.0
 11
0.0000000000000001
 21
1.0
 31
0.0
 73
     1
 44
1.0
1001
ACAD
1000
MTEXTBEGIN
1070
    73
1070
     1
1070
    44
1040
1.0
1070
    74
1070
     0
1000
MTEXTEND
  0
POINT
  5
136
330
12E
100
AcDbEntity
  8
Defpoints
 62
     0
100
AcDbPoint
 10
96.9172495380782
 20
52.6803304708412
 30
0.0
  0
POINT
  5
137
330
12E
100
AcDbEntity
  8
Defpoints
 62
     0
100
AcDbPoint
 10
96.91724953807913
 20
74.68033047084124
 30
0.0
  0
POINT
  5
138
330
12E
100
AcDbEntity
  8
Defpoints
 62
     0
100
AcDbPoint
 10
117.4172495380762
 20
74.68033047084124
 30
0.0
  0
ENDBLK
  5
139
330
12E
100
AcDbEntity
  8
0
100
AcDbBlockEnd
  0
BLOCK
  5
13C
330
13B
100
AcDbEntity
  8
0
100
AcDbBlockBegin
  2
*D10
 70
     1
 10
0.0
 20
0.0
 30
0.0
  3
*D10
  1

  0
LINE
  5
13D
330
13B
100
AcDbEntity
  8
Dimmention
370
    15
100
AcDbLine
 10
79.91724953807548
 20
45.38033047084073
 30
0.0
 11
79.91724953807531
 21
39.18033047084144
 31
0.0
  0
LINE
  5
13E
330
13B
100
AcDbEntity
  8
Dimmention
370
    15
100
AcDbLine
 10
96.9172495380782
 20
52.38033047084121
 30
0.0
 11
96.91724953807785
 21
39.18033047084096
 31
0.0
  0
LINE
  5
13F
330
13B
100
AcDbEntity
  8
Dimmention
370
    15
100
AcDbLine
 10
81.91724953807534
 20
39.68033047084136
 30
0.0
 11
94.91724953807786
 21
39.68033047084101
 31
0.0
  0
INSERT
  5
140
330
13B
100
AcDbEntity
  8
Dimmention
370
    15
100
AcDbBlockReference
  2
_Open30
 10
79.91724953807533
 20
39.68033047084143
 30
0.0
 41
2.0
 42
2.0
 43
2.0
 50
179.9999999999984
  0
INSERT
  5
141
330
13B
100
AcDbEntity
  8
Dimmention
370
    15
100
AcDbBlockReference
  2
_Open30
 10
96.91724953807785
 20
39.68033047084096
 30
0.0
 41
2.0
 42
2.0
 43
2.0
 50
359.9999999999984
  0
MTEXT
  5
142
330
13B
100
AcDbEntity
  8
Dimmention
100
AcDbMText
 10
88.41724953807664
 20
41.43033047084119
 30
0.0
 40
2.5
 41
0.0
 71
     5
 72
     1
  1
\A1;17.0
 73
     1
 44
1.0
1001
ACAD
1000
MTEXTBEGIN
1070
    73
1070
     1
1070
    44
1040
1.0
1070
    74
1070
     0
1000
MTEXTEND
  0
POINT
  5
143
330
13B
100
AcDbEntity
  8
Defpoints
 62
     0
100
AcDbPoint
 10
79.91724953807548
 20
45.68033047084074
 30
0.0
  0
POINT
  5
144
330
13B
100
AcDbEntity
  8
Defpoints
 62
     0
100
AcDbPoint
 10
96.9172495380782
 20
52.6803304708412
 30
0.0
  0
POINT
  5
145
330
13B
100
AcDbEntity
  8
Defpoints
 62
     0
100
AcDbPoint
 10
96.91724953807785
 20
39.68033047084096
 30
0.0
  0
ENDBLK
  5
146
330
13B
100
AcDbEntity
  8
0
100
AcDbBlockEnd
  0
BLOCK
  5
149
330
148
100
AcDbEntity
  8
0
100
AcDbBlockBegin
  2
*D11
 70
     1
 10
0.0
 20
0.0
 30
0.0
  3
*D11
  1

  0
LINE
  5
14A
330
148
100
AcDbEntity
  8
Dimmention
370
    15
100
AcDbLine
 10
79.91724953807558
 20
47.38033047084075
 30
0.0
 11
79.91724953807533
 21
39.18033047084094
 31
0.0
  0
LINE
  5
14B
330
148
100
AcDbEntity
  8
Dimmention
370
    15
100
AcDbLine
 10
79.41724953807818
 20
49.88033047084189
 30
0.0
 11
79.41724953807784
 21
39.18033047084096
 31
0.0
  0
LINE
  5
14C
330
148
100
AcDbEntity
  8
Dimmention
370
    15
100
AcDbLine
 10
81.91724953807534
 20
39.6803304708409
 30
0.0
 11
83.91724953807537
 21
39.68033047084082
 31
0.0
  0
LINE
  5
14D
330
148
100
AcDbEntity
  8
Dimmention
370
    15
100
AcDbLine
 10
77.41724953807788
 20
39.68033047084101
 30
0.0
 11
69.83603126396619
 21
39.68033047084123
 31
0.0
  0
LINE
  5
14E
330
148
100
AcDbEntity
  8
Dimmention
370
    15
100
AcDbLine
 10
79.91724953807533
 20
39.68033047084094
 30
0.0
 11
79.41724953807788
 21
39.68033047084096
 31
0.0
  0
INSERT
  5
14F
330
148
100
AcDbEntity
  8
Dimmention
370
    15
100
AcDbBlockReference
  2
_Open30
 10
79.91724953807533
 20
39.68033047084094
 30
0.0
 41
2.0
 42
2.0
 43
2.0
 50
179.9999999999984
  0
INSERT
  5
150
330
148
100
AcDbEntity
  8
Dimmention
370
    15
100
AcDbBlockReference
  2
_Open30
 10
79.41724953807788
 20
39.68033047084096
 30
0.0
 41
2.0
 42
2.0
 43
2.0
 50
359.9999999999984
  0
MTEXT
  5
151
330
148
100
AcDbEntity
  8
Dimmention
100
AcDbMText
 10
72.62664040102208
 20
41.43033047084114
 30
0.0
 40
2.5
 41
0.0
 71
     5
 72
     1
  1
\A1;0.5
 73
     1
 44
1.0
1001
ACAD
1000
MTEXTBEGIN
1070
    73
1070
     1
1070
    44
1040
1.0
1070
    74
1070
     0
1000
MTEXTEND
  0
POINT
  5
152
330
148
100
AcDbEntity
  8
Defpoints
 62
     0
100
AcDbPoint
 10
79.91724953807558
 20
47.68033047084073
 30
0.0
  0
POINT
  5
153
330
148
100
AcDbEntity
  8
Defpoints
 62
     0
100
AcDbPoint
 10
79.41724953807818
 20
50.18033047084189
 30
0.0
  0
POINT
  5
154
330
148
100
AcDbEntity
  8
Defpoints
 62
     0
100
AcDbPoint
 10
79.41724953807788
 20
39.68033047084096
 30
0.0
  0
ENDBLK
  5
155
330
148
100
AcDbEntity
  8
0
100
AcDbBlockEnd
  0
BLOCK
  5
158
330
157
100
AcDbEntity
  8
0
100
AcDbBlockBegin
  2
*D12
 70
     1
 10
0.0
 20
0.0
 30
0.0
  3
*D12
  1

  0
LINE
  5
159
330
157
100
AcDbEntity
  8
Dimmention
370
    15
100
AcDbLine
 10
79.91724953807693
 20
79.98033047084075
 30
0.0
 11
79.91724953807717
 21
88.18033047084174
 31
0.0
  0
LINE
  5
15A
330
157
100
AcDbEntity
  8
Dimmention
370
    15
100
AcDbLine
 10
66.41724953807929
 20
77.48033047084246
 30
0.0
 11
66.41724953807957
 21
88.18033047084211
 31
0.0
  0
LINE
  5
15B
330
157
100
AcDbEntity
  8
Dimmention
370
    15
100
AcDbLine
 10
77.91724953807715
 20
87.68033047084179
 30
0.0
 11
68.41724953807958
 21
87.68033047084205
 31
0.0
  0
INSERT
  5
15C
330
157
100
AcDbEntity
  8
Dimmention
370
    15
100
AcDbBlockReference
  2
_Open30
 10
79.91724953807715
 20
87.68033047084173
 30
0.0
 41
2.0
 42
2.0
 43
2.0
 50
359.9999999999984
  0
INSERT
  5
15D
330
157
100
AcDbEntity
  8
Dimmention
370
    15
100
AcDbBlockReference
  2
_Open30
 10
66.41724953807957
 20
87.68033047084214
 30
0.0
 41
2.0
 42
2.0
 43
2.0
 50
179.9999999999984
  0
MTEXT
  5
15E
330
157
100
AcDbEntity
  8
Dimmention
100
AcDbMText
 10
73.16724953807842
 20
89.43033047084194
 30
0.0
 40
2.5
 41
0.0
 71
     5
 72
     1
  1
\A1;13.5
 73
     1
 44
1.0
1001
ACAD
1000
MTEXTBEGIN
1070
    73
1070
     1
1070
    44
1040
1.0
1070
    74
1070
     0
1000
MTEXTEND
  0
POINT
  5
15F
330
157
100
AcDbEntity
  8
Defpoints
 62
     0
100
AcDbPoint
 10
79.91724953807693
 20
79.68033047084077
 30
0.0
  0
POINT
  5
160
330
157
100
AcDbEntity
  8
Defpoints
 62
     0
100
AcDbPoint
 10
66.41724953807927
 20
77.18033047084246
 30
0.0
  0
POINT
  5
161
330
157
100
AcDbEntity
  8
Defpoints
 62
     0
100
AcDbPoint
 10
66.41724953807957
 20
87.68033047084214
 30
0.0
  0
ENDBLK
  5
162
330
157
100
AcDbEntity
  8
0
100
AcDbBlockEnd
  0
BLOCK
  5
165
330
164
100
AcDbEntity
  8
0
100
AcDbBlockBegin
  2
*D13
 70
     1
 10
0.0
 20
0.0
 30
0.0
  3
*D13
  1

  0
LINE
  5
166
330
164
100
AcDbEntity
  8
Dimmention
370
    15
100
AcDbLine
 10
55.81724953807874
 20
63.68033047084249
 30
0.0
 11
33.41724953807502
 21
63.68033047084249
 31
0.0
  0
LINE
  5
167
330
164
100
AcDbEntity
  8
Dimmention
370
    15
100
AcDbLine
 10
79.11724953807817
 20
50.18033047084189
 30
0.0
 11
33.41724953807502
 21
50.18033047084189
 31
0.0
  0
LINE
  5
168
330
164
100
AcDbEntity
  8
Dimmention
370
    15
100
AcDbLine
 10
33.91724953807501
 20
61.6803304708425
 30
0.0
 11
33.91724953807501
 21
52.1803304708419
 31
0.0
  0
INSERT
  5
169
330
164
100
AcDbEntity
  8
Dimmention
370
    15
100
AcDbBlockReference
  2
_Open30
 10
33.91724953807501
 20
63.68033047084249
 30
0.0
 41
2.0
 42
2.0
 43
2.0
 50
90.0
  0
INSERT
  5
16A
330
164
100
AcDbEntity
  8
Dimmention
370
    15
100
AcDbBlockReference
  2
_Open30
 10
33.91724953807501
 20
50.18033047084189
 30
0.0
 41
2.0
 42
2.0
 43
2.0
 50
270.0
  0
MTEXT
  5
16B
330
164
100
AcDbEntity
  8
Dimmention
100
AcDbMText
 10
32.167249538075
 20
56.9303304708422
 30
0.0
 40
2.5
 41
0.0
 71
     5
 72
     1
  1
\A1;13.5
 11
0.0000000000000001
 21
1.0
 31
0.0
 73
     1
 44
1.0
1001
ACAD
1000
MTEXTBEGIN
1070
    73
1070
     1
1070
    44
1040
1.0
1070
    74
1070
     0
1000
MTEXTEND
  0
POINT
  5
16C
330
164
100
AcDbEntity
  8
Defpoints
 62
     0
100
AcDbPoint
 10
56.11724953807875
 20
63.68033047084249
 30
0.0
  0
POINT
  5
16D
330
164
100
AcDbEntity
  8
Defpoints
 62
     0
100
AcDbPoint
 10
79.41724953807818
 20
50.18033047084189
 30
0.0
  0
POINT
  5
16E
330
164
100
AcDbEntity
  8
Defpoints
 62
     0
100
AcDbPoint
 10
33.91724953807501
 20
50.18033047084189
 30
0.0
  0
ENDBLK
  5
16F
330
164
100
AcDbEntity
  8
0
100
AcDbBlockEnd
  0
BLOCK
  5
172
330
171
100
AcDbEntity
  8
0
100
AcDbBlockBegin
  2
*D14
 70
     1
 10
0.0
 20
0.0
 30
0.0
  3
*D14
  1

  0
LINE
  5
173
330
171
100
AcDbEntity
  8
Dimmention
370
    15
100
AcDbLine
 10
66.11724953807928
 20
77.18033047084246
 30
0.0
 11
33.41724953807502
 21
77.18033047084246
 31
0.0
  0
LINE
  5
174
330
171
100
AcDbEntity
  8
Dimmention
370
    15
100
AcDbLine
 10
56.11724953807875
 20
63.68033047084249
 30
0.0
 11
33.41724953807502
 21
63.68033047084249
 31
0.0
  0
LINE
  5
175
330
171
100
AcDbEntity
  8
Dimmention
370
    15
100
AcDbLine
 10
33.91724953807501
 20
75.18033047084244
 30
0.0
 11
33.91724953807501
 21
65.68033047084249
 31
0.0
  0
INSERT
  5
176
330
171
100
AcDbEntity
  8
Dimmention
370
    15
100
AcDbBlockReference
  2
_Open30
 10
33.91724953807501
 20
77.18033047084246
 30
0.0
 41
2.0
 42
2.0
 43
2.0
 50
90.0
  0
INSERT
  5
177
330
171
100
AcDbEntity
  8
Dimmention
370
    15
100
AcDbBlockReference
  2
_Open30
 10
33.91724953807501
 20
63.68033047084249
 30
0.0
 41
2.0
 42
2.0
 43
2.0
 50
270.0
  0
MTEXT
  5
178
330
171
100
AcDbEntity
  8
Dimmention
100
AcDbMText
 10
32.16724953807502
 20
70.43033047084247
 30
0.0
 40
2.5
 41
0.0
 71
     5
 72
     1
  1
\A1;13.5
 11
0.0000000000000001
 21
1.0
 31
0.0
 73
     1
 44
1.0
1001
ACAD
1000
MTEXTBEGIN
1070
    73
1070
     1
1070
    44
1040
1.0
1070
    74
1070
     0
1000
MTEXTEND
  0
POINT
  5
179
330
171
100
AcDbEntity
  8
Defpoints
 62
     0
100
AcDbPoint
 10
66.41724953807927
 20
77.18033047084246
 30
0.0
  0
POINT
  5
17A
330
171
100
AcDbEntity
  8
Defpoints
 62
     0
100
AcDbPoint
 10
56.41724953807877
 20
63.68033047084249
 30
0.0
  0
POINT
  5
17B
330
171
100
AcDbEntity
  8
Defpoints
 62
     0
100
AcDbPoint
 10
33.91724953807501
 20
63.68033047084249
 30
0.0
  0
ENDBLK
  5
17C
330
171
100
AcDbEntity
  8
0
100
AcDbBlockEnd
  0
BLOCK
  5
189
330
188
100
AcDbEntity
  8
0
100
AcDbBlockBegin
  2
*D15
 70
     1
 10
0.0
 20
0.0
 30
0.0
  3
*D15
  1

  0
LINE
  5
18A
330
188
100
AcDbEntity
  8
Dimmention
370
    15
100
AcDbLine
 10
79.91724953807696
 20
80.28033047084075
 30
0.0
 11
79.91724953807717
 21
88.18033047084176
 31
0.0
  0
LINE
  5
18B
330
188
100
AcDbEntity
  8
Dimmention
370
    15
100
AcDbLine
 10
89.41724953807854
 20
63.98033047084158
 30
0.0
 11
89.41724953807922
 21
88.18033047084147
 31
0.0
  0
LINE
  5
18C
330
188
100
AcDbEntity
  8
Dimmention
370
    15
100
AcDbLine
 10
81.91724953807716
 20
87.68033047084172
 30
0.0
 11
87.41724953807921
 21
87.68033047084156
 31
0.0
  0
INSERT
  5
18D
330
188
100
AcDbEntity
  8
Dimmention
370
    15
100
AcDbBlockReference
  2
_Open30
 10
79.91724953807715
 20
87.68033047084177
 30
0.0
 41
2.0
 42
2.0
 43
2.0
 50
179.9999999999984
  0
INSERT
  5
18E
330
188
100
AcDbEntity
  8
Dimmention
370
    15
100
AcDbBlockReference
  2
_Open30
 10
89.4172495380792
 20
87.6803304708415
 30
0.0
 41
2.0
 42
2.0
 43
2.0
 50
359.9999999999984
  0
MTEXT
  5
18F
330
188
100
AcDbEntity
  8
Dimmention
100
AcDbMText
 10
84.66724953807824
 20
89.43033047084162
 30
0.0
 40
2.5
 41
0.0
 71
     5
 72
     1
  1
\A1;9.5
 73
     1
 44
1.0
1001
ACAD
1000
MTEXTBEGIN
1070
    73
1070
     1
1070
    44
1040
1.0
1070
    74
1070
     0
1000
MTEXTEND
  0
POINT
  5
190
330
188
100
AcDbEntity
  8
Defpoints
 62
     0
100
AcDbPoint
 10
79.91724953807693
 20
79.98033047084075
 30
0.0
  0
POINT
  5
191
330
188
100
AcDbEntity
  8
Defpoints
 62
     0
100
AcDbPoint
 10
89.41724953807852
 20
63.68033047084158
 30
0.0
  0
POINT
  5
192
330
188
100
AcDbEntity
  8
Defpoints
 62
     0
100
AcDbPoint
 10
89.4172495380792
 20
87.6803304708415
 30
0.0
  0
ENDBLK
  5
193
330
188
100
AcDbEntity
  8
0
100
AcDbBlockEnd
  0
BLOCK
  5
196
330
195
100
AcDbEntity
  8
0
100
AcDbBlockBegin
  2
*D16
 70
     1
 10
0.0
 20
0.0
 30
0.0
  3
*D16
  1

  0
LINE
  5
197
330
195
100
AcDbEntity
  8
Dimmention
370
    15
100
AcDbLine
 10
101.7172495380762
 20
161.1635436617433
 30
0.0
 11
117.9172495380762
 21
161.1635436617433
 31
0.0
  0
LINE
  5
198
330
195
100
AcDbEntity
  8
Dimmention
370
    15
100
AcDbLine
 10
100.2172495380787
 20
166.6635436617445
 30
0.0
 11
117.9172495380762
 21
166.6635436617445
 31
0.0
  0
LINE
  5
199
330
195
100
AcDbEntity
  8
Dimmention
370
    15
100
AcDbLine
 10
117.4172495380762
 20
163.1635436617433
 30
0.0
 11
117.4172495380762
 21
164.6635436617446
 31
0.0
  0
INSERT
  5
19A
330
195
100
AcDbEntity
  8
Dimmention
370
    15
100
AcDbBlockReference
  2
_Open30
 10
117.4172495380762
 20
161.1635436617433
 30
0.0
 41
2.0
 42
2.0
 43
2.0
 50
270.0
  0
INSERT
  5
19B
330
195
100
AcDbEntity
  8
Dimmention
370
    15
100
AcDbBlockReference
  2
_Open30
 10
117.4172495380762
 20
166.6635436617445
 30
0.0
 41
2.0
 42
2.0
 43
2.0
 50
90.0
  0
MTEXT
  5
19C
330
195
100
AcDbEntity
  8
Dimmention
100
AcDbMText
 10
115.6672495380762
 20
163.9135436617439
 30
0.0
 40
2.5
 41
0.0
 71
     5
 72
     1
  1
\A1;5.5
 11
0.0000000000000001
 21
1.0
 31
0.0
 73
     1
 44
1.0
1001
ACAD
1000
MTEXTBEGIN
1070
    73
1070
     1
1070
    44
1040
1.0
1070
    74
1070
     0
1000
MTEXTEND
  0
POINT
  5
19D
330
195
100
AcDbEntity
  8
Defpoints
 62
     0
100
AcDbPoint
 10
101.4172495380762
 20
161.1635436617433
 30
0.0
  0
POINT
  5
19E
330
195
100
AcDbEntity
  8
Defpoints
 62
     0
100
AcDbPoint
 10
99.91724953807873
 20
166.6635436617445
 30
0.0
  0
POINT
  5
19F
330
195
100
AcDbEntity
  8
Defpoints
 62
     0
100
AcDbPoint
 10
117.4172495380762
 20
166.6635436617445
 30
0.0
  0
ENDBLK
  5
1A0
330
195
100
AcDbEntity
  8
0
100
AcDbBlockEnd
  0
BLOCK
  5
1A3
330
1A2
100
AcDbEntity
  8
0
100
AcDbBlockBegin
  2
*D17
 70
     1
 10
0.0
 20
0.0
 30
0.0
  3
*D17
  1

  0
LINE
  5
1A4
330
1A2
100
AcDbEntity
  8
Dimmention
370
    15
100
AcDbLine
 10
57.03202104799647
 20
206.9085582930406
 30
0.0
 11
40.9450478294589
 21
196.7828552594456
 31
0.0
  0
LINE
  5
1A5
330
1A2
100
AcDbEntity
  8
Dimmention
370
    15
100
AcDbLine
 10
60.41724953807875
 20
209.0393393868973
 30
0.0
 11
58.72463529303749
 21
207.9739488399689
 31
0.0
  0
INSERT
  5
1A6
330
1A2
100
AcDbEntity
  8
Dimmention
370
    15
100
AcDbBlockReference
  2
_Open30
 10
58.72463529303749
 20
207.9739488399689
 30
0.0
 41
2.0
 42
2.0
 43
2.0
 50
32.18774513012663
  0
MTEXT
  5
1A7
330
1A2
100
AcDbEntity
  8
Dimmention
100
AcDbMText
 10
43.06726949740482
 20
200.1864629747854
 30
0.0
 40
2.5
 41
0.0
 71
     5
 72
     1
  1
\A1;R2.0
 11
0.8463071225205224
 21
0.5326952734641388
 31
0.0
 73
     1
 44
1.0
1001
ACAD
1000
MTEXTBEGIN
1070
    73
1070
     1
1070
    44
1040
1.0
1070
    74
1070
     0
1000
MTEXTEND
  0
POINT
  5
1A8
330
1A2
100
AcDbEntity
  8
Defpoints
 62
     0
100
AcDbPoint
 10
58.72463529303749
 20
207.9739488399689
 30
0.0
  0
POINT
  5
1A9
330
1A2
100
AcDbEntity
  8
Defpoints
 62
     0
100
AcDbPoint
 10
60.41724953807875
 20
209.0393393868973
 30
0.0
  0
ENDBLK
  5
1AA
330
1A2
100
AcDbEntity
  8
0
100
AcDbBlockEnd
  0
BLOCK
  5
2BF
330
2BE
100
AcDbEntity
  8
0
100
AcDbBlockBegin
  2
*D18
 70
     1
 10
0.0
 20
0.0
 30
0.0
  3
*D18
  1

  0
LINE
  5
2C0
330
2BE
100
AcDbEntity
  8
Dimmention
370
    15
100
AcDbLine
 10
179.9378519083041
 20
161.1635436617438
 30
0.0
 11
191.5723124032273
 21
161.1635436617438
 31
0.0
  0
LINE
  5
2C1
330
2BE
100
AcDbEntity
  8
Dimmention
370
    15
100
AcDbLine
 10
178.7878519083041
 20
153.16354366174
 30
0.0
 11
191.5723124032273
 21
153.16354366174
 31
0.0
  0
LINE
  5
2C2
330
2BE
100
AcDbEntity
  8
Dimmention
370
    15
100
AcDbLine
 10
191.0723124032273
 20
155.16354366174
 30
0.0
 11
191.0723124032273
 21
159.1635436617438
 31
0.0
  0
LINE
  5
2C3
330
2BE
100
AcDbEntity
  8
Dimmention
370
    15
100
AcDbLine
 10
191.0723124032273
 20
161.1635436617438
 30
0.0
 11
191.0723124032273
 21
172.3995842708809
 31
0.0
  0
INSERT
  5
2C4
330
2BE
100
AcDbEntity
  8
Dimmention
370
    15
100
AcDbBlockReference
  2
_Open30
 10
191.0723124032273
 20
153.16354366174
 30
0.0
 41
2.0
 42
2.0
 43
2.0
 50
270.0
  0
INSERT
  5
2C5
330
2BE
100
AcDbEntity
  8
Dimmention
370
    15
100
AcDbBlockReference
  2
_Open30
 10
191.0723124032273
 20
161.1635436617438
 30
0.0
 41
2.0
 42
2.0
 43
2.0
 50
90.0
  0
MTEXT
  5
2C6
330
2BE
100
AcDbEntity
  8
Dimmention
100
AcDbMText
 10
187.0295882069498
 20
167.7815639663124
 30
0.0
 40
2.5
 41
0.0
 71
     5
 72
     1
  1
\A1;8.0\P(%%C2.7)
 11
0.0000000000000001
 21
1.0
 31
0.0
 73
     1
 44
1.0
1001
ACAD
1000
MTEXTBEGIN
1070
    73
1070
     1
1070
    44
1040
1.0
1070
    74
1070
     0
1000
MTEXTEND
  0
POINT
  5
2C7
330
2BE
100
AcDbEntity
  8
Defpoints
 62
     0
100
AcDbPoint
 10
179.6378519083041
 20
161.1635436617438
 30
0.0
  0
POINT
  5
2C8
330
2BE
100
AcDbEntity
  8
Defpoints
 62
     0
100
AcDbPoint
 10
178.4878519083042
 20
153.16354366174
 30
0.0
  0
POINT
  5
2C9
330
2BE
100
AcDbEntity
  8
Defpoints
 62
     0
100
AcDbPoint
 10
191.0723124032273
 20
153.16354366174
 30
0.0
  0
ENDBLK
  5
2CA
330
2BE
100
AcDbEntity
  8
0
100
AcDbBlockEnd
  0
BLOCK
  5
2CD
330
2CC
100
AcDbEntity
  8
0
100
AcDbBlockBegin
  2
*D19
 70
     1
 10
0.0
 20
0.0
 30
0.0
  3
*D19
  1

  0
LINE
  5
2CE
330
2CC
100
AcDbEntity
  8
Dimmention
370
    15
100
AcDbLine
 10
179.9378519083041
 20
121.6635436617433
 30
0.0
 11
191.5723124032273
 21
121.6635436617433
 31
0.0
  0
LINE
  5
2CF
330
2CC
100
AcDbEntity
  8
Dimmention
370
    15
100
AcDbLine
 10
178.787851908304
 20
141.6635436617433
 30
0.0
 11
191.5723124032273
 21
141.6635436617433
 31
0.0
  0
LINE
  5
2D0
330
2CC
100
AcDbEntity
  8
Dimmention
370
    15
100
AcDbLine
 10
191.0723124032273
 20
123.6635436617433
 30
0.0
 11
191.0723124032273
 21
139.6635436617433
 31
0.0
  0
INSERT
  5
2D1
330
2CC
100
AcDbEntity
  8
Dimmention
370
    15
100
AcDbBlockReference
  2
_Open30
 10
191.0723124032273
 20
121.6635436617433
 30
0.0
 41
2.0
 42
2.0
 43
2.0
 50
270.0
  0
INSERT
  5
2D2
330
2CC
100
AcDbEntity
  8
Dimmention
370
    15
100
AcDbBlockReference
  2
_Open30
 10
191.0723124032273
 20
141.6635436617433
 30
0.0
 41
2.0
 42
2.0
 43
2.0
 50
90.0
  0
MTEXT
  5
2D3
330
2CC
100
AcDbEntity
  8
Dimmention
100
AcDbMText
 10
187.0295882069498
 20
131.6635436617433
 30
0.0
 40
2.5
 41
0.0
 71
     5
 72
     1
  1
\A1;20.0\P(%%C2.7)
 11
0.0000000000000001
 21
1.0
 31
0.0
 73
     1
 44
1.0
1001
ACAD
1000
MTEXTBEGIN
1070
    73
1070
     1
1070
    44
1040
1.0
1070
    74
1070
     0
1000
MTEXTEND
  0
POINT
  5
2D4
330
2CC
100
AcDbEntity
  8
Defpoints
 62
     0
100
AcDbPoint
 10
179.6378519083041
 20
121.6635436617433
 30
0.0
  0
POINT
  5
2D5
330
2CC
100
AcDbEntity
  8
Defpoints
 62
     0
100
AcDbPoint
 10
178.487851908304
 20
141.6635436617433
 30
0.0
  0
POINT
  5
2D6
330
2CC
100
AcDbEntity
  8
Defpoints
 62
     0
100
AcDbPoint
 10
191.0723124032273
 20
141.6635436617433
 30
0.0
  0
ENDBLK
  5
2D7
330
2CC
100
AcDbEntity
  8
0
100
AcDbBlockEnd
  0
BLOCK
  5
2DA
330
2D9
100
AcDbEntity
  8
0
100
AcDbBlockBegin
  2
*D20
 70
     1
 10
0.0
 20
0.0
 30
0.0
  3
*D20
  1

  0
LINE
  5
2DB
330
2D9
100
AcDbEntity
  8
Dimmention
370
    15
100
AcDbLine
 10
178.787851908304
 20
141.6635436617433
 30
0.0
 11
192.0723124032273
 21
141.6635436617433
 31
0.0
  0
LINE
  5
2DC
330
2D9
100
AcDbEntity
  8
Dimmention
370
    15
100
AcDbLine
 10
178.7878519083041
 20
153.16354366174
 30
0.0
 11
192.0723124032273
 21
153.16354366174
 31
0.0
  0
LINE
  5
2DD
330
2D9
100
AcDbEntity
  8
Dimmention
370
    15
100
AcDbLine
 10
191.5723124032273
 20
143.6635436617433
 30
0.0
 11
191.5723124032273
 21
151.16354366174
 31
0.0
  0
INSERT
  5
2DE
330
2D9
100
AcDbEntity
  8
Dimmention
370
    15
100
AcDbBlockReference
  2
_Open30
 10
191.5723124032273
 20
141.6635436617433
 30
0.0
 41
2.0
 42
2.0
 43
2.0
 50
270.0
  0
INSERT
  5
2DF
330
2D9
100
AcDbEntity
  8
Dimmention
370
    15
100
AcDbBlockReference
  2
_Open30
 10
191.5723124032273
 20
153.16354366174
 30
0.0
 41
2.0
 42
2.0
 43
2.0
 50
90.0
  0
MTEXT
  5
2E0
330
2D9
100
AcDbEntity
  8
Dimmention
100
AcDbMText
 10
187.5295882069498
 20
147.4135436617417
 30
0.0
 40
2.5
 41
0.0
 71
     5
 72
     1
  1
\A1;11.5\P(M2.6)
 11
0.0000000000000001
 21
1.0
 31
0.0
 73
     1
 44
1.0
1001
ACAD
1000
MTEXTBEGIN
1070
    73
1070
     1
1070
    44
1040
1.0
1070
    74
1070
     0
1000
MTEXTEND
  0
POINT
  5
2E1
330
2D9
100
AcDbEntity
  8
Defpoints
 62
     0
100
AcDbPoint
 10
178.487851908304
 20
141.6635436617433
 30
0.0
  0
POINT
  5
2E2
330
2D9
100
AcDbEntity
  8
Defpoints
 62
     0
100
AcDbPoint
 10
178.4878519083042
 20
153.16354366174
 30
0.0
  0
POINT
  5
2E3
330
2D9
100
AcDbEntity
  8
Defpoints
 62
     0
100
AcDbPoint
 10
191.5723124032273
 20
153.16354366174
 30
0.0
  0
ENDBLK
  5
2E4
330
2D9
100
AcDbEntity
  8
0
100
AcDbBlockEnd
  0
BLOCK
  5
2F5
330
2F4
100
AcDbEntity
  8
0
100
AcDbBlockBegin
  2
*D21
 70
     1
 10
0.0
 20
0.0
 30
0.0
  3
*D21
  1

  0
LINE
  5
2F6
330
2F4
100
AcDbEntity
  8
Dimmention
370
    15
100
AcDbLine
 10
58.41724953807872
 20
208.4393393868973
 30
0.0
 11
58.41724953807872
 21
182.5393393868973
 31
0.0
  0
LINE
  5
2F7
330
2F4
100
AcDbEntity
  8
Dimmention
370
    15
100
AcDbLine
 10
49.91724953807556
 20
209.5393393868975
 30
0.0
 11
49.91724953807556
 21
182.5393393868973
 31
0.0
  0
LINE
  5
2F8
330
2F4
100
AcDbEntity
  8
Dimmention
370
    15
100
AcDbLine
 10
56.41724953807873
 20
183.0393393868973
 30
0.0
 11
51.91724953807558
 21
183.0393393868973
 31
0.0
  0
INSERT
  5
2F9
330
2F4
100
AcDbEntity
  8
Dimmention
370
    15
100
AcDbBlockReference
  2
_Open30
 10
58.41724953807872
 20
183.0393393868973
 30
0.0
 41
2.0
 42
2.0
 43
2.0
  0
INSERT
  5
2FA
330
2F4
100
AcDbEntity
  8
Dimmention
370
    15
100
AcDbBlockReference
  2
_Open30
 10
49.91724953807556
 20
183.0393393868973
 30
0.0
 41
2.0
 42
2.0
 43
2.0
 50
180.0
  0
MTEXT
  5
2FB
330
2F4
100
AcDbEntity
  8
Dimmention
100
AcDbMText
 10
54.16724953807714
 20
184.7893393868973
 30
0.0
 40
2.5
 41
0.0
 71
     5
 72
     1
  1
\A1;8.5
 73
     1
 44
1.0
1001
ACAD
1000
MTEXTBEGIN
1070
    73
1070
     1
1070
    44
1040
1.0
1070
    74
1070
     0
1000
MTEXTEND
  0
POINT
  5
2FC
330
2F4
100
AcDbEntity
  8
Defpoints
 62
     0
100
AcDbPoint
 10
58.41724953807872
 20
208.7393393868973
 30
0.0
  0
POINT
  5
2FD
330
2F4
100
AcDbEntity
  8
Defpoints
 62
     0
100
AcDbPoint
 10
49.91724953807556
 20
209.8393393868975
 30
0.0
  0
POINT
  5
2FE
330
2F4
100
AcDbEntity
  8
Defpoints
 62
     0
100
AcDbPoint
 10
49.91724953807556
 20
183.0393393868973
 30
0.0
  0
ENDBLK
  5
2FF
330
2F4
100
AcDbEntity
  8
0
100
AcDbBlockEnd
  0
BLOCK
  5
302
330
301
100
AcDbEntity
  8
0
100
AcDbBlockBegin
  2
*D22
 70
     1
 10
0.0
 20
0.0
 30
0.0
  3
*D22
  1

  0
LINE
  5
303
330
301
100
AcDbEntity
  8
Dimmention
370
    15
100
AcDbLine
 10
50.58815128751446
 20
237.4172672249205
 30
0.0
 11
33.41724953807557
 21
237.4172672249205
 31
0.0
  0
LINE
  5
304
330
301
100
AcDbEntity
  8
Dimmention
370
    15
100
AcDbLine
 10
50.58815128751444
 20
208.6614115488744
 30
0.0
 11
33.41724953807557
 21
208.6614115488744
 31
0.0
  0
LINE
  5
305
330
301
100
AcDbEntity
  8
Dimmention
370
    15
100
AcDbLine
 10
33.91724953807557
 20
235.4172672249205
 30
0.0
 11
33.91724953807557
 21
210.6614115488744
 31
0.0
  0
INSERT
  5
306
330
301
100
AcDbEntity
  8
Dimmention
370
    15
100
AcDbBlockReference
  2
_Open30
 10
33.91724953807557
 20
237.4172672249205
 30
0.0
 41
2.0
 42
2.0
 43
2.0
 50
90.0
  0
INSERT
  5
307
330
301
100
AcDbEntity
  8
Dimmention
370
    15
100
AcDbBlockReference
  2
_Open30
 10
33.91724953807557
 20
208.6614115488744
 30
0.0
 41
2.0
 42
2.0
 43
2.0
 50
270.0
  0
MTEXT
  5
308
330
301
100
AcDbEntity
  8
Dimmention
100
AcDbMText
 10
32.16724953807553
 20
223.0393393868975
 30
0.0
 40
2.5
 41
0.0
 71
     5
 72
     1
  1
\A1;28.8
 11
0.0000000000000001
 21
1.0
 31
0.0
 73
     1
 44
1.0
1001
ACAD
1000
MTEXTBEGIN
1070
    73
1070
     1
1070
    44
1040
1.0
1070
    74
1070
     0
1000
MTEXTEND
  0
POINT
  5
309
330
301
100
AcDbEntity
  8
Defpoints
 62
     0
100
AcDbPoint
 10
50.88815128751446
 20
237.4172672249205
 30
0.0
  0
POINT
  5
30A
330
301
100
AcDbEntity
  8
Defpoints
 62
     0
100
AcDbPoint
 10
50.88815128751444
 20
208.6614115488744
 30
0.0
  0
POINT
  5
30B
330
301
100
AcDbEntity
  8
Defpoints
 62
     0
100
AcDbPoint
 10
33.91724953807557
 20
208.6614115488744
 30
0.0
  0
ENDBLK
  5
30C
330
301
100
AcDbEntity
  8
0
100
AcDbBlockEnd
  0
BLOCK
  5
30F
330
30E
100
AcDbEntity
  8
0
100
AcDbBlockBegin
  2
*D23
 70
     1
 10
0.0
 20
0.0
 30
0.0
  3
*D23
  1

  0
LINE
  5
310
330
30E
100
AcDbEntity
  8
Dimmention
370
    15
100
AcDbLine
 10
65.84556379289421
 20
161.1635436617437
 30
0.0
 11
65.6455637928942
 21
161.1635436617437
 31
0.0
  0
LINE
  5
311
330
30E
100
AcDbEntity
  8
Dimmention
370
    15
100
AcDbLine
 10
65.8455637928942
 20
152.1635436617436
 30
0.0
 11
65.64556379289419
 21
152.1635436617436
 31
0.0
  0
LINE
  5
312
330
30E
100
AcDbEntity
  8
Dimmention
370
    15
100
AcDbLine
 10
66.14556379289419
 20
159.1635436617437
 30
0.0
 11
66.14556379289419
 21
154.1635436617436
 31
0.0
  0
INSERT
  5
313
330
30E
100
AcDbEntity
  8
Dimmention
370
    15
100
AcDbBlockReference
  2
_Open30
 10
66.14556379289421
 20
161.1635436617437
 30
0.0
 41
2.0
 42
2.0
 43
2.0
 50
90.0
  0
INSERT
  5
314
330
30E
100
AcDbEntity
  8
Dimmention
370
    15
100
AcDbBlockReference
  2
_Open30
 10
66.14556379289419
 20
152.1635436617436
 30
0.0
 41
2.0
 42
2.0
 43
2.0
 50
270.0
  0
MTEXT
  5
315
330
30E
100
AcDbEntity
  8
Dimmention
100
AcDbMText
 10
64.39556379289418
 20
156.6635436617437
 30
0.0
 40
2.5
 41
0.0
 71
     5
 72
     1
  1
\A1;9.0
 11
0.0000000000000001
 21
1.0
 31
0.0
 73
     1
 44
1.0
1001
ACAD
1000
MTEXTBEGIN
1070
    73
1070
     1
1070
    44
1040
1.0
1070
    74
1070
     0
1000
MTEXTEND
  0
POINT
  5
316
330
30E
100
AcDbEntity
  8
Defpoints
 62
     0
100
AcDbPoint
 10
66.14556379289421
 20
161.1635436617437
 30
0.0
  0
POINT
  5
317
330
30E
100
AcDbEntity
  8
Defpoints
 62
     0
100
AcDbPoint
 10
66.14556379289419
 20
152.1635436617436
 30
0.0
  0
POINT
  5
318
330
30E
100
AcDbEntity
  8
Defpoints
 62
     0
100
AcDbPoint
 10
66.14556379289419
 20
152.1635436617436
 30
0.0
  0
ENDBLK
  5
319
330
30E
100
AcDbEntity
  8
0
100
AcDbBlockEnd
  0
BLOCK
  5
31C
330
31B
100
AcDbEntity
  8
0
100
AcDbBlockBegin
  2
*D24
 70
     1
 10
0.0
 20
0.0
 30
0.0
  3
*D24
  1

  0
LINE
  5
31D
330
31B
100
AcDbEntity
  8
Dimmention
370
    15
100
AcDbLine
 10
65.94556379289418
 20
121.6635436617433
 30
0.0
 11
66.64556379289418
 21
121.6635436617433
 31
0.0
  0
LINE
  5
31E
330
31B
100
AcDbEntity
  8
Dimmention
370
    15
100
AcDbLine
 10
65.84556379289418
 20
140.8635436617433
 30
0.0
 11
65.64556379289418
 21
140.8635436617433
 31
0.0
  0
LINE
  5
31F
330
31B
100
AcDbEntity
  8
Dimmention
370
    15
100
AcDbLine
 10
66.14556379289417
 20
123.6635436617433
 30
0.0
 11
66.14556379289417
 21
138.8635436617433
 31
0.0
  0
INSERT
  5
320
330
31B
100
AcDbEntity
  8
Dimmention
370
    15
100
AcDbBlockReference
  2
_Open30
 10
66.14556379289417
 20
121.6635436617433
 30
0.0
 41
2.0
 42
2.0
 43
2.0
 50
270.0
  0
INSERT
  5
321
330
31B
100
AcDbEntity
  8
Dimmention
370
    15
100
AcDbBlockReference
  2
_Open30
 10
66.14556379289417
 20
140.8635436617433
 30
0.0
 41
2.0
 42
2.0
 43
2.0
 50
90.0
  0
MTEXT
  5
322
330
31B
100
AcDbEntity
  8
Dimmention
100
AcDbMText
 10
64.39556379289418
 20
130.1135436617433
 30
0.0
 40
2.5
 41
0.0
 71
     5
 72
     1
  1
\A1;19.2
 11
0.0000000000000001
 21
1.0
 31
0.0
 73
     1
 44
1.0
1001
ACAD
1000
MTEXTBEGIN
1070
    73
1070
     1
1070
    44
1040
1.0
1070
    74
1070
     0
1000
MTEXTEND
  0
POINT
  5
323
330
31B
100
AcDbEntity
  8
Defpoints
 62
     0
100
AcDbPoint
 10
65.64556379289418
 20
121.6635436617433
 30
0.0
  0
POINT
  5
324
330
31B
100
AcDbEntity
  8
Defpoints
 62
     0
100
AcDbPoint
 10
66.14556379289417
 20
140.8635436617433
 30
0.0
  0
POINT
  5
325
330
31B
100
AcDbEntity
  8
Defpoints
 62
     0
100
AcDbPoint
 10
66.14556379289417
 20
140.8635436617433
 30
0.0
  0
ENDBLK
  5
326
330
31B
100
AcDbEntity
  8
0
100
AcDbBlockEnd
  0
BLOCK
  5
329
330
328
100
AcDbEntity
  8
0
100
AcDbBlockBegin
  2
*D25
 70
     1
 10
0.0
 20
0.0
 30
0.0
  3
*D25
  1

  0
LINE
  5
32A
330
328
100
AcDbEntity
  8
Dimmention
370
    15
100
AcDbLine
 10
54.11724953807662
 20
121.6635436617433
 30
0.0
 11
25.41724953807556
 21
121.6635436617433
 31
0.0
  0
LINE
  5
32B
330
328
100
AcDbEntity
  8
Dimmention
370
    15
100
AcDbLine
 10
53.14218151923178
 20
146.8635436617433
 30
0.0
 11
25.41724953807557
 21
146.8635436617433
 31
0.0
  0
LINE
  5
32C
330
328
100
AcDbEntity
  8
Dimmention
370
    15
100
AcDbLine
 10
25.91724953807557
 20
123.6635436617433
 30
0.0
 11
25.91724953807557
 21
144.8635436617433
 31
0.0
  0
INSERT
  5
32D
330
328
100
AcDbEntity
  8
Dimmention
370
    15
100
AcDbBlockReference
  2
_Open30
 10
25.91724953807557
 20
121.6635436617433
 30
0.0
 41
2.0
 42
2.0
 43
2.0
 50
270.0
  0
INSERT
  5
32E
330
328
100
AcDbEntity
  8
Dimmention
370
    15
100
AcDbBlockReference
  2
_Open30
 10
25.91724953807557
 20
146.8635436617433
 30
0.0
 41
2.0
 42
2.0
 43
2.0
 50
90.0
  0
MTEXT
  5
32F
330
328
100
AcDbEntity
  8
Dimmention
100
AcDbMText
 10
24.16724953807554
 20
134.2635436617433
 30
0.0
 40
2.5
 41
0.0
 71
     5
 72
     1
  1
\A1;25.2
 11
0.0000000000000001
 21
1.0
 31
0.0
 73
     1
 44
1.0
1001
ACAD
1000
MTEXTBEGIN
1070
    73
1070
     1
1070
    44
1040
1.0
1070
    74
1070
     0
1000
MTEXTEND
  0
POINT
  5
330
330
328
100
AcDbEntity
  8
Defpoints
 62
     0
100
AcDbPoint
 10
54.41724953807661
 20
121.6635436617433
 30
0.0
  0
POINT
  5
331
330
328
100
AcDbEntity
  8
Defpoints
 62
     0
100
AcDbPoint
 10
53.44218151923179
 20
146.8635436617433
 30
0.0
  0
POINT
  5
332
330
328
100
AcDbEntity
  8
Defpoints
 62
     0
100
AcDbPoint
 10
25.91724953807557
 20
146.8635436617433
 30
0.0
  0
ENDBLK
  5
333
330
328
100
AcDbEntity
  8
0
100
AcDbBlockEnd
  0
BLOCK
  5
336
330
335
100
AcDbEntity
  8
0
100
AcDbBlockBegin
  2
*D26
 70
     1
 10
0.0
 20
0.0
 30
0.0
  3
*D26
  1

  0
LINE
  5
337
330
335
100
AcDbEntity
  8
Dimmention
370
    15
100
AcDbLine
 10
55.11724953807662
 20
72.18033047084222
 30
0.0
 11
41.41724953807556
 21
72.18033047084222
 31
0.0
  0
LINE
  5
338
330
335
100
AcDbEntity
  8
Dimmention
370
    15
100
AcDbLine
 10
55.1172495380759
 20
55.18033047084232
 30
0.0
 11
41.41724953807556
 21
55.18033047084234
 31
0.0
  0
LINE
  5
339
330
335
100
AcDbEntity
  8
Dimmention
370
    15
100
AcDbLine
 10
41.91724953807557
 20
70.18033047084222
 30
0.0
 11
41.91724953807557
 21
57.18033047084233
 31
0.0
  0
INSERT
  5
33A
330
335
100
AcDbEntity
  8
Dimmention
370
    15
100
AcDbBlockReference
  2
_Open30
 10
41.91724953807557
 20
72.18033047084222
 30
0.0
 41
2.0
 42
2.0
 43
2.0
 50
90.0
  0
INSERT
  5
33B
330
335
100
AcDbEntity
  8
Dimmention
370
    15
100
AcDbBlockReference
  2
_Open30
 10
41.91724953807557
 20
55.18033047084234
 30
0.0
 41
2.0
 42
2.0
 43
2.0
 50
270.0
  0
MTEXT
  5
33C
330
335
100
AcDbEntity
  8
Dimmention
100
AcDbMText
 10
40.16724953807556
 20
68.18583979800871
 30
0.0
 40
2.5
 41
0.0
 71
     5
 72
     1
  1
\A1;17.0
 11
0.0000000000000001
 21
1.0
 31
0.0
 73
     1
 44
1.0
1001
ACAD
1000
MTEXTBEGIN
1070
    73
1070
     1
1070
    44
1040
1.0
1070
    74
1070
     0
1000
MTEXTEND
  0
POINT
  5
33D
330
335
100
AcDbEntity
  8
Defpoints
 62
     0
100
AcDbPoint
 10
55.41724953807662
 20
72.18033047084222
 30
0.0
  0
POINT
  5
33E
330
335
100
AcDbEntity
  8
Defpoints
 62
     0
100
AcDbPoint
 10
55.41724953807589
 20
55.18033047084232
 30
0.0
  0
POINT
  5
33F
330
335
100
AcDbEntity
  8
Defpoints
 62
     0
100
AcDbPoint
 10
41.91724953807557
 20
55.18033047084234
 30
0.0
  0
ENDBLK
  5
340
330
335
100
AcDbEntity
  8
0
100
AcDbBlockEnd
  0
BLOCK
  5
343
330
342
100
AcDbEntity
  8
0
100
AcDbBlockBegin
  2
*D27
 70
     1
 10
0.0
 20
0.0
 30
0.0
  3
*D27
  1

  0
LINE
  5
344
330
342
100
AcDbEntity
  8
Dimmention
370
    15
100
AcDbLine
 10
79.91724953807693
 20
79.98033047084073
 30
0.0
 11
79.91724953807693
 21
96.1803304708415
 31
0.0
  0
LINE
  5
345
330
342
100
AcDbEntity
  8
Dimmention
370
    15
100
AcDbLine
 10
56.41724953807663
 20
73.48033047084221
 30
0.0
 11
56.41724953807663
 21
96.1803304708415
 31
0.0
  0
LINE
  5
346
330
342
100
AcDbEntity
  8
Dimmention
370
    15
100
AcDbLine
 10
77.91724953807693
 20
95.68033047084147
 30
0.0
 11
58.41724953807664
 21
95.68033047084147
 31
0.0
  0
INSERT
  5
347
330
342
100
AcDbEntity
  8
Dimmention
370
    15
100
AcDbBlockReference
  2
_Open30
 10
79.91724953807693
 20
95.68033047084147
 30
0.0
 41
2.0
 42
2.0
 43
2.0
  0
INSERT
  5
348
330
342
100
AcDbEntity
  8
Dimmention
370
    15
100
AcDbBlockReference
  2
_Open30
 10
56.41724953807663
 20
95.68033047084147
 30
0.0
 41
2.0
 42
2.0
 43
2.0
 50
180.0
  0
MTEXT
  5
349
330
342
100
AcDbEntity
  8
Dimmention
100
AcDbMText
 10
68.16724953807678
 20
97.4303304708415
 30
0.0
 40
2.5
 41
0.0
 71
     5
 72
     1
  1
\A1;23.5
 73
     1
 44
1.0
1001
ACAD
1000
MTEXTBEGIN
1070
    73
1070
     1
1070
    44
1040
1.0
1070
    74
1070
     0
1000
MTEXTEND
  0
POINT
  5
34A
330
342
100
AcDbEntity
  8
Defpoints
 62
     0
100
AcDbPoint
 10
79.91724953807693
 20
79.68033047084073
 30
0.0
  0
POINT
  5
34B
330
342
100
AcDbEntity
  8
Defpoints
 62
     0
100
AcDbPoint
 10
56.41724953807663
 20
73.18033047084222
 30
0.0
  0
POINT
  5
34C
330
342
100
AcDbEntity
  8
Defpoints
 62
     0
100
AcDbPoint
 10
56.41724953807663
 20
95.68033047084147
 30
0.0
  0
ENDBLK
  5
34D
330
342
100
AcDbEntity
  8
0
100
AcDbBlockEnd
  0
BLOCK
  5
350
330
34F
100
AcDbEntity
  8
0
100
AcDbBlockBegin
  2
*D28
 70
     1
 10
0.0
 20
0.0
 30
0.0
  3
*D28
  1

  0
LINE
  5
351
330
34F
100
AcDbEntity
  8
Dimmention
370
    15
100
AcDbLine
 10
58.72727306303723
 20
70.26622720452444
 30
0.0
 11
60.2672887463443
 21
68.99015836031257
 31
0.0
  0
LINE
  5
352
330
34F
100
AcDbEntity
  8
Dimmention
370
    15
100
AcDbLine
 10
54.10722601311597
 20
74.09443373716005
 30
0.0
 11
31.8834854148851
 21
92.50919618837723
 31
0.0
  0
LINE
  5
353
330
34F
100
AcDbEntity
  8
Dimmention
370
    15
100
AcDbLine
 10
57.18725737973014
 20
71.54229604873632
 30
0.0
 11
55.64724169642307
 21
72.81836489294817
 31
0.0
  0
INSERT
  5
354
330
34F
100
AcDbEntity
  8
Dimmention
370
    15
100
AcDbBlockReference
  2
_Open30
 10
57.18725737973014
 20
71.54229604873632
 30
0.0
 41
2.0
 42
2.0
 43
2.0
 50
140.3545930318365
  0
INSERT
  5
355
330
34F
100
AcDbEntity
  8
Dimmention
370
    15
100
AcDbBlockReference
  2
_Open30
 10
55.64724169642307
 20
72.81836489294817
 30
0.0
 41
2.0
 42
2.0
 43
2.0
 50
320.3545930318366
  0
MTEXT
  5
356
102
{ACAD_XDICTIONARY
360
1820
102
}
330
34F
100
AcDbEntity
  8
Dimmention
100
AcDbMText
 10
42.19017064955581
 20
86.52187545275792
 30
0.0
 40
2.5
 41
0.0
 71
     5
 72
     1
  1
\A1;\U+22052.0ザ フカサ8
 11
0.7700078416535416
 21
-0.6380344221059352
 31
0.0
 73
     1
 44
1.0
1001
ACAD
1000
MTEXTBEGIN
1070
    73
1070
     1
1070
    44
1040
1.0
1070
    74
1070
     0
1000
MTEXTEND
  0
POINT
  5
357
330
34F
100
AcDbEntity
  8
Defpoints
 62
     0
100
AcDbPoint
 10
55.64724169642307
 20
72.81836489294817
 30
0.0
  0
POINT
  5
358
330
34F
100
AcDbEntity
  8
Defpoints
 62
     0
100
AcDbPoint
 10
57.18725737973014
 20
71.54229604873632
 30
0.0
  0
ENDBLK
  5
359
330
34F
100
AcDbEntity
  8
0
100
AcDbBlockEnd
  0
BLOCK
  5
35F
330
35E
100
AcDbEntity
  8
0
100
AcDbBlockBegin
  2
*D29
 70
     1
 10
0.0
 20
0.0
 30
0.0
  3
*D29
  1

  0
LINE
  5
360
330
35E
100
AcDbEntity
  8
Hatch (ISO)
370
    15
100
AcDbLine
 10
53.11513640606527
 20
69.92288747856132
 30
0.0
 11
45.50519040640462
 21
64.7204554049799
 31
0.0
  0
LINE
  5
361
330
35E
100
AcDbEntity
  8
Hatch (ISO)
370
    15
100
AcDbLine
 10
56.41724953807646
 20
72.18033047084215
 30
0.0
 11
54.76619297207093
 21
71.05160897470176
 31
0.0
  0
INSERT
  5
362
330
35E
100
AcDbEntity
  8
Hatch (ISO)
370
    15
100
AcDbBlockReference
  2
_Open30
 10
54.76619297207093
 20
71.05160897470176
 30
0.0
 41
2.0
 42
2.0
 43
2.0
 50
34.35791228361735
  0
MTEXT
  5
363
330
35E
100
AcDbEntity
  8
Hatch (ISO)
100
AcDbMText
 10
47.4970038141092
 20
68.20198518895532
 30
0.0
 40
2.5
 41
0.0
 71
     5
 72
     1
  1
\A1;R2.0
 11
0.8255282830028351
 21
0.5643607480702315
 31
0.0
 73
     1
 44
1.0
1001
ACAD
1000
MTEXTBEGIN
1070
    73
1070
     1
1070
    44
1040
1.0
1070
    74
1070
     0
1000
MTEXTEND
  0
POINT
  5
364
330
35E
100
AcDbEntity
  8
Defpoints
 62
     0
100
AcDbPoint
 10
54.76619297207093
 20
71.05160897470176
 30
0.0
  0
POINT
  5
365
330
35E
100
AcDbEntity
  8
Defpoints
 62
     0
100
AcDbPoint
 10
56.41724953807646
 20
72.18033047084215
 30
0.0
  0
ENDBLK
  5
366
330
35E
100
AcDbEntity
  8
0
100
AcDbBlockEnd
  0
BLOCK
  5
369
330
368
100
AcDbEntity
  8
0
100
AcDbBlockBegin
  2
*D30
 70
     1
 10
0.0
 20
0.0
 30
0.0
  3
*D30
  1

  0
LINE
  5
36A
330
368
100
AcDbEntity
  8
Hatch (ISO)
370
    15
100
AcDbLine
 10
82.94343654234152
 20
223.6222161287809
 30
0.0
 11
95.89106253381521
 21
222.4564626450138
 31
0.0
  0
LINE
  5
36B
330
368
100
AcDbEntity
  8
Hatch (ISO)
370
    15
100
AcDbLine
 10
97.88300499404193
 20
222.2771159552034
 30
0.0
 11
120.2002518156292
 21
220.2677585450119
 31
0.0
  0
INSERT
  5
36C
330
368
100
AcDbEntity
  8
Hatch (ISO)
370
    15
100
AcDbBlockReference
  2
_Open30
 10
80.95149408211481
 20
223.8015628185912
 30
0.0
 41
2.0
 42
2.0
 43
2.0
 50
174.855184852542
  0
INSERT
  5
36D
330
368
100
AcDbEntity
  8
Hatch (ISO)
370
    15
100
AcDbBlockReference
  2
_Open30
 10
97.88300499404193
 20
222.2771159552034
 30
0.0
 41
2.0
 42
2.0
 43
2.0
 50
354.855184852542
  0
MTEXT
  5
36E
102
{ACAD_XDICTIONARY
360
1822
102
}
330
368
100
AcDbEntity
  8
Hatch (ISO)
100
AcDbMText
 10
113.5395801498839
 20
222.6245381753987
 30
0.0
 40
2.5
 41
0.0
 71
     5
 72
     1
  1
\A1;PCD\U+220517.0
 11
0.9959712301133601
 21
-0.0896733449051627
 31
0.0
 73
     1
 44
1.0
1001
ACAD
1000
MTEXTBEGIN
1070
    73
1070
     1
1070
    44
1040
1.0
1070
    74
1070
     0
1000
MTEXTEND
  0
POINT
  5
36F
330
368
100
AcDbEntity
  8
Defpoints
 62
     0
100
AcDbPoint
 10
97.88300499404193
 20
222.2771159552034
 30
0.0
  0
POINT
  5
370
330
368
100
AcDbEntity
  8
Defpoints
 62
     0
100
AcDbPoint
 10
80.95149408211481
 20
223.8015628185912
 30
0.0
  0
ENDBLK
  5
371
330
368
100
AcDbEntity
  8
0
100
AcDbBlockEnd
  0
BLOCK
  5
374
330
373
100
AcDbEntity
  8
0
100
AcDbBlockBegin
  2
*D31
 70
     1
 10
0.0
 20
0.0
 30
0.0
  3
*D31
  1

  0
LINE
  5
375
330
373
100
AcDbEntity
  8
Hatch (ISO)
370
    15
100
AcDbLine
 10
81.83961914223653
 20
226.8902506535989
 30
0.0
 11
96.99487993392086
 21
219.1884281201958
 31
0.0
  0
LINE
  5
376
330
373
100
AcDbEntity
  8
Hatch (ISO)
370
    15
100
AcDbLine
 10
98.77785179176607
 20
218.2823313515601
 30
0.0
 11
116.155719733784
 21
209.4509917436151
 31
0.0
  0
INSERT
  5
377
330
373
100
AcDbEntity
  8
Hatch (ISO)
370
    15
100
AcDbBlockReference
  2
_Open30
 10
80.0566472843913
 20
227.7963474222346
 30
0.0
 41
2.0
 42
2.0
 43
2.0
 50
153.0605660151412
  0
INSERT
  5
378
330
373
100
AcDbEntity
  8
Hatch (ISO)
370
    15
100
AcDbBlockReference
  2
_Open30
 10
98.77785179176607
 20
218.2823313515601
 30
0.0
 41
2.0
 42
2.0
 43
2.0
 50
333.0605660151412
  0
MTEXT
  5
379
102
{ACAD_XDICTIONARY
360
1824
102
}
330
373
100
AcDbEntity
  8
Hatch (ISO)
100
AcDbMText
 10
112.9674135638546
 20
213.0342866172175
 30
0.0
 40
2.5
 41
0.0
 71
     5
 72
     1
  1
\A1;\U+220521.0
 11
0.8914859289226065
 21
-0.4530483843178314
 31
0.0
 73
     1
 44
1.0
1001
ACAD
1000
MTEXTBEGIN
1070
    73
1070
     1
1070
    44
1040
1.0
1070
    74
1070
     0
1000
MTEXTEND
  0
POINT
  5
37A
330
373
100
AcDbEntity
  8
Defpoints
 62
     0
100
AcDbPoint
 10
98.77785179176607
 20
218.2823313515601
 30
0.0
  0
POINT
  5
37B
330
373
100
AcDbEntity
  8
Defpoints
 62
     0
100
AcDbPoint
 10
80.0566472843913
 20
227.7963474222346
 30
0.0
  0
ENDBLK
  5
37C
330
373
100
AcDbEntity
  8
0
100
AcDbBlockEnd
  0
BLOCK
  5
37F
330
37E
100
AcDbEntity
  8
0
100
AcDbBlockBegin
  2
*D32
 70
     1
 10
0.0
 20
0.0
 30
0.0
  3
*D32
  1

  0
LINE
  5
380
330
37E
100
AcDbEntity
  8
Hatch (ISO)
370
    15
100
AcDbLine
 10
86.6146400778941
 20
221.9691150115044
 30
0.0
 11
92.2198589982627
 21
224.1095637622905
 31
0.0
  0
LINE
  5
381
330
37E
100
AcDbEntity
  8
Hatch (ISO)
370
    15
100
AcDbLine
 10
94.08826530505224
 20
224.8230466792191
 30
0.0
 11
115.3164225059305
 21
232.9293817229754
 31
0.0
  0
INSERT
  5
382
330
37E
100
AcDbEntity
  8
Hatch (ISO)
370
    15
100
AcDbBlockReference
  2
_Open30
 10
84.74623377110454
 20
221.2556320945757
 30
0.0
 41
2.0
 42
2.0
 43
2.0
 50
200.900212153269
  0
INSERT
  5
383
330
37E
100
AcDbEntity
  8
Hatch (ISO)
370
    15
100
AcDbBlockReference
  2
_Open30
 10
94.08826530505224
 20
224.8230466792191
 30
0.0
 41
2.0
 42
2.0
 43
2.0
 50
20.90021215326899
  0
MTEXT
  5
384
102
{ACAD_XDICTIONARY
360
1826
102
}
330
37E
100
AcDbEntity
  8
Hatch (ISO)
100
AcDbMText
 10
110.5202202622522
 20
232.9711240531725
 30
0.0
 40
2.5
 41
0.0
 71
     5
 72
     1
  1
\A1;\U+220510.0
 11
0.9342031533947709
 21
0.3567414584643425
 31
0.0
 73
     1
 44
1.0
1001
ACAD
1000
MTEXTBEGIN
1070
    73
1070
     1
1070
    44
1040
1.0
1070
    74
1070
     0
1000
MTEXTEND
  0
POINT
  5
385
330
37E
100
AcDbEntity
  8
Defpoints
 62
     0
100
AcDbPoint
 10
94.08826530505224
 20
224.8230466792191
 30
0.0
  0
POINT
  5
386
330
37E
100
AcDbEntity
  8
Defpoints
 62
     0
100
AcDbPoint
 10
84.74623377110454
 20
221.2556320945757
 30
0.0
  0
ENDBLK
  5
387
330
37E
100
AcDbEntity
  8
0
100
AcDbBlockEnd
  0
BLOCK
  5
38C
330
38B
100
AcDbEntity
  8
0
100
AcDbBlockBegin
  2
*D33
 70
     1
 10
0.0
 20
0.0
 30
0.0
  3
*D33
  1

  0
LINE
  5
38D
330
38B
100
AcDbEntity
  8
Hatch (ISO)
370
    15
100
AcDbLine
 10
99.61724953807873
 20
166.6635436617445
 30
0.0
 11
96.76314694489963
 21
166.6635436617445
 31
0.0
  0
LINE
  5
38E
330
38B
100
AcDbEntity
  8
Hatch (ISO)
370
    15
100
AcDbLine
 10
94.71724953807859
 20
167.6635436617438
 30
0.0
 11
97.76314694489963
 21
167.6635436617438
 31
0.0
  0
LINE
  5
38F
330
38B
100
AcDbEntity
  8
Hatch (ISO)
370
    15
100
AcDbLine
 10
97.26314694489964
 20
164.6635436617446
 30
0.0
 11
97.26314694489964
 21
162.6635436617446
 31
0.0
  0
LINE
  5
390
330
38B
100
AcDbEntity
  8
Hatch (ISO)
370
    15
100
AcDbLine
 10
97.26314694489964
 20
169.6635436617438
 30
0.0
 11
97.26314694489964
 21
177.0924776718961
 31
0.0
  0
LINE
  5
391
330
38B
100
AcDbEntity
  8
Hatch (ISO)
370
    15
100
AcDbLine
 10
97.26314694489964
 20
166.6635436617445
 30
0.0
 11
97.26314694489964
 21
167.6635436617438
 31
0.0
  0
INSERT
  5
392
330
38B
100
AcDbEntity
  8
Hatch (ISO)
370
    15
100
AcDbBlockReference
  2
_Open30
 10
97.26314694489964
 20
166.6635436617445
 30
0.0
 41
2.0
 42
2.0
 43
2.0
 50
90.0
  0
INSERT
  5
393
330
38B
100
AcDbEntity
  8
Hatch (ISO)
370
    15
100
AcDbBlockReference
  2
_Open30
 10
97.26314694489964
 20
167.6635436617438
 30
0.0
 41
2.0
 42
2.0
 43
2.0
 50
270.0
  0
MTEXT
  5
394
330
38B
100
AcDbEntity
  8
Hatch (ISO)
100
AcDbMText
 10
95.5131469448996
 20
174.37801066682
 30
0.0
 40
2.5
 41
0.0
 71
     5
 72
     1
  1
\A1;1.0
 11
0.0000000000000001
 21
1.0
 31
0.0
 73
     1
 44
1.0
1001
ACAD
1000
MTEXTBEGIN
1070
    73
1070
     1
1070
    44
1040
1.0
1070
    74
1070
     0
1000
MTEXTEND
  0
POINT
  5
395
330
38B
100
AcDbEntity
  8
Defpoints
 62
     0
100
AcDbPoint
 10
99.91724953807873
 20
166.6635436617445
 30
0.0
  0
POINT
  5
396
330
38B
100
AcDbEntity
  8
Defpoints
 62
     0
100
AcDbPoint
 10
94.4172495380786
 20
167.6635436617438
 30
0.0
  0
POINT
  5
397
330
38B
100
AcDbEntity
  8
Defpoints
 62
     0
100
AcDbPoint
 10
97.26314694489964
 20
167.6635436617438
 30
0.0
  0
ENDBLK
  5
398
330
38B
100
AcDbEntity
  8
0
100
AcDbBlockEnd
  0
BLOCK
  5
3A6
330
3A5
100
AcDbEntity
  8
0
100
AcDbBlockBegin
  2
*D34
 70
     1
 10
0.0
 20
0.0
 30
0.0
  3
*D34
  1

  0
LINE
  5
3A7
330
3A5
100
AcDbEntity
  8
Dimmention
370
    15
100
AcDbLine
 10
101.7172495380762
 20
121.6635436617433
 30
0.0
 11
109.9172495380762
 21
121.6635436617433
 31
0.0
  0
LINE
  5
3A8
330
3A5
100
AcDbEntity
  8
Dimmention
370
    15
100
AcDbLine
 10
94.46724953807873
 20
119.6635436617433
 30
0.0
 11
109.9172495380762
 21
119.6635436617433
 31
0.0
  0
LINE
  5
3A9
330
3A5
100
AcDbEntity
  8
Dimmention
370
    15
100
AcDbLine
 10
109.4172495380762
 20
117.6635436617433
 30
0.0
 11
109.4172495380762
 21
115.6635436617433
 31
0.0
  0
LINE
  5
3AA
330
3A5
100
AcDbEntity
  8
Dimmention
370
    15
100
AcDbLine
 10
109.4172495380762
 20
123.6635436617433
 30
0.0
 11
109.4172495380762
 21
131.2574522911849
 31
0.0
  0
LINE
  5
3AB
330
3A5
100
AcDbEntity
  8
Dimmention
370
    15
100
AcDbLine
 10
109.4172495380762
 20
119.6635436617433
 30
0.0
 11
109.4172495380762
 21
121.6635436617433
 31
0.0
  0
INSERT
  5
3AC
330
3A5
100
AcDbEntity
  8
Dimmention
370
    15
100
AcDbBlockReference
  2
_Open30
 10
109.4172495380762
 20
119.6635436617433
 30
0.0
 41
2.0
 42
2.0
 43
2.0
 50
90.0
  0
INSERT
  5
3AD
330
3A5
100
AcDbEntity
  8
Dimmention
370
    15
100
AcDbBlockReference
  2
_Open30
 10
109.4172495380762
 20
121.6635436617433
 30
0.0
 41
2.0
 42
2.0
 43
2.0
 50
270.0
  0
MTEXT
  5
3AE
330
3A5
100
AcDbEntity
  8
Dimmention
100
AcDbMText
 10
107.6672495380762
 20
128.4604979764642
 30
0.0
 40
2.5
 41
0.0
 71
     5
 72
     1
  1
\A1;2.0
 11
0.0000000000000001
 21
1.0
 31
0.0
 73
     1
 44
1.0
1001
ACAD
1000
MTEXTBEGIN
1070
    73
1070
     1
1070
    44
1040
1.0
1070
    74
1070
     0
1000
MTEXTEND
  0
POINT
  5
3AF
330
3A5
100
AcDbEntity
  8
Defpoints
 62
     0
100
AcDbPoint
 10
101.4172495380762
 20
121.6635436617433
 30
0.0
  0
POINT
  5
3B0
330
3A5
100
AcDbEntity
  8
Defpoints
 62
     0
100
AcDbPoint
 10
94.16724953807872
 20
119.6635436617433
 30
0.0
  0
POINT
  5
3B1
330
3A5
100
AcDbEntity
  8
Defpoints
 62
     0
100
AcDbPoint
 10
109.4172495380762
 20
119.6635436617433
 30
0.0
  0
ENDBLK
  5
3B2
330
3A5
100
AcDbEntity
  8
0
100
AcDbBlockEnd
  0
BLOCK
  5
3B5
330
3B4
100
AcDbEntity
  8
0
100
AcDbBlockBegin
  2
*D35
 70
     1
 10
0.0
 20
0.0
 30
0.0
  3
*D35
  1

  0
LINE
  5
3B6
330
3B4
100
AcDbEntity
  8
Dimmention
370
    15
100
AcDbLine
 10
101.7172495380762
 20
121.6635436617433
 30
0.0
 11
117.9172495380762
 21
121.6635436617433
 31
0.0
  0
LINE
  5
3B7
330
3B4
100
AcDbEntity
  8
Dimmention
370
    15
100
AcDbLine
 10
93.21724953807876
 20
116.1635436617433
 30
0.0
 11
117.9172495380762
 21
116.1635436617433
 31
0.0
  0
LINE
  5
3B8
330
3B4
100
AcDbEntity
  8
Dimmention
370
    15
100
AcDbLine
 10
117.4172495380762
 20
119.6635436617433
 30
0.0
 11
117.4172495380762
 21
118.1635436617433
 31
0.0
  0
INSERT
  5
3B9
330
3B4
100
AcDbEntity
  8
Dimmention
370
    15
100
AcDbBlockReference
  2
_Open30
 10
117.4172495380762
 20
121.6635436617433
 30
0.0
 41
2.0
 42
2.0
 43
2.0
 50
90.0
  0
INSERT
  5
3BA
330
3B4
100
AcDbEntity
  8
Dimmention
370
    15
100
AcDbBlockReference
  2
_Open30
 10
117.4172495380762
 20
116.1635436617433
 30
0.0
 41
2.0
 42
2.0
 43
2.0
 50
270.0
  0
MTEXT
  5
3BB
330
3B4
100
AcDbEntity
  8
Dimmention
100
AcDbMText
 10
115.6672495380762
 20
118.9135436617433
 30
0.0
 40
2.5
 41
0.0
 71
     5
 72
     1
  1
\A1;5.5
 11
0.0000000000000001
 21
1.0
 31
0.0
 73
     1
 44
1.0
1001
ACAD
1000
MTEXTBEGIN
1070
    73
1070
     1
1070
    44
1040
1.0
1070
    74
1070
     0
1000
MTEXTEND
  0
POINT
  5
3BC
330
3B4
100
AcDbEntity
  8
Defpoints
 62
     0
100
AcDbPoint
 10
101.4172495380762
 20
121.6635436617433
 30
0.0
  0
POINT
  5
3BD
330
3B4
100
AcDbEntity
  8
Defpoints
 62
     0
100
AcDbPoint
 10
92.91724953807877
 20
116.1635436617433
 30
0.0
  0
POINT
  5
3BE
330
3B4
100
AcDbEntity
  8
Defpoints
 62
     0
100
AcDbPoint
 10
117.4172495380762
 20
116.1635436617433
 30
0.0
  0
ENDBLK
  5
3BF
330
3B4
100
AcDbEntity
  8
0
100
AcDbBlockEnd
  0
BLOCK
  5
3C2
330
3C1
100
AcDbEntity
  8
0
100
AcDbBlockBegin
  2
*D36
 70
     1
 10
0.0
 20
0.0
 30
0.0
  3
*D36
  1

  0
LINE
  5
3C3
330
3C1
100
AcDbEntity
  8
Dimmention
370
    15
100
AcDbLine
 10
85.7255410854251
 20
65.22022939629242
 30
0.0
 11
93.10895799073223
 21
62.14043154538986
 31
0.0
  0
LINE
  5
3C4
330
3C1
100
AcDbEntity
  8
Dimmention
370
    15
100
AcDbLine
 10
94.95481221705905
 20
61.37048208266421
 30
0.0
 11
109.6792828203501
 21
55.22855707676374
 31
0.0
  0
INSERT
  5
3C5
330
3C1
100
AcDbEntity
  8
Dimmention
370
    15
100
AcDbBlockReference
  2
_Open30
 10
83.87968685909831
 20
65.99017885901807
 30
0.0
 41
2.0
 42
2.0
 43
2.0
 50
157.3578284357813
  0
INSERT
  5
3C6
330
3C1
100
AcDbEntity
  8
Dimmention
370
    15
100
AcDbBlockReference
  2
_Open30
 10
94.95481221705905
 20
61.37048208266421
 30
0.0
 41
2.0
 42
2.0
 43
2.0
 50
337.3578284357813
  0
MTEXT
  5
3C7
102
{ACAD_XDICTIONARY
360
1828
102
}
330
3C1
100
AcDbEntity
  8
Dimmention
100
AcDbMText
 10
106.231439728126
 20
58.56287505737046
 30
0.0
 40
2.5
 41
0.0
 71
     5
 72
     1
  1
\A1;\U+220512.0
 11
0.922927113163397
 21
-0.3849747313628238
 31
0.0
 73
     1
 44
1.0
1001
ACAD
1000
MTEXTBEGIN
1070
    73
1070
     1
1070
    44
1040
1.0
1070
    74
1070
     0
1000
MTEXTEND
  0
POINT
  5
3C8
330
3C1
100
AcDbEntity
  8
Defpoints
 62
     0
100
AcDbPoint
 10
94.95481221705905
 20
61.37048208266421
 30
0.0
  0
POINT
  5
3C9
330
3C1
100
AcDbEntity
  8
Defpoints
 62
     0
100
AcDbPoint
 10
83.87968685909831
 20
65.99017885901807
 30
0.0
  0
ENDBLK
  5
3CA
330
3C1
100
AcDbEntity
  8
0
100
AcDbBlockEnd
  0
BLOCK
  5
3CD
330
3CC
100
AcDbEntity
  8
0
100
AcDbBlockBegin
  2
*D37
 70
     1
 10
0.0
 20
0.0
 30
0.0
  3
*D37
  1

  0
LINE
  5
3CE
330
3CC
100
AcDbEntity
  8
Dimmention
370
    15
100
AcDbLine
 10
86.66978189701223
 20
63.56234080480092
 30
0.0
 11
92.16471717914528
 21
63.7983201368814
 31
0.0
  0
LINE
  5
3CF
330
3CC
100
AcDbEntity
  8
Dimmention
370
    15
100
AcDbLine
 10
94.1628754635573
 20
63.88413080309248
 30
0.0
 11
109.5522264100306
 21
64.54502462095222
 31
0.0
  0
INSERT
  5
3D0
330
3CC
100
AcDbEntity
  8
Dimmention
370
    15
100
AcDbBlockReference
  2
_Open30
 10
84.67162361260022
 20
63.47653013858983
 30
0.0
 41
2.0
 42
2.0
 43
2.0
 50
182.4590493634897
  0
INSERT
  5
3D1
330
3CC
100
AcDbEntity
  8
Dimmention
370
    15
100
AcDbBlockReference
  2
_Open30
 10
94.1628754635573
 20
63.88413080309248
 30
0.0
 41
2.0
 42
2.0
 43
2.0
 50
2.459049363489747
  0
MTEXT
  5
3D2
102
{ACAD_XDICTIONARY
360
182A
102
}
330
3CC
100
AcDbEntity
  8
Dimmention
100
AcDbMText
 10
105.8586498539285
 20
66.13801740828583
 30
0.0
 40
2.5
 41
0.0
 71
     5
 72
     1
  1
\A1;\U+22059.5
 11
0.9990791422060127
 21
0.0429053331055438
 31
0.0
 73
     1
 44
1.0
1001
ACAD
1000
MTEXTBEGIN
1070
    73
1070
     1
1070
    44
1040
1.0
1070
    74
1070
     0
1000
MTEXTEND
  0
POINT
  5
3D3
330
3CC
100
AcDbEntity
  8
Defpoints
 62
     0
100
AcDbPoint
 10
94.1628754635573
 20
63.88413080309248
 30
0.0
  0
POINT
  5
3D4
330
3CC
100
AcDbEntity
  8
Defpoints
 62
     0
100
AcDbPoint
 10
84.67162361260022
 20
63.47653013858983
 30
0.0
  0
ENDBLK
  5
3D5
330
3CC
100
AcDbEntity
  8
0
100
AcDbBlockEnd
  0
BLOCK
  5
3D8
330
3D7
100
AcDbEntity
  8
0
100
AcDbBlockBegin
  2
*D38
 70
     1
 10
0.0
 20
0.0
 30
0.0
  3
*D38
  1

  0
LINE
  5
3D9
330
3D7
100
AcDbEntity
  8
Dimmention
370
    15
100
AcDbLine
 10
87.55425928723061
 20
62.95282285902885
 30
0.0
 11
91.2802397889269
 21
64.40783808265345
 31
0.0
  0
LINE
  5
3DA
330
3D7
100
AcDbEntity
  8
Dimmention
370
    15
100
AcDbLine
 10
93.143230039775
 20
65.13534569446576
 30
0.0
 11
109.6342778120971
 21
71.57518765051614
 31
0.0
  0
INSERT
  5
3DB
330
3D7
100
AcDbEntity
  8
Dimmention
370
    15
100
AcDbBlockReference
  2
_Open30
 10
85.69126903638247
 20
62.22531524721656
 30
0.0
 41
2.0
 42
2.0
 43
2.0
 50
201.3309098984787
  0
INSERT
  5
3DC
330
3D7
100
AcDbEntity
  8
Dimmention
370
    15
100
AcDbBlockReference
  2
_Open30
 10
93.143230039775
 20
65.13534569446576
 30
0.0
 41
2.0
 42
2.0
 43
2.0
 50
21.33090989847876
  0
MTEXT
  5
3DD
102
{ACAD_XDICTIONARY
360
182C
102
}
330
3D7
100
AcDbEntity
  8
Dimmention
100
AcDbMText
 10
105.5944415628072
 20
71.87631020223687
 30
0.0
 40
2.5
 41
0.0
 71
     5
 72
     1
  1
\A1;\U+22058.0
 11
0.9314951254240634
 21
0.3637538059061494
 31
0.0
 73
     1
 44
1.0
1001
ACAD
1000
MTEXTBEGIN
1070
    73
1070
     1
1070
    44
1040
1.0
1070
    74
1070
     0
1000
MTEXTEND
  0
POINT
  5
3DE
330
3D7
100
AcDbEntity
  8
Defpoints
 62
     0
100
AcDbPoint
 10
93.143230039775
 20
65.13534569446576
 30
0.0
  0
POINT
  5
3DF
330
3D7
100
AcDbEntity
  8
Defpoints
 62
     0
100
AcDbPoint
 10
85.69126903638247
 20
62.22531524721656
 30
0.0
  0
ENDBLK
  5
3E0
330
3D7
100
AcDbEntity
  8
0
100
AcDbBlockEnd
  0
BLOCK
  5
3E5
330
3E4
100
AcDbEntity
  8
0
100
AcDbBlockBegin
  2
*D39
 70
     1
 10
0.0
 20
0.0
 30
0.0
  3
*D39
  1

  0
LINE
  5
3E6
330
3E4
100
AcDbEntity
  8
Dimmention
370
    15
100
AcDbLine
 10
54.11724953807662
 20
121.6635436617433
 30
0.0
 11
41.41724953807556
 21
121.6635436617433
 31
0.0
  0
LINE
  5
3E7
330
3E4
100
AcDbEntity
  8
Dimmention
370
    15
100
AcDbLine
 10
52.11724953807558
 20
125.6635436617433
 30
0.0
 11
41.41724953807556
 21
125.6635436617433
 31
0.0
  0
LINE
  5
3E8
330
3E4
100
AcDbEntity
  8
Dimmention
370
    15
100
AcDbLine
 10
41.91724953807557
 20
119.6635436617433
 30
0.0
 11
41.91724953807557
 21
117.6635436617433
 31
0.0
  0
LINE
  5
3E9
330
3E4
100
AcDbEntity
  8
Dimmention
370
    15
100
AcDbLine
 10
41.91724953807557
 20
127.6635436617433
 30
0.0
 11
41.91724953807557
 21
135.3082137125047
 31
0.0
  0
LINE
  5
3EA
330
3E4
100
AcDbEntity
  8
Dimmention
370
    15
100
AcDbLine
 10
41.91724953807557
 20
121.6635436617433
 30
0.0
 11
41.91724953807557
 21
125.6635436617433
 31
0.0
  0
INSERT
  5
3EB
330
3E4
100
AcDbEntity
  8
Dimmention
370
    15
100
AcDbBlockReference
  2
_Open30
 10
41.91724953807557
 20
121.6635436617433
 30
0.0
 41
2.0
 42
2.0
 43
2.0
 50
90.0
  0
INSERT
  5
3EC
330
3E4
100
AcDbEntity
  8
Dimmention
370
    15
100
AcDbBlockReference
  2
_Open30
 10
41.91724953807557
 20
125.6635436617433
 30
0.0
 41
2.0
 42
2.0
 43
2.0
 50
270.0
  0
MTEXT
  5
3ED
330
3E4
100
AcDbEntity
  8
Dimmention
100
AcDbMText
 10
40.16724953807552
 20
132.485878687124
 30
0.0
 40
2.5
 41
0.0
 71
     5
 72
     1
  1
\A1;4.0
 11
0.0000000000000001
 21
1.0
 31
0.0
 73
     1
 44
1.0
1001
ACAD
1000
MTEXTBEGIN
1070
    73
1070
     1
1070
    44
1040
1.0
1070
    74
1070
     0
1000
MTEXTEND
  0
POINT
  5
3EE
330
3E4
100
AcDbEntity
  8
Defpoints
 62
     0
100
AcDbPoint
 10
54.41724953807661
 20
121.6635436617433
 30
0.0
  0
POINT
  5
3EF
330
3E4
100
AcDbEntity
  8
Defpoints
 62
     0
100
AcDbPoint
 10
52.41724953807558
 20
125.6635436617433
 30
0.0
  0
POINT
  5
3F0
330
3E4
100
AcDbEntity
  8
Defpoints
 62
     0
100
AcDbPoint
 10
41.91724953807557
 20
125.6635436617433
 30
0.0
  0
ENDBLK
  5
3F1
330
3E4
100
AcDbEntity
  8
0
100
AcDbBlockEnd
  0
BLOCK
  5
3F4
330
3F3
100
AcDbEntity
  8
0
100
AcDbBlockBegin
  2
*D40
 70
     1
 10
0.0
 20
0.0
 30
0.0
  3
*D40
  1

  0
LINE
  5
3F5
330
3F3
100
AcDbEntity
  8
Dimmention
370
    15
100
AcDbLine
 10
54.11724953807662
 20
121.6635436617433
 30
0.0
 11
33.41724953807557
 21
121.6635436617433
 31
0.0
  0
LINE
  5
3F6
330
3F3
100
AcDbEntity
  8
Dimmention
370
    15
100
AcDbLine
 10
50.61724953807559
 20
140.8635436617433
 30
0.0
 11
33.41724953807557
 21
140.8635436617433
 31
0.0
  0
LINE
  5
3F7
330
3F3
100
AcDbEntity
  8
Dimmention
370
    15
100
AcDbLine
 10
33.91724953807557
 20
123.6635436617433
 30
0.0
 11
33.91724953807557
 21
138.8635436617433
 31
0.0
  0
INSERT
  5
3F8
330
3F3
100
AcDbEntity
  8
Dimmention
370
    15
100
AcDbBlockReference
  2
_Open30
 10
33.91724953807557
 20
121.6635436617433
 30
0.0
 41
2.0
 42
2.0
 43
2.0
 50
270.0
  0
INSERT
  5
3F9
330
3F3
100
AcDbEntity
  8
Dimmention
370
    15
100
AcDbBlockReference
  2
_Open30
 10
33.91724953807557
 20
140.8635436617433
 30
0.0
 41
2.0
 42
2.0
 43
2.0
 50
90.0
  0
MTEXT
  5
3FA
330
3F3
100
AcDbEntity
  8
Dimmention
100
AcDbMText
 10
32.16724953807555
 20
131.2635436617433
 30
0.0
 40
2.5
 41
0.0
 71
     5
 72
     1
  1
\A1;19.2
 11
0.0000000000000001
 21
1.0
 31
0.0
 73
     1
 44
1.0
1001
ACAD
1000
MTEXTBEGIN
1070
    73
1070
     1
1070
    44
1040
1.0
1070
    74
1070
     0
1000
MTEXTEND
  0
POINT
  5
3FB
330
3F3
100
AcDbEntity
  8
Defpoints
 62
     0
100
AcDbPoint
 10
54.41724953807661
 20
121.6635436617433
 30
0.0
  0
POINT
  5
3FC
330
3F3
100
AcDbEntity
  8
Defpoints
 62
     0
100
AcDbPoint
 10
50.91724953807558
 20
140.8635436617433
 30
0.0
  0
POINT
  5
3FD
330
3F3
100
AcDbEntity
  8
Defpoints
 62
     0
100
AcDbPoint
 10
33.91724953807557
 20
140.8635436617433
 30
0.0
  0
ENDBLK
  5
3FE
330
3F3
100
AcDbEntity
  8
0
100
AcDbBlockEnd
  0
BLOCK
  5
483
330
482
100
AcDbEntity
  8
0
100
AcDbBlockBegin
  2
*D41
 70
     1
 10
0.0
 20
0.0
 30
0.0
  3
*D41
  1

  0
LINE
  5
484
330
482
100
AcDbEntity
  8
Hatch (ISO)
370
    15
100
AcDbLine
 10
151.4472171597225
 20
54.78436897244236
 30
0.0
 11
164.3948431511964
 21
53.61861548867518
 31
0.0
  0
LINE
  5
485
330
482
100
AcDbEntity
  8
Hatch (ISO)
370
    15
100
AcDbLine
 10
166.3867856114231
 20
53.43926879886488
 30
0.0
 11
188.7040324330103
 21
51.42991138867327
 31
0.0
  0
INSERT
  5
486
330
482
100
AcDbEntity
  8
Hatch (ISO)
370
    15
100
AcDbBlockReference
  2
_Open30
 10
149.4552746994959
 20
54.96371566225271
 30
0.0
 41
2.0
 42
2.0
 43
2.0
 50
174.8551848525418
  0
INSERT
  5
487
330
482
100
AcDbEntity
  8
Hatch (ISO)
370
    15
100
AcDbBlockReference
  2
_Open30
 10
166.3867856114231
 20
53.43926879886488
 30
0.0
 41
2.0
 42
2.0
 43
2.0
 50
354.8551848525418
  0
MTEXT
  5
488
102
{ACAD_XDICTIONARY
360
182E
102
}
330
482
100
AcDbEntity
  8
Hatch (ISO)
100
AcDbMText
 10
182.0433607672651
 20
53.78669101906009
 30
0.0
 40
2.5
 41
0.0
 71
     5
 72
     1
  1
\A1;PCD\U+220517.0
 11
0.9959712301133597
 21
-0.0896733449051663
 31
0.0
 73
     1
 44
1.0
1001
ACAD
1000
MTEXTBEGIN
1070
    73
1070
     1
1070
    44
1040
1.0
1070
    74
1070
     0
1000
MTEXTEND
  0
POINT
  5
489
330
482
100
AcDbEntity
  8
Defpoints
 62
     0
100
AcDbPoint
 10
166.3867856114231
 20
53.43926879886488
 30
0.0
  0
POINT
  5
48A
330
482
100
AcDbEntity
  8
Defpoints
 62
     0
100
AcDbPoint
 10
149.4552746994959
 20
54.96371566225271
 30
0.0
  0
ENDBLK
  5
48B
330
482
100
AcDbEntity
  8
0
100
AcDbBlockEnd
  0
BLOCK
  5
48E
330
48D
100
AcDbEntity
  8
0
100
AcDbBlockBegin
  2
*D42
 70
     1
 10
0.0
 20
0.0
 30
0.0
  3
*D42
  1

  0
LINE
  5
48F
330
48D
100
AcDbEntity
  8
Hatch (ISO)
370
    15
100
AcDbLine
 10
150.3433997596177
 20
58.05240349726037
 30
0.0
 11
165.498660551302
 21
50.35058096385718
 31
0.0
  0
LINE
  5
490
330
48D
100
AcDbEntity
  8
Hatch (ISO)
370
    15
100
AcDbLine
 10
167.2816324091472
 20
49.44448419522152
 30
0.0
 11
184.6595003511652
 21
40.61314458727645
 31
0.0
  0
INSERT
  5
491
330
48D
100
AcDbEntity
  8
Hatch (ISO)
370
    15
100
AcDbBlockReference
  2
_Open30
 10
148.5604279017725
 20
58.95850026589604
 30
0.0
 41
2.0
 42
2.0
 43
2.0
 50
153.0605660151409
  0
INSERT
  5
492
330
48D
100
AcDbEntity
  8
Hatch (ISO)
370
    15
100
AcDbBlockReference
  2
_Open30
 10
167.2816324091472
 20
49.44448419522152
 30
0.0
 41
2.0
 42
2.0
 43
2.0
 50
333.060566015141
  0
MTEXT
  5
493
102
{ACAD_XDICTIONARY
360
1830
102
}
330
48D
100
AcDbEntity
  8
Hatch (ISO)
100
AcDbMText
 10
181.4711941812358
 20
44.19643946087894
 30
0.0
 40
2.5
 41
0.0
 71
     5
 72
     1
  1
\A1;\U+220521.0
 11
0.8914859289226052
 21
-0.4530483843178338
 31
0.0
 73
     1
 44
1.0
1001
ACAD
1000
MTEXTBEGIN
1070
    73
1070
     1
1070
    44
1040
1.0
1070
    74
1070
     0
1000
MTEXTEND
  0
POINT
  5
494
330
48D
100
AcDbEntity
  8
Defpoints
 62
     0
100
AcDbPoint
 10
167.2816324091472
 20
49.44448419522152
 30
0.0
  0
POINT
  5
495
330
48D
100
AcDbEntity
  8
Defpoints
 62
     0
100
AcDbPoint
 10
148.5604279017725
 20
58.95850026589604
 30
0.0
  0
ENDBLK
  5
496
330
48D
100
AcDbEntity
  8
0
100
AcDbBlockEnd
  0
BLOCK
  5
49B
330
49A
100
AcDbEntity
  8
0
100
AcDbBlockBegin
  2
*D43
 70
     1
 10
0.0
 20
0.0
 30
0.0
  3
*D43
  1

  0
LINE
  5
49C
330
49A
100
AcDbEntity
  8
Dimmention
370
    15
100
AcDbLine
 10
170.2210296874688
 20
91.80478509865904
 30
0.0
 11
182.8618121122586
 21
91.80478509865904
 31
0.0
  0
LINE
  5
49D
330
49A
100
AcDbEntity
  8
Dimmention
370
    15
100
AcDbLine
 10
168.7210301554599
 20
86.30478509865906
 30
0.0
 11
182.8618121122586
 21
86.30478509865906
 31
0.0
  0
LINE
  5
49E
330
49A
100
AcDbEntity
  8
Dimmention
370
    15
100
AcDbLine
 10
182.3618121122585
 20
89.80478509865903
 30
0.0
 11
182.3618121122585
 21
88.30478509865903
 31
0.0
  0
LINE
  5
49F
330
49A
100
AcDbEntity
  8
Dimmention
370
    15
100
AcDbLine
 10
182.3618121122585
 20
86.30478509865906
 30
0.0
 11
182.3618121122585
 21
78.76163789053723
 31
0.0
  0
INSERT
  5
4A0
330
49A
100
AcDbEntity
  8
Dimmention
370
    15
100
AcDbBlockReference
  2
_Open30
 10
182.3618121122585
 20
91.80478509865904
 30
0.0
 41
2.0
 42
2.0
 43
2.0
 50
90.0
  0
INSERT
  5
4A1
330
49A
100
AcDbEntity
  8
Dimmention
370
    15
100
AcDbBlockReference
  2
_Open30
 10
182.3618121122585
 20
86.30478509865906
 30
0.0
 41
2.0
 42
2.0
 43
2.0
 50
270.0
  0
MTEXT
  5
4A2
330
49A
100
AcDbEntity
  8
Dimmention
100
AcDbMText
 10
180.6118121122585
 20
81.53321149459818
 30
0.0
 40
2.5
 41
0.0
 71
     5
 72
     1
  1
\A1;5.5
 11
0.0000000000000001
 21
1.0
 31
0.0
 73
     1
 44
1.0
1001
ACAD
1000
MTEXTBEGIN
1070
    73
1070
     1
1070
    44
1040
1.0
1070
    74
1070
     0
1000
MTEXTEND
  0
POINT
  5
4A3
330
49A
100
AcDbEntity
  8
Defpoints
 62
     0
100
AcDbPoint
 10
169.9210296874688
 20
91.80478509865904
 30
0.0
  0
POINT
  5
4A4
330
49A
100
AcDbEntity
  8
Defpoints
 62
     0
100
AcDbPoint
 10
168.4210301554599
 20
86.30478509865906
 30
0.0
  0
POINT
  5
4A5
330
49A
100
AcDbEntity
  8
Defpoints
 62
     0
100
AcDbPoint
 10
182.3618121122585
 20
86.30478509865906
 30
0.0
  0
ENDBLK
  5
4A6
330
49A
100
AcDbEntity
  8
0
100
AcDbBlockEnd
  0
BLOCK
  5
4A9
330
4A8
100
AcDbEntity
  8
0
100
AcDbBlockBegin
  2
*D44
 70
     1
 10
0.0
 20
0.0
 30
0.0
  3
*D44
  1

  0
LINE
  5
4AA
330
4A8
100
AcDbEntity
  8
Dimmention
370
    15
100
AcDbLine
 10
168.7210301554599
 20
89.80478509865903
 30
0.0
 11
175.5491040119738
 21
89.80478509865903
 31
0.0
  0
LINE
  5
4AB
330
4A8
100
AcDbEntity
  8
Dimmention
370
    15
100
AcDbLine
 10
168.7210301554599
 20
86.30478509865906
 30
0.0
 11
175.5491040119738
 21
86.30478509865906
 31
0.0
  0
LINE
  5
4AC
330
4A8
100
AcDbEntity
  8
Dimmention
370
    15
100
AcDbLine
 10
175.0491040119737
 20
91.80478509865904
 30
0.0
 11
175.0491040119737
 21
93.80478509865907
 31
0.0
  0
LINE
  5
4AD
330
4A8
100
AcDbEntity
  8
Dimmention
370
    15
100
AcDbLine
 10
175.0491040119737
 20
84.30478509865906
 30
0.0
 11
175.0491040119737
 21
76.76163789053723
 31
0.0
  0
LINE
  5
4AE
330
4A8
100
AcDbEntity
  8
Dimmention
370
    15
100
AcDbLine
 10
175.0491040119737
 20
89.80478509865903
 30
0.0
 11
175.0491040119737
 21
86.30478509865906
 31
0.0
  0
INSERT
  5
4AF
330
4A8
100
AcDbEntity
  8
Dimmention
370
    15
100
AcDbBlockReference
  2
_Open30
 10
175.0491040119737
 20
89.80478509865903
 30
0.0
 41
2.0
 42
2.0
 43
2.0
 50
270.0
  0
INSERT
  5
4B0
330
4A8
100
AcDbEntity
  8
Dimmention
370
    15
100
AcDbBlockReference
  2
_Open30
 10
175.0491040119737
 20
86.30478509865906
 30
0.0
 41
2.0
 42
2.0
 43
2.0
 50
90.0
  0
MTEXT
  5
4B1
330
4A8
100
AcDbEntity
  8
Dimmention
100
AcDbMText
 10
173.2991040119737
 20
79.53321149459816
 30
0.0
 40
2.5
 41
0.0
 71
     5
 72
     1
  1
\A1;3.5
 11
0.0000000000000001
 21
1.0
 31
0.0
 73
     1
 44
1.0
1001
ACAD
1000
MTEXTBEGIN
1070
    73
1070
     1
1070
    44
1040
1.0
1070
    74
1070
     0
1000
MTEXTEND
  0
POINT
  5
4B2
330
4A8
100
AcDbEntity
  8
Defpoints
 62
     0
100
AcDbPoint
 10
168.4210301554599
 20
89.80478509865903
 30
0.0
  0
POINT
  5
4B3
330
4A8
100
AcDbEntity
  8
Defpoints
 62
     0
100
AcDbPoint
 10
168.4210301554599
 20
86.30478509865906
 30
0.0
  0
POINT
  5
4B4
330
4A8
100
AcDbEntity
  8
Defpoints
 62
     0
100
AcDbPoint
 10
175.0491040119737
 20
86.30478509865906
 30
0.0
  0
ENDBLK
  5
4B5
330
4A8
100
AcDbEntity
  8
0
100
AcDbBlockEnd
  0
BLOCK
  5
4B8
330
4B7
100
AcDbEntity
  8
0
100
AcDbBlockBegin
  2
*D45
 70
     1
 10
0.0
 20
0.0
 30
0.0
  3
*D45
  1

  0
LINE
  5
4B9
330
4B7
100
AcDbEntity
  8
Dimmention
370
    15
100
AcDbLine
 10
162.7210301554596
 20
86.30478509865906
 30
0.0
 11
166.580247383329
 21
86.30478509865906
 31
0.0
  0
LINE
  5
4BA
330
4B7
100
AcDbEntity
  8
Dimmention
370
    15
100
AcDbLine
 10
162.7210301554596
 20
85.30478509865906
 30
0.0
 11
166.580247383329
 21
85.30478509865906
 31
0.0
  0
LINE
  5
4BB
330
4B7
100
AcDbEntity
  8
Dimmention
370
    15
100
AcDbLine
 10
166.080247383329
 20
88.30478509865903
 30
0.0
 11
166.080247383329
 21
90.30478509865906
 31
0.0
  0
LINE
  5
4BC
330
4B7
100
AcDbEntity
  8
Dimmention
370
    15
100
AcDbLine
 10
166.080247383329
 20
83.30478509865907
 30
0.0
 11
166.080247383329
 21
75.87585108850678
 31
0.0
  0
LINE
  5
4BD
330
4B7
100
AcDbEntity
  8
Dimmention
370
    15
100
AcDbLine
 10
166.080247383329
 20
86.30478509865906
 30
0.0
 11
166.080247383329
 21
85.30478509865906
 31
0.0
  0
INSERT
  5
4BE
330
4B7
100
AcDbEntity
  8
Dimmention
370
    15
100
AcDbBlockReference
  2
_Open30
 10
166.080247383329
 20
86.30478509865906
 30
0.0
 41
2.0
 42
2.0
 43
2.0
 50
270.0
  0
INSERT
  5
4BF
330
4B7
100
AcDbEntity
  8
Dimmention
370
    15
100
AcDbBlockReference
  2
_Open30
 10
166.080247383329
 20
85.30478509865906
 30
0.0
 41
2.0
 42
2.0
 43
2.0
 50
90.0
  0
MTEXT
  5
4C0
330
4B7
100
AcDbEntity
  8
Dimmention
100
AcDbMText
 10
164.330247383329
 20
78.59031809358295
 30
0.0
 40
2.5
 41
0.0
 71
     5
 72
     1
  1
\A1;1.0
 11
0.0000000000000001
 21
1.0
 31
0.0
 73
     1
 44
1.0
1001
ACAD
1000
MTEXTBEGIN
1070
    73
1070
     1
1070
    44
1040
1.0
1070
    74
1070
     0
1000
MTEXTEND
  0
POINT
  5
4C1
330
4B7
100
AcDbEntity
  8
Defpoints
 62
     0
100
AcDbPoint
 10
162.4210301554595
 20
86.30478509865906
 30
0.0
  0
POINT
  5
4C2
330
4B7
100
AcDbEntity
  8
Defpoints
 62
     0
100
AcDbPoint
 10
162.4210301554595
 20
85.30478509865906
 30
0.0
  0
POINT
  5
4C3
330
4B7
100
AcDbEntity
  8
Defpoints
 62
     0
100
AcDbPoint
 10
166.080247383329
 20
85.30478509865906
 30
0.0
  0
ENDBLK
  5
4C4
330
4B7
100
AcDbEntity
  8
0
100
AcDbBlockEnd
  0
BLOCK
  5
4C7
330
4C6
100
AcDbEntity
  8
0
100
AcDbBlockBegin
  2
*D46
 70
     1
 10
0.0
 20
0.0
 30
0.0
  3
*D46
  1

  0
LINE
  5
4C8
330
4C6
100
AcDbEntity
  8
Dimmention
370
    15
100
AcDbLine
 10
155.5360730404232
 20
53.45183927122517
 30
0.0
 11
160.3059872704959
 21
54.9511451898924
 31
0.0
  0
LINE
  5
4C9
330
4C6
100
AcDbEntity
  8
Dimmention
370
    15
100
AcDbLine
 10
162.2139529625249
 20
55.55086755735928
 30
0.0
 11
187.3620079890507
 21
63.45554381055569
 31
0.0
  0
INSERT
  5
4CA
330
4C6
100
AcDbEntity
  8
Dimmention
370
    15
100
AcDbBlockReference
  2
_Open30
 10
153.6281073483941
 20
52.85211690375827
 30
0.0
 41
2.0
 42
2.0
 43
2.0
 50
197.4492656906511
  0
INSERT
  5
4CB
330
4C6
100
AcDbEntity
  8
Dimmention
370
    15
100
AcDbBlockReference
  2
_Open30
 10
162.2139529625249
 20
55.55086755735928
 30
0.0
 41
2.0
 42
2.0
 43
2.0
 50
17.44926569065119
  0
MTEXT
  5
4CC
102
{ACAD_XDICTIONARY
360
1832
102
}
330
4C6
100
AcDbEntity
  8
Dimmention
100
AcDbMText
 10
180.1870122772906
 20
65.46459691621024
 30
0.0
 40
2.5
 41
0.0
 71
     5
 72
     1
  1
\A1;\U+22059.0\P(ネジ頭)
 11
0.9539828460145281
 21
0.2998611837334424
 31
0.0
 73
     1
 44
1.0
1001
ACAD
1000
MTEXTBEGIN
1070
    73
1070
     1
1070
    44
1040
1.0
1070
    74
1070
     0
1000
MTEXTEND
  0
POINT
  5
4CD
330
4C6
100
AcDbEntity
  8
Defpoints
 62
     0
100
AcDbPoint
 10
162.2139529625249
 20
55.55086755735928
 30
0.0
  0
POINT
  5
4CE
330
4C6
100
AcDbEntity
  8
Defpoints
 62
     0
100
AcDbPoint
 10
153.6281073483941
 20
52.85211690375827
 30
0.0
  0
ENDBLK
  5
4CF
330
4C6
100
AcDbEntity
  8
0
100
AcDbBlockEnd
  0
BLOCK
  5
4D6
330
4D5
100
AcDbEntity
  8
0
100
AcDbBlockBegin
  2
*D47
 70
     1
 10
0.0
 20
0.0
 30
0.0
  3
*D47
  1

  0
LINE
  5
4D7
330
4D5
100
AcDbEntity
  8
Dimmention
370
    15
100
AcDbLine
 10
100.2172495380787
 20
161.6635436617445
 30
0.0
 11
107.3886472113014
 21
161.6635436617445
 31
0.0
  0
LINE
  5
4D8
330
4D5
100
AcDbEntity
  8
Dimmention
370
    15
100
AcDbLine
 10
100.2172495380787
 20
166.6635436617445
 30
0.0
 11
107.3886472113014
 21
166.6635436617445
 31
0.0
  0
LINE
  5
4D9
330
4D5
100
AcDbEntity
  8
Dimmention
370
    15
100
AcDbLine
 10
106.8886472113014
 20
159.6635436617446
 30
0.0
 11
106.8886472113014
 21
157.6635436617445
 31
0.0
  0
LINE
  5
4DA
330
4D5
100
AcDbEntity
  8
Dimmention
370
    15
100
AcDbLine
 10
106.8886472113014
 20
168.6635436617445
 30
0.0
 11
106.8886472113014
 21
176.270142646516
 31
0.0
  0
LINE
  5
4DB
330
4D5
100
AcDbEntity
  8
Dimmention
370
    15
100
AcDbLine
 10
106.8886472113014
 20
161.6635436617445
 30
0.0
 11
106.8886472113014
 21
166.6635436617445
 31
0.0
  0
INSERT
  5
4DC
330
4D5
100
AcDbEntity
  8
Dimmention
370
    15
100
AcDbBlockReference
  2
_Open30
 10
106.8886472113014
 20
161.6635436617445
 30
0.0
 41
2.0
 42
2.0
 43
2.0
 50
90.0
  0
INSERT
  5
4DD
330
4D5
100
AcDbEntity
  8
Dimmention
370
    15
100
AcDbBlockReference
  2
_Open30
 10
106.8886472113014
 20
166.6635436617445
 30
0.0
 41
2.0
 42
2.0
 43
2.0
 50
270.0
  0
MTEXT
  5
4DE
330
4D5
100
AcDbEntity
  8
Dimmention
100
AcDbMText
 10
105.1386472113014
 20
173.4668431541303
 30
0.0
 40
2.5
 41
0.0
 71
     5
 72
     1
  1
\A1;5.0
 11
0.0000000000000001
 21
1.0
 31
0.0
 73
     1
 44
1.0
1001
ACAD
1000
MTEXTBEGIN
1070
    73
1070
     1
1070
    44
1040
1.0
1070
    74
1070
     0
1000
MTEXTEND
  0
POINT
  5
4DF
330
4D5
100
AcDbEntity
  8
Defpoints
 62
     0
100
AcDbPoint
 10
99.91724953807873
 20
161.6635436617445
 30
0.0
  0
POINT
  5
4E0
330
4D5
100
AcDbEntity
  8
Defpoints
 62
     0
100
AcDbPoint
 10
99.91724953807873
 20
166.6635436617445
 30
0.0
  0
POINT
  5
4E1
330
4D5
100
AcDbEntity
  8
Defpoints
 62
     0
100
AcDbPoint
 10
106.8886472113014
 20
166.6635436617445
 30
0.0
  0
ENDBLK
  5
4E2
330
4D5
100
AcDbEntity
  8
0
100
AcDbBlockEnd
  0
ENDSEC
  0
SECTION
  2
ENTITIES
  0
LWPOLYLINE
  5
3E
330
2
100
AcDbEntity
  8
Title
100
AcDbPolyline
 90
        4
 70
     1
 43
0.0
 10
0.0
 20
0.0
 10
210.0
 20
0.0
 10
210.0
 20
297.0
 10
0.0
 20
297.0
  0
ELLIPSE
  5
40
330
2
100
AcDbEntity
  8
Title
  6
Continuous
100
AcDbEllipse
 10
54.0263702246173
 20
286.667601854938
 30
0.0
 11
0.8689064294734992
 21
1.231830042267542
 31
0.0
210
0.0
220
0.0
230
1.0
 40
0.8395560122375147
 41
0.0
 42
6.283185307179584
  0
ELLIPSE
  5
41
330
2
100
AcDbEntity
  8
Title
  6
Continuous
100
AcDbEllipse
 10
53.99236059616293
 20
286.6193871328052
 30
0.0
 11
1.551775802911215
 21
2.191120744445877
 31
0.0
210
0.0
220
0.0
230
1.0
 40
0.8609347890889099
 41
0.0
 42
6.283185307179584
  0
LWPOLYLINE
  5
42
330
2
100
AcDbEntity
  8
Title
  6
Continuous
100
AcDbPolyline
 90
       14
 70
     0
 43
0.0
 10
65.52358003411621
 20
287.0456277775991
 42
0.4292409730472437
 10
64.53560329263533
 20
287.9572766606465
 10
62.42165845494461
 20
287.9572766606465
 10
62.57050081596858
 20
288.8503308267901
 10
64.88930812455226
 20
288.8503308267901
 42
-0.3930573527614118
 10
66.42199976947992
 20
286.992317561796
 42
-0.3356983166534925
 10
64.16076393638238
 20
284.3850599960715
 10
61.71661569219957
 20
284.3850599960715
 10
62.27955573301713
 20
287.3404953013001
 10
63.43758481000097
 20
287.3404953013001
 10
63.10172939062546
 20
285.4932904947346
 42
0.467928038011416
 10
63.34769686815045
 20
285.1985691351846
 10
63.87089438499408
 20
285.1985691351846
 42
0.3336014498526429
 10
65.52400035279588
 20
287.0522929537088
  0
LWPOLYLINE
  5
43
330
2
100
AcDbEntity
  8
Title
100
AcDbPolyline
 90
       13
 70
     1
 43
0.0
 10
59.71898451413633
 20
286.6675400699486
 42
0.7303512939853354
 10
60.19159524859393
 20
286.7266375025973
 10
60.58854727180753
 20
288.8503308267901
 10
61.76361854304927
 20
288.8503308267901
 10
60.91756722775522
 20
284.3850599960715
 10
59.67061007844111
 20
284.3850599960715
 10
58.63617157546485
 20
286.5831577089448
 42
0.7285881840456191
 10
58.16414796791209
 20
286.5222274303289
 10
57.76837622082739
 20
284.3850599960715
 10
56.59330494958565
 20
284.3850599960715
 10
56.68731065128501
 20
284.6670771011696
 10
57.45664466978995
 20
288.8503308267901
 10
58.70843323782078
 20
288.8503308267901
  0
LWPOLYLINE
  5
44
330
2
100
AcDbEntity
  8
Title
  6
Continuous
100
AcDbPolyline
 90
        4
 70
     1
 43
0.0
 10
47.61576043729886
 20
284.3850599960715
 10
46.44068916605712
 20
284.3850599960715
 10
47.28674048135117
 20
288.8503308267901
 10
48.4618117525929
 20
288.8503308267901
  0
LWPOLYLINE
  5
45
330
2
100
AcDbEntity
  8
Title
  6
Continuous
100
AcDbPolyline
 90
        7
 70
     1
 43
0.0
 10
49.58988017298496
 20
284.3850599960715
 10
51.37598850527236
 20
284.3850599960715
 10
49.68388587468432
 20
286.7822053894047
 10
52.03402841716777
 20
288.8503308267901
 10
50.43593148827898
 20
288.8503308267901
 10
48.77891076368586
 20
287.405748656632
 10
48.53796242673269
 20
285.8998215506748
  0
ELLIPSE
  5
46
330
2
100
AcDbEntity
  8
Title
  6
Continuous
100
AcDbEllipse
 10
69.36781549993267
 20
286.6007887453921
 30
0.0
 11
1.551775802911215
 21
2.191120744445877
 31
0.0
210
0.0
220
0.0
230
1.0
 40
0.8609347890889099
 41
0.0
 42
6.283185307179584
  0
ELLIPSE
  5
47
330
2
100
AcDbEntity
  8
Title
  6
Continuous
100
AcDbEllipse
 10
69.40182512838706
 20
286.6490034675248
 30
0.0
 11
0.8689064294735002
 21
1.231830042267543
 31
0.0
210
0.0
220
0.0
230
1.0
 40
0.8395560122375151
 41
0.0
 42
6.283185307179584
  0
LWPOLYLINE
  5
48
330
2
100
AcDbEntity
  8
Title
100
AcDbPolyline
 90
        6
 70
     0
 43
0.0
 10
45.40001799999996
 20
287.0
 10
10.0
 20
287.0
 10
10.0
 20
10.0
 10
200.0
 20
10.0
 10
200.0
 20
287.0
 10
72.78867726088917
 20
287.0
  0
LWPOLYLINE
  5
49
330
2
100
AcDbEntity
  8
Title
100
AcDbPolyline
 90
        6
 70
     0
 43
0.0
 10
45.40001799999997
 20
286.7
 10
10.29999999999994
 20
286.7
 10
10.3
 20
10.3
 10
199.7
 20
10.3
 10
199.7
 20
286.6999999999999
 10
72.78867726088917
 20
286.7
  0
LWPOLYLINE
  5
4A
330
2
100
AcDbEntity
  8
Title
100
AcDbPolyline
 90
        6
 70
     0
 43
0.0
 10
45.40001799999996
 20
286.4
 10
10.60000000000002
 20
286.4
 10
10.6
 20
10.6
 10
199.4
 20
10.6
 10
199.3999999999999
 20
286.3999999999998
 10
72.78867726088913
 20
286.3999999999998
  0
LINE
  5
4B
330
2
100
AcDbEntity
  8
Title
100
AcDbLine
 10
205.0
 20
148.5
 30
0.0
 11
200.0
 21
148.5
 31
0.0
  0
LINE
  5
4C
330
2
100
AcDbEntity
  8
Title
100
AcDbLine
 10
10.0
 20
148.5
 30
0.0
 11
5.0
 21
148.5
 31
0.0
  0
LINE
  5
4D
330
2
100
AcDbEntity
  8
Title
100
AcDbLine
 10
105.0
 20
292.0
 30
0.0
 11
105.0
 21
287.0
 31
0.0
  0
LINE
  5
4E
330
2
100
AcDbEntity
  8
Title
100
AcDbLine
 10
105.0
 20
10.0
 30
0.0
 11
105.0
 21
5.0
 31
0.0
  0
LINE
  5
4F
330
2
100
AcDbEntity
  8
Title
100
AcDbLine
 10
82.60000000000003
 20
16.79998823931625
 30
0.0
 11
10.6
 21
16.79998331623932
 31
0.0
  0
LINE
  5
50
330
2
100
AcDbEntity
  8
Title
100
AcDbLine
 10
32.60000000000004
 20
10.80000200000001
 30
0.0
 11
32.60000000000004
 21
20.79998578357002
 31
0.0
  0
LINE
  5
51
330
2
100
AcDbEntity
  8
Title
100
AcDbLine
 10
82.60000000000003
 20
20.79998983713002
 30
0.0
 11
82.60000000000003
 21
10.80000400000002
 31
0.0
  0
LINE
  5
52
330
2
100
AcDbEntity
  8
Title
100
AcDbLine
 10
154.6
 20
20.79998983713002
 30
0.0
 11
154.6
 21
10.80000400000002
 31
0.0
  0
LINE
  5
53
330
2
100
AcDbEntity
  8
Title
100
AcDbLine
 10
54.6
 20
10.80000000000002
 30
0.0
 11
54.6
 21
20.79998756714002
 31
0.0
  0
TEXT
  5
54
330
2
100
AcDbEntity
  8
Title
100
AcDbText
 10
15.69532350102842
 20
17.29998475214
 30
0.0
 40
3.0
  1
尺  度
 72
     1
 11
21.54303923706903
 21
17.29998475214
 31
0.0
100
AcDbText
  0
TEXT
  5
55
330
2
100
AcDbEntity
  8
Title
100
AcDbText
 10
37.83178994102231
 20
17.29998625641002
 30
0.0
 40
3.0
  1
単  位
 72
     1
 11
43.67950567706292
 21
17.29998625641002
 31
0.0
100
AcDbText
  0
TEXT
  5
56
330
2
100
AcDbEntity
  8
Title
100
AcDbText
 10
62.83178994102242
 20
17.29998796581002
 30
0.0
 40
3.0
  1
日  付
 72
     1
 11
68.67950567706303
 21
17.29998796581002
 31
0.0
100
AcDbText
  0
LINE
  5
57
330
2
100
AcDbEntity
  8
Title
100
AcDbLine
 10
154.6
 20
20.79999567426567
 30
0.0
 11
10.6
 21
20.79998400000002
 31
0.0
  0
LINE
  5
58
330
2
100
AcDbEntity
  8
Title
100
AcDbLine
 10
105.6
 20
20.79999170177002
 30
0.0
 11
105.6
 21
30.80000700000003
 31
0.0
  0
LINE
  5
59
330
2
100
AcDbEntity
  8
Title
100
AcDbLine
 10
154.6
 20
20.79999567427002
 30
0.0
 11
154.6
 21
30.80001100000002
 31
0.0
  0
LINE
  5
5A
330
2
100
AcDbEntity
  8
Title
100
AcDbLine
 10
199.4
 20
30.79999900000002
 30
0.0
 11
10.6
 21
30.79999900000002
 31
0.0
  0
LINE
  5
5B
330
2
100
AcDbEntity
  8
Title
100
AcDbLine
 10
154.6
 20
26.79999567426567
 30
0.0
 11
10.6
 21
26.79998400000004
 31
0.0
  0
MTEXT
  5
5C
330
2
100
AcDbEntity
  8
Title
100
AcDbMText
 10
158.6209827232793
 20
21.91593781674534
 30
0.0
 40
3.0
 41
40.40002499999999
 71
     1
 72
     5
  1
＊禁転載・再配布＊
 73
     1
 44
1.0
1001
ACAD
1000
MTEXTBEGIN
1070
    73
1070
     1
1070
    44
1040
1.0
1070
    74
1070
     0
1000
MTEXTEND
  0
MTEXT
  5
5D
330
2
100
AcDbEntity
  8
Title
100
AcDbMText
 10
58.10000016214321
 20
23.79998785088504
 30
0.0
 40
4.0
 41
94.99999967571364
 71
     5
 72
     5
  1
6000サーボ Bタイプ 寸法図
 73
     1
 44
1.0
1001
ACAD
1000
MTEXTBEGIN
1070
    73
1070
     1
1070
    44
1040
1.0
1070
    74
1070
     0
1000
MTEXTEND
  0
MTEXT
  5
5E
330
2
100
AcDbEntity
  8
Title
100
AcDbMText
 10
21.60000000000001
 20
13.79999265811967
 30
0.0
 40
3.0
 41
22.00000000000003
 71
     5
 72
     5
  1
1:1
 73
     1
 44
1.0
1001
ACAD
1000
MTEXTBEGIN
1070
    73
1070
     1
1070
    44
1040
1.0
1070
    74
1070
     0
1000
MTEXTEND
  0
MTEXT
  5
5F
330
2
100
AcDbEntity
  8
Title
100
AcDbMText
 10
43.60000000000001
 20
13.79999265811967
 30
0.0
 40
3.0
 41
22.00000000000003
 71
     5
 72
     5
  1
mm
 73
     1
 44
1.0
1001
ACAD
1000
MTEXTBEGIN
1070
    73
1070
     1
1070
    44
1040
1.0
1070
    74
1070
     0
1000
MTEXTEND
  0
MTEXT
  5
60
330
2
100
AcDbEntity
  8
Title
100
AcDbMText
 10
67.6406594098063
 20
13.79999265811967
 30
0.0
 40
3.0
 41
28.0
 71
     5
 72
     5
  1
2010/7/1
 73
     1
 44
1.0
1001
ACAD
1000
MTEXTBEGIN
1070
    73
1070
     1
1070
    44
1040
1.0
1070
    74
1070
     0
1000
MTEXTEND
  0
MTEXT
  5
61
330
2
100
AcDbEntity
  8
Title
100
AcDbMText
 10
58.10000000000004
 20
28.79999535088627
 30
0.0
 40
3.0
 41
95.00000000000005
 71
     5
 72
     5
  1
名称
 73
     1
 44
1.0
1001
ACAD
1000
MTEXTBEGIN
1070
    73
1070
     1
1070
    44
1040
1.0
1070
    74
1070
     0
1000
MTEXTEND
  0
MTEXT
  5
62
330
2
100
AcDbEntity
  8
Title
100
AcDbMText
 10
130.1
 20
28.79999733713284
 30
0.0
 40
3.0
 41
48.99999999999997
 71
     5
 72
     5
  1
図面用途
 73
     1
 44
1.0
1001
ACAD
1000
MTEXTBEGIN
1070
    73
1070
     1
1070
    44
1040
1.0
1070
    74
1070
     0
1000
MTEXTEND
  0
MTEXT
  5
63
330
2
100
AcDbEntity
  8
Title
100
AcDbMText
 10
130.1
 20
23.98849386493451
 30
0.0
 40
4.0
 41
48.99999999999997
 71
     5
 72
     5
  1
参考図
 73
     1
 44
1.0
1001
ACAD
1000
MTEXTBEGIN
1070
    73
1070
     1
1070
    44
1040
1.0
1070
    74
1070
     0
1000
MTEXTEND
  0
MTEXT
  5
64
330
2
100
AcDbEntity
  8
Title
100
AcDbMText
 10
118.6
 20
15.79999691856502
 30
0.0
 40
5.0
 41
71.99999999999997
 71
     5
 72
     5
  1
近藤科学株式会社
 73
     1
 44
1.0
1001
ACAD
1000
MTEXTBEGIN
1070
    73
1070
     1
1070
    44
1040
1.0
1070
    74
1070
     0
1000
MTEXTEND
  0
CIRCLE
  5
65
330
2
100
AcDbEntity
  8
Visible
100
AcDbCircle
 10
61.41724953807877
 20
236.5393393868973
 30
0.0
 40
1.85
  0
ARC
  5
67
330
2
100
AcDbEntity
  8
Visible
100
AcDbCircle
 10
99.41724953807863
 20
232.83729835803
 30
0.0
 40
1.999999999999995
100
AcDbArc
 50
0.0
 51
44.41530859719256
  0
ARC
  5
68
330
2
100
AcDbEntity
  8
Visible
100
AcDbCircle
 10
89.41724953807872
 20
223.0393393868974
 30
0.0
 40
15.99999999999998
100
AcDbArc
 50
44.41530859719256
 51
90.0
  0
LINE
  5
69
330
2
100
AcDbEntity
  8
Visible
100
AcDbLine
 10
61.41724953807877
 20
239.0393393868973
 30
0.0
 11
60.41724953807875
 21
239.0393393868973
 31
0.0
  0
LINE
  5
6A
330
2
100
AcDbEntity
  8
Visible
100
AcDbLine
 10
88.41724953807876
 20
239.0393393868973
 30
0.0
 11
61.41724953807877
 21
239.0393393868973
 31
0.0
  0
LINE
  5
6B
330
2
100
AcDbEntity
  8
Visible
100
AcDbLine
 10
89.41724953807872
 20
239.0393393868973
 30
0.0
 11
88.41724953807876
 21
239.0393393868973
 31
0.0
  0
ARC
  5
6C
330
2
100
AcDbEntity
  8
Visible
100
AcDbCircle
 10
60.41724953807875
 20
237.0393393868973
 30
0.0
 40
2.0
100
AcDbArc
 50
90.0
 51
180.0
  0
LINE
  5
6D
330
2
100
AcDbEntity
  8
Visible
100
AcDbLine
 10
58.41724953807872
 20
237.0393393868973
 30
0.0
 11
58.41724953807872
 21
209.0393393868973
 31
0.0
  0
LINE
  5
6E
330
2
100
AcDbEntity
  8
Visible
100
AcDbLine
 10
88.41724953807876
 20
207.0393393868974
 30
0.0
 11
89.41724953807872
 21
207.0393393868974
 31
0.0
  0
LINE
  5
6F
330
2
100
AcDbEntity
  8
Visible
100
AcDbLine
 10
61.41724953807877
 20
207.0393393868973
 30
0.0
 11
88.41724953807876
 21
207.0393393868974
 31
0.0
  0
LINE
  5
70
330
2
100
AcDbEntity
  8
Visible
100
AcDbLine
 10
60.41724953807875
 20
207.0393393868973
 30
0.0
 11
61.41724953807877
 21
207.0393393868973
 31
0.0
  0
ARC
  5
71
330
2
100
AcDbEntity
  8
Visible
100
AcDbCircle
 10
60.41724953807875
 20
209.0393393868973
 30
0.0
 40
2.0
100
AcDbArc
 50
180.0
 51
270.0
  0
ARC
  5
72
330
2
100
AcDbEntity
  8
Visible
100
AcDbCircle
 10
89.41724953807872
 20
223.0393393868974
 30
0.0
 40
15.99999999999997
100
AcDbArc
 50
270.0
 51
315.5846914028074
  0
ARC
  5
73
330
2
100
AcDbEntity
  8
Visible
100
AcDbCircle
 10
99.41724953807863
 20
213.2413804157646
 30
0.0
 40
1.999999999999985
100
AcDbArc
 50
315.5846914028073
 51
0.0
  0
LINE
  5
74
330
2
100
AcDbEntity
  8
Visible
100
AcDbLine
 10
101.4172495380786
 20
213.2413804157646
 30
0.0
 11
101.4172495380786
 21
232.83729835803
 31
0.0
  0
CIRCLE
  5
75
330
2
100
AcDbEntity
  8
Visible
100
AcDbCircle
 10
61.41724953807877
 20
236.5393393868973
 30
0.0
 40
2.049999999999998
  0
LINE
  5
76
330
2
100
AcDbEntity
  8
Visible
100
AcDbLine
 10
101.4172495380762
 20
152.163543661743
 30
0.0
 11
58.41724953807625
 21
152.163543661743
 31
0.0
  0
LINE
  5
77
330
2
100
AcDbEntity
  8
Visible
100
AcDbLine
 10
101.4172495380762
 20
152.1635436617448
 30
0.0
 11
101.4172495380762
 21
121.6635436617433
 31
0.0
  0
LINE
  5
78
330
2
100
AcDbEntity
  8
Visible
100
AcDbLine
 10
58.41724953807625
 20
152.1635436617436
 30
0.0
 11
58.41724953807625
 21
121.6635436617433
 31
0.0
  0
LINE
  5
79
330
2
100
AcDbEntity
  8
Visible
100
AcDbLine
 10
58.41724953807625
 20
161.1635436617433
 30
0.0
 11
58.41724953807625
 21
152.1635436617436
 31
0.0
  0
LINE
  5
7A
330
2
100
AcDbEntity
  8
Visible
100
AcDbLine
 10
101.4172495380762
 20
161.1635436617433
 30
0.0
 11
101.4172495380762
 21
152.1635436617448
 31
0.0
  0
LINE
  5
7B
330
2
100
AcDbEntity
  8
Visible
100
AcDbLine
 10
101.4172495380762
 20
161.1635436617433
 30
0.0
 11
58.41724953807625
 21
161.1635436617433
 31
0.0
  0
LINE
  5
7C
330
2
100
AcDbEntity
  8
Visible
100
AcDbLine
 10
101.4172495380762
 20
121.6635436617433
 30
0.0
 11
58.41724953807625
 21
121.6635436617433
 31
0.0
  0
LINE
  5
7D
330
2
100
AcDbEntity
  8
Visible
100
AcDbLine
 10
101.4172495380762
 20
140.8635436617433
 30
0.0
 11
58.41724953807625
 21
140.8635436617433
 31
0.0
  0
LINE
  5
7E
330
2
100
AcDbEntity
  8
Visible
100
AcDbLine
 10
78.91724953807873
 20
166.6635436617418
 30
0.0
 11
99.91724953807873
 21
166.6635436617445
 31
0.0
  0
LINE
  5
7F
330
2
100
AcDbEntity
  8
Visible
100
AcDbLine
 10
78.91724953807941
 20
161.6635436617418
 30
0.0
 11
99.91724953807942
 21
161.6635436617445
 31
0.0
  0
LINE
  5
80
330
2
100
AcDbEntity
  8
Visible
100
AcDbLine
 10
147.6378519083041
 20
152.1635436617434
 30
0.0
 11
147.6378519083041
 21
121.6635436617433
 31
0.0
  0
LINE
  5
81
330
2
100
AcDbEntity
  8
Visible
100
AcDbLine
 10
179.6378519083041
 20
152.1635436617434
 30
0.0
 11
179.6378519083041
 21
121.6635436617433
 31
0.0
  0
LINE
  5
82
330
2
100
AcDbEntity
  8
Visible
100
AcDbLine
 10
179.6378519083041
 20
159.1635436617435
 30
0.0
 11
179.6378519083041
 21
152.1635436617434
 31
0.0
  0
LINE
  5
83
330
2
100
AcDbEntity
  8
Visible
100
AcDbLine
 10
147.6378519083041
 20
159.1635436617435
 30
0.0
 11
147.6378519083041
 21
152.1635436617434
 31
0.0
  0
LINE
  5
84
330
2
100
AcDbEntity
  8
Visible
100
AcDbLine
 10
148.6729730047928
 20
161.1635436617431
 30
0.0
 11
153.1400387249474
 21
161.1635436617404
 31
0.0
  0
LINE
  5
85
330
2
100
AcDbEntity
  8
Visible
100
AcDbLine
 10
153.1400387249474
 20
161.1635436617403
 30
0.0
 11
153.8398929371714
 21
161.1635436617402
 31
0.0
  0
LINE
  5
86
330
2
100
AcDbEntity
  8
Visible
100
AcDbLine
 10
179.6378519083041
 20
161.1635436617402
 30
0.0
 11
169.6378519083041
 21
161.1635436617402
 31
0.0
  0
LINE
  5
87
330
2
100
AcDbEntity
  8
Visible
100
AcDbLine
 10
163.6378519083041
 20
161.1635436617402
 30
0.0
 11
153.8398929371714
 21
161.1635436617402
 31
0.0
  0
LINE
  5
88
330
2
100
AcDbEntity
  8
Visible
100
AcDbLine
 10
147.6378519083041
 20
161.1635436617438
 30
0.0
 11
148.6729730047928
 21
161.1635436617431
 31
0.0
  0
LINE
  5
89
330
2
100
AcDbEntity
  8
Visible
100
AcDbLine
 10
147.6378519083041
 20
121.6635436617439
 30
0.0
 11
163.637851908304
 21
121.6635436617436
 31
0.0
  0
LINE
  5
8A
330
2
100
AcDbEntity
  8
Visible
100
AcDbLine
 10
147.6378519083041
 20
161.1635436617438
 30
0.0
 11
147.6378519083041
 21
159.1635436617438
 31
0.0
  0
LINE
  5
8B
330
2
100
AcDbEntity
  8
Visible
100
AcDbLine
 10
179.6378519083041
 20
161.1635436617438
 30
0.0
 11
179.6378519083041
 21
159.1635436617438
 31
0.0
  0
LINE
  5
8C
330
2
100
AcDbEntity
  8
Visible
100
AcDbLine
 10
61.4172495380794
 20
79.6803304708415
 30
0.0
 11
60.41724953807939
 21
79.68033047084151
 31
0.0
  0
LINE
  5
8D
330
2
100
AcDbEntity
  8
Visible
100
AcDbLine
 10
88.41724953807942
 20
79.6803304708404
 30
0.0
 11
61.4172495380794
 21
79.6803304708415
 31
0.0
  0
LINE
  5
8E
330
2
100
AcDbEntity
  8
Visible
100
AcDbLine
 10
89.41724953807939
 20
79.68033047084039
 30
0.0
 11
88.41724953807942
 21
79.6803304708404
 31
0.0
  0
ARC
  5
8F
330
2
100
AcDbEntity
  8
Visible
100
AcDbCircle
 10
60.41724953807928
 20
77.68033047084156
 30
0.0
 40
2.0
100
AcDbArc
 50
89.99999999999765
 51
179.9999999999976
  0
LINE
  5
90
330
2
100
AcDbEntity
  8
Visible
100
AcDbLine
 10
58.41724953807929
 20
77.68033047084163
 30
0.0
 11
58.41724953807915
 21
74.18033047084222
 31
0.0
  0
LINE
  5
91
330
2
100
AcDbEntity
  8
Visible
100
AcDbLine
 10
58.41724953807901
 20
70.18033047084213
 30
0.0
 11
58.41724953807847
 21
57.18033047084232
 31
0.0
  0
LINE
  5
92
330
2
100
AcDbEntity
  8
Visible
100
AcDbLine
 10
58.41724953807831
 20
53.18033047084224
 30
0.0
 11
58.41724953807818
 21
49.68033047084161
 31
0.0
  0
ARC
  5
93
330
2
100
AcDbEntity
  8
Visible
100
AcDbCircle
 10
60.41724953807818
 20
49.68033047084153
 30
0.0
 40
2.0
100
AcDbArc
 50
179.9999999999976
 51
269.9999999999977
  0
LINE
  5
94
330
2
100
AcDbEntity
  8
Visible
100
AcDbLine
 10
88.41724953807803
 20
47.68033047084038
 30
0.0
 11
89.41724953807804
 21
47.68033047084036
 31
0.0
  0
LINE
  5
95
330
2
100
AcDbEntity
  8
Visible
100
AcDbLine
 10
61.41724953807809
 20
47.68033047084149
 30
0.0
 11
88.41724953807803
 21
47.68033047084038
 31
0.0
  0
LINE
  5
96
330
2
100
AcDbEntity
  8
Visible
100
AcDbLine
 10
60.41724953807809
 20
47.68033047084153
 30
0.0
 11
61.41724953807809
 21
47.68033047084149
 31
0.0
  0
LINE
  5
97
330
2
100
AcDbEntity
  8
Visible
100
AcDbLine
 10
101.4172495380782
 20
53.88237149970713
 30
0.0
 11
101.417249538079
 21
73.47828944197257
 31
0.0
  0
ARC
  5
98
330
2
100
AcDbEntity
  8
Visible
100
AcDbCircle
 10
99.41724953807902
 20
73.47828944197266
 30
0.0
 40
1.999999999999985
100
AcDbArc
 50
359.9999999999976
 51
44.41530859719045
  0
ARC
  5
99
330
2
100
AcDbEntity
  8
Visible
100
AcDbCircle
 10
89.41724953807872
 20
63.68033047084036
 30
0.0
 40
15.99999999999998
100
AcDbArc
 50
44.41530859719016
 51
89.99999999999765
  0
ARC
  5
9A
330
2
100
AcDbEntity
  8
Visible
100
AcDbCircle
 10
89.41724953807872
 20
63.68033047084029
 30
0.0
 40
16.0
100
AcDbArc
 50
269.9999999999977
 51
315.5846914028052
  0
ARC
  5
9B
330
2
100
AcDbEntity
  8
Visible
100
AcDbCircle
 10
99.4172495380782
 20
53.88237149970722
 30
0.0
 40
1.999999999999995
100
AcDbArc
 50
315.5846914028048
 51
359.9999999999976
  0
LINE
  5
9C
330
2
100
AcDbEntity
  8
Visible
100
AcDbLine
 10
61.16724953807874
 20
235.5393393868974
 30
0.0
 11
61.66724953807875
 21
235.5393393868974
 31
0.0
  0
LINE
  5
9D
330
2
100
AcDbEntity
  8
Visible
100
AcDbLine
 10
61.66724953807875
 20
237.5393393868974
 30
0.0
 11
61.16724953807874
 21
237.5393393868974
 31
0.0
  0
LINE
  5
9E
330
2
100
AcDbEntity
  8
Visible
100
AcDbLine
 10
60.41724953807875
 20
236.7893393868973
 30
0.0
 11
61.16724953807874
 21
236.7893393868973
 31
0.0
  0
LINE
  5
9F
330
2
100
AcDbEntity
  8
Visible
100
AcDbLine
 10
61.66724953807875
 20
236.7893393868973
 30
0.0
 11
62.41724953807878
 21
236.7893393868973
 31
0.0
  0
LINE
  5
A0
330
2
100
AcDbEntity
  8
Visible
100
AcDbLine
 10
60.41724953807875
 20
236.2893393868974
 30
0.0
 11
61.16724953807874
 21
236.2893393868974
 31
0.0
  0
LINE
  5
A1
330
2
100
AcDbEntity
  8
Visible
100
AcDbLine
 10
61.66724953807875
 20
236.2893393868974
 30
0.0
 11
62.41724953807878
 21
236.2893393868974
 31
0.0
  0
LINE
  5
A2
330
2
100
AcDbEntity
  8
Visible
100
AcDbLine
 10
60.41724953807875
 20
236.7893393868973
 30
0.0
 11
60.41724953807875
 21
236.2893393868974
 31
0.0
  0
LINE
  5
A3
330
2
100
AcDbEntity
  8
Visible
100
AcDbLine
 10
62.41724953807878
 20
236.2893393868974
 30
0.0
 11
62.41724953807878
 21
236.7893393868973
 31
0.0
  0
LINE
  5
A4
330
2
100
AcDbEntity
  8
Visible
100
AcDbLine
 10
61.16724953807874
 20
237.5393393868974
 30
0.0
 11
61.16724953807874
 21
236.7893393868973
 31
0.0
  0
LINE
  5
A5
330
2
100
AcDbEntity
  8
Visible
100
AcDbLine
 10
61.16724953807874
 20
236.2893393868974
 30
0.0
 11
61.16724953807874
 21
235.5393393868974
 31
0.0
  0
LINE
  5
A6
330
2
100
AcDbEntity
  8
Visible
100
AcDbLine
 10
61.66724953807875
 20
237.5393393868974
 30
0.0
 11
61.66724953807875
 21
236.7893393868973
 31
0.0
  0
LINE
  5
A7
330
2
100
AcDbEntity
  8
Visible
100
AcDbLine
 10
61.66724953807875
 20
236.2893393868974
 30
0.0
 11
61.66724953807875
 21
235.5393393868974
 31
0.0
  0
CIRCLE
  5
A8
330
2
100
AcDbEntity
  8
Visible
100
AcDbCircle
 10
96.91724953807913
 20
74.68033047084124
 30
0.0
 40
2.04
  0
LINE
  5
A9
330
2
100
AcDbEntity
  8
Visible
100
AcDbLine
 10
97.21724953807914
 20
75.88033047084119
 30
0.0
 11
96.61724953807912
 21
75.8803304708412
 31
0.0
  0
LINE
  5
AA
330
2
100
AcDbEntity
  8
Visible
100
AcDbLine
 10
95.71724953807914
 20
74.98033047084125
 30
0.0
 11
96.61724953807912
 21
74.98033047084124
 31
0.0
  0
LINE
  5
AB
330
2
100
AcDbEntity
  8
Visible
100
AcDbLine
 10
97.21724953807914
 20
74.9803304708412
 30
0.0
 11
98.1172495380791
 21
74.98033047084115
 31
0.0
  0
LINE
  5
AC
330
2
100
AcDbEntity
  8
Visible
100
AcDbLine
 10
95.71724953807914
 20
74.38033047084123
 30
0.0
 11
96.61724953807912
 21
74.3803304708412
 31
0.0
  0
LINE
  5
AD
330
2
100
AcDbEntity
  8
Visible
100
AcDbLine
 10
97.21724953807914
 20
74.38033047084118
 30
0.0
 11
98.1172495380791
 21
74.38033047084116
 31
0.0
  0
LINE
  5
AE
330
2
100
AcDbEntity
  8
Visible
100
AcDbLine
 10
98.1172495380791
 20
74.38033047084116
 30
0.0
 11
98.1172495380791
 21
74.98033047084115
 31
0.0
  0
LINE
  5
AF
330
2
100
AcDbEntity
  8
Visible
100
AcDbLine
 10
96.61724953807912
 20
75.8803304708412
 30
0.0
 11
96.61724953807912
 21
74.98033047084124
 31
0.0
  0
LINE
  5
B0
330
2
100
AcDbEntity
  8
Visible
100
AcDbLine
 10
96.61724953807912
 20
74.3803304708412
 30
0.0
 11
96.61724953807912
 21
73.48033047084124
 31
0.0
  0
LINE
  5
B1
330
2
100
AcDbEntity
  8
Visible
100
AcDbLine
 10
97.21724953807914
 20
75.88033047084119
 30
0.0
 11
97.21724953807914
 21
74.9803304708412
 31
0.0
  0
LINE
  5
B2
330
2
100
AcDbEntity
  8
Visible
100
AcDbLine
 10
97.21724953807914
 20
74.38033047084118
 30
0.0
 11
97.217249538079
 21
73.48033047084121
 31
0.0
  0
LINE
  5
B3
330
2
100
AcDbEntity
  8
Visible
100
AcDbLine
 10
97.217249538079
 20
73.48033047084121
 30
0.0
 11
96.61724953807912
 21
73.48033047084124
 31
0.0
  0
LINE
  5
B4
330
2
100
AcDbEntity
  8
Visible
100
AcDbLine
 10
95.71724953807914
 20
74.98033047084125
 30
0.0
 11
95.71724953807914
 21
74.38033047084123
 31
0.0
  0
LINE
  5
B5
330
2
100
AcDbEntity
  8
Center
100
AcDbLine
 10
163.637851908304
 20
121.6635436617436
 30
0.0
 11
163.6378519083041
 21
167.6635436617438
 31
0.0
  0
LINE
  5
B8
330
2
100
AcDbEntity
  8
Center
100
AcDbLine
 10
79.91724953807622
 20
239.0393393868974
 30
0.0
 11
79.91724953807622
 21
207.0393393868974
 31
0.0
  0
LINE
  5
B9
330
2
100
AcDbEntity
  8
Center
100
AcDbLine
 10
79.91724953807623
 20
161.1635436617433
 30
0.0
 11
79.91724953807623
 21
121.6635436617433
 31
0.0
  0
LINE
  5
BA
330
2
100
AcDbEntity
  8
Center
100
AcDbLine
 10
79.91724953807558
 20
47.68033047084073
 30
0.0
 11
79.91724953807693
 21
79.68033047084077
 31
0.0
  0
LINE
  5
BB
330
2
100
AcDbEntity
  8
Center
100
AcDbLine
 10
56.41724953807585
 20
54.18033047084232
 30
0.0
 11
56.41724953807593
 21
56.18033047084232
 31
0.0
  0
LINE
  5
BC
330
2
100
AcDbEntity
  8
Center
100
AcDbLine
 10
56.41724953807656
 20
71.18033047084222
 30
0.0
 11
56.41724953807663
 21
73.18033047084222
 31
0.0
  0
LINE
  5
BD
330
2
100
AcDbEntity
  8
Center
100
AcDbLine
 10
101.4172495380786
 20
223.0393393868973
 30
0.0
 11
49.91724953807556
 21
223.0393393868975
 31
0.0
  0
LINE
  5
BE
330
2
100
AcDbEntity
  8
Center
100
AcDbLine
 10
49.91724953807558
 20
63.68033047084276
 30
0.0
 11
101.4172495380786
 21
63.68033047084067
 31
0.0
  0
LINE
  5
BF
330
2
100
AcDbEntity
  8
Center
100
AcDbLine
 10
55.41724953807589
 20
55.18033047084235
 30
0.0
 11
57.41724953807589
 21
55.18033047084228
 31
0.0
  0
LINE
  5
C0
330
2
100
AcDbEntity
  8
Center
100
AcDbLine
 10
55.41724953807662
 20
72.18033047084225
 30
0.0
 11
57.41724953807661
 21
72.18033047084219
 31
0.0
  0
DIMENSION
  5
C1
330
2
100
AcDbEntity
  8
Dimmention
100
AcDbDimension
  2
*D1
 10
41.91724953807557
 20
236.5393393868973
 30
0.0
 11
41.91724953807553
 21
223.0393393868974
 31
0.0
 70
   128
  1
27.0
 71
     5
 42
27.0
  3
Standard
100
AcDbAlignedDimension
 13
61.41724953807877
 23
209.5393393868973
 33
0.0
 14
61.41724953807877
 24
236.5393393868973
 34
0.0
 50
90.0
100
AcDbRotatedDimension
1001
ACAD
1000
DSTYLE
1002
{
1070
    40
1040
1.0
1002
}
  0
DIMENSION
  5
CF
330
2
100
AcDbEntity
  8
Dimmention
100
AcDbDimension
  2
*D2
 10
88.41724953807876
 20
189.0393393868973
 30
0.0
 11
74.91724953807876
 21
190.7893393868973
 31
0.0
  1
27.0
 71
     5
 42
27.0
  3
Standard
100
AcDbAlignedDimension
 13
61.41724953807877
 23
209.5393393868973
 33
0.0
 14
88.41724953807876
 24
209.5393393868973
 34
0.0
 50
180.0
100
AcDbRotatedDimension
1001
ACAD
1000
DSTYLE
1002
{
1070
    40
1040
1.0
1002
}
  0
LEADER
  5
DC
330
2
100
AcDbEntity
  8
Dimmention
100
AcDbLeader
  3
Standard
 73
     0
 40
2.741116751269035
 41
22.43654822335026
 76
     3
 10
96.91724953807913
 20
74.68033047084124
 30
0.0
 10
103.2691328869567
 20
83.9902475641017
 30
0.0
 10
105.8683172278423
 20
83.99024756409657
 30
0.0
340
DD
213
-0.0000000000008022
223
-1.25
233
0.0
1001
ACAD
1000
DSTYLE
1002
{
1070
    40
1040
1.0
1070
    77
1070
     0
1002
}
  0
MTEXT
  5
DD
102
{ACAD_REACTORS
330
DC
102
}
330
2
100
AcDbEntity
  8
Dimmention
100
AcDbMText
 10
106.3683172278431
 20
85.24024756409657
 30
0.0
 40
2.5
 41
0.0
 71
     1
 72
     1
  1
4-M2.6*35 ナベ
 73
     1
 44
1.0
1001
ACAD
1000
MTEXTBEGIN
1070
    73
1070
     1
1070
    44
1040
1.0
1070
    74
1070
     0
1000
MTEXTEND
  0
LEADER
  5
DE
330
2
100
AcDbEntity
  8
Dimmention
100
AcDbLeader
  3
Standard
 73
     0
 40
2.741116751269035
 41
19.16243654822335
 76
     3
 10
61.4172495380782
 20
50.18033047084262
 30
0.0
 10
55.06536618920618
 20
40.87041337757828
 30
0.0
 10
47.62541047722716
 20
40.87041337757862
 30
0.0
340
DF
213
0.0000000000000505
223
1.25
233
0.0
1001
ACAD
1000
DSTYLE
1002
{
1070
    40
1040
1.0
1070
    77
1070
     0
1002
}
  0
MTEXT
  5
DF
102
{ACAD_REACTORS
330
DE
102
}
330
2
100
AcDbEntity
  8
Dimmention
100
AcDbMText
 10
47.1254104772271
 20
39.62041337757863
 30
0.0
 40
2.5
 41
0.0
 71
     9
 72
     1
  1
M2.6*25 ナベ
 73
     1
 44
1.0
1001
ACAD
1000
MTEXTBEGIN
1070
    73
1070
     1
1070
    44
1040
1.0
1070
    74
1070
     0
1000
MTEXTEND
  0
LEADER
  5
E0
330
2
100
AcDbEntity
  8
Dimmention
100
AcDbLeader
  3
Standard
 73
     0
 40
2.512690355329949
 41
15.93908629441624
 76
     3
 10
61.41724953807877
 20
236.5393393868973
 30
0.0
 10
55.06536618920712
 20
245.8492564801619
 30
0.0
 10
47.62541047722811
 20
245.8492564801619
 30
0.0
340
E1
213
0.0
223
-1.25
233
0.0
1001
ACAD
1000
DSTYLE
1002
{
1070
    40
1040
1.0
1070
    77
1070
     0
1002
}
  0
MTEXT
  5
E1
102
{ACAD_REACTORS
330
E0
102
}
330
2
100
AcDbEntity
  8
Dimmention
100
AcDbMText
 10
47.12541047722811
 20
247.0992564801619
 30
0.0
 40
2.5
 41
0.0
 71
     3
 72
     1
  1
M2.6*13 皿
 73
     1
 44
1.0
1001
ACAD
1000
MTEXTBEGIN
1070
    73
1070
     1
1070
    44
1040
1.0
1070
    74
1070
     0
1000
MTEXTEND
  0
DIMENSION
  5
E2
330
2
100
AcDbEntity
  8
Dimmention
100
AcDbDimension
  2
*D3
 10
89.41724907009017
 20
251.0393393868973
 30
0.0
 11
84.66724930408323
 21
252.7893393868974
 31
0.0
  1
9.5
 71
     5
 42
9.499999532013973
  3
Standard
100
AcDbAlignedDimension
 13
79.91724953807622
 23
239.0393393868974
 33
0.0
 14
89.41724907009017
 24
223.0393393868974
 34
0.0
 50
180.0
100
AcDbRotatedDimension
1001
ACAD
1000
DSTYLE
1002
{
1070
    40
1040
1.0
1002
}
  0
DIMENSION
  5
EF
330
2
100
AcDbEntity
  8
Dimmention
100
AcDbDimension
  2
*D4
 10
101.4172495380786
 20
183.0393393868973
 30
0.0
 11
79.91724953807866
 21
184.7893393868973
 31
0.0
  1
43.0
 71
     5
 42
42.99999999999989
  3
Standard
100
AcDbAlignedDimension
 13
58.41724953807872
 23
209.0393393868974
 33
0.0
 14
101.4172495380786
 24
213.2554076319185
 34
0.0
 50
180.0
100
AcDbRotatedDimension
1001
ACAD
1000
DSTYLE
1002
{
1070
    40
1040
1.0
1002
}
  0
DIMENSION
  5
FC
330
2
100
AcDbEntity
  8
Dimmention
100
AcDbDimension
  2
*D5
 10
88.41724953807876
 20
195.0393393868973
 30
0.0
 11
84.16724953807749
 21
196.7893393868973
 31
0.0
  1
8.5
 71
     5
 42
8.500000000002527
  3
Standard
100
AcDbAlignedDimension
 13
79.91724953807623
 23
207.0393393868973
 33
0.0
 14
88.41724953807876
 24
209.5393393868973
 34
0.0
 50
180.0
100
AcDbRotatedDimension
1001
ACAD
1000
DSTYLE
1002
{
1070
    40
1040
1.0
1002
}
  0
DIMENSION
  5
109
330
2
100
AcDbEntity
  8
Dimmention
100
AcDbDimension
  2
*D6
 10
117.4172495380762
 20
161.1635436617448
 30
0.0
 11
115.6672495380762
 21
141.413543661744
 31
0.0
 71
     5
 42
39.50000000000149
  3
Standard
100
AcDbAlignedDimension
 13
101.4172495380762
 23
121.6635436617433
 33
0.0
 14
100.4172495380762
 24
161.1635436617448
 34
0.0
 50
90.0
100
AcDbRotatedDimension
1001
ACAD
1000
DSTYLE
1002
{
1070
    40
1040
1.0
1002
}
  0
DIMENSION
  5
116
330
2
100
AcDbEntity
  8
Dimmention
100
AcDbDimension
  2
*D7
 10
89.41724953807852
 20
223.0393393868983
 30
0.0
 11
103.4172479799351
 21
247.2880506928618
 31
0.0
 70
   132
  1
R16.0
 71
     5
 42
15.99999999999969
  3
Standard
100
AcDbRadialDimension
 15
97.41724887030279
 25
236.8957462329894
 35
0.0
 40
0.0
1001
ACAD
1000
DSTYLE
1002
{
1070
    40
1040
1.0
1002
}
  0
DIMENSION
  5
120
330
2
100
AcDbEntity
  8
Dimmention
100
AcDbDimension
  2
*D8
 10
179.6378519083041
 20
182.6635436617477
 30
0.0
 11
163.6378519083041
 21
182.6635436617477
 31
0.0
 70
   128
  1
32.0
 71
     5
 42
32.0
  3
Standard
100
AcDbAlignedDimension
 13
147.6378519083041
 23
161.1635436617438
 33
0.0
 14
179.6378519083041
 24
161.1635436617438
 34
0.0
 50
180.0
100
AcDbRotatedDimension
1001
ACAD
1000
DSTYLE
1002
{
1070
    40
1040
1.0
1002
}
  0
DIMENSION
  5
12D
330
2
100
AcDbEntity
  8
Dimmention
100
AcDbDimension
  2
*D9
 10
117.4172495380762
 20
74.68033047084124
 30
0.0
 11
115.6672495380762
 21
63.68033047084121
 31
0.0
  1
22.0
 71
     5
 42
22.00000000000004
  3
Standard
100
AcDbAlignedDimension
 13
96.9172495380782
 23
52.6803304708412
 33
0.0
 14
96.91724953807913
 24
74.68033047084124
 34
0.0
 50
269.9999999999977
100
AcDbRotatedDimension
1001
ACAD
1000
DSTYLE
1002
{
1070
    40
1040
1.0
1002
}
  0
DIMENSION
  5
13A
330
2
100
AcDbEntity
  8
Dimmention
100
AcDbDimension
  2
*D10
 10
96.91724953807785
 20
39.68033047084096
 30
0.0
 11
88.41724953807664
 21
41.43033047084119
 31
0.0
  1
17.0
 71
     5
 42
17.00000000000253
  3
Standard
100
AcDbAlignedDimension
 13
79.91724953807548
 23
45.68033047084074
 33
0.0
 14
96.9172495380782
 24
52.6803304708412
 34
0.0
 50
179.9999999999984
100
AcDbRotatedDimension
1001
ACAD
1000
DSTYLE
1002
{
1070
    40
1040
1.0
1002
}
  0
DIMENSION
  5
147
330
2
100
AcDbEntity
  8
Dimmention
100
AcDbDimension
  2
*D11
 10
79.41724953807788
 20
39.68033047084096
 30
0.0
 11
72.62664040102208
 21
41.43033047084114
 31
0.0
  1
0.5
 71
     5
 42
0.4999999999974847
  3
Standard
100
AcDbAlignedDimension
 13
79.91724953807558
 23
47.68033047084073
 33
0.0
 14
79.41724953807818
 24
50.18033047084189
 34
0.0
 50
179.9999999999984
100
AcDbRotatedDimension
1001
ACAD
1000
DSTYLE
1002
{
1070
    40
1040
1.0
1002
}
  0
DIMENSION
  5
156
330
2
100
AcDbEntity
  8
Dimmention
100
AcDbDimension
  2
*D12
 10
66.41724953807957
 20
87.68033047084214
 30
0.0
 11
73.16724953807842
 21
89.43033047084194
 31
0.0
  1
13.5
 71
     5
 42
13.49999999999758
  3
Standard
100
AcDbAlignedDimension
 13
79.91724953807693
 23
79.68033047084077
 33
0.0
 14
66.41724953807927
 24
77.18033047084246
 34
0.0
 50
179.9999999999984
100
AcDbRotatedDimension
1001
ACAD
1000
DSTYLE
1002
{
1070
    40
1040
1.0
1002
}
  0
DIMENSION
  5
163
330
2
100
AcDbEntity
  8
Dimmention
100
AcDbDimension
  2
*D13
 10
33.91724953807501
 20
50.18033047084189
 30
0.0
 11
32.167249538075
 21
56.9303304708422
 31
0.0
  1
13.5
 71
     5
 42
13.50000000000058
  3
Standard
100
AcDbAlignedDimension
 13
56.11724953807875
 23
63.68033047084249
 33
0.0
 14
79.41724953807818
 24
50.18033047084189
 34
0.0
 50
269.9999999999977
100
AcDbRotatedDimension
1001
ACAD
1000
DSTYLE
1002
{
1070
    40
1040
1.0
1002
}
  0
DIMENSION
  5
170
330
2
100
AcDbEntity
  8
Dimmention
100
AcDbDimension
  2
*D14
 10
33.91724953807501
 20
63.68033047084249
 30
0.0
 11
32.16724953807502
 21
70.43033047084247
 31
0.0
  1
13.5
 71
     5
 42
13.49999999999996
  3
Standard
100
AcDbAlignedDimension
 13
66.41724953807927
 23
77.18033047084246
 33
0.0
 14
56.41724953807877
 24
63.68033047084249
 34
0.0
 50
269.9999999999977
100
AcDbRotatedDimension
1001
ACAD
1000
DSTYLE
1002
{
1070
    40
1040
1.0
1002
}
  0
LEADER
  5
17D
330
2
100
AcDbEntity
  8
Dimmention
100
AcDbLeader
  3
Standard
 73
     0
 40
3.058375634517766
 41
33.26142131979695
 76
     3
 10
55.89001075106046
 20
145.1888032701693
 30
0.0
 10
48.63822330795665
 20
161.0814147254745
 30
0.0
 10
46.63822330795665
 20
161.0814147254745
 30
0.0
340
17E
213
0.0
223
-1.25
233
0.0
1001
ACAD
1000
DSTYLE
1002
{
1070
    40
1040
1.0
1070
    77
1070
     0
1002
}
  0
MTEXT
  5
17E
102
{ACAD_REACTORS
330
17D
102
}
330
2
100
AcDbEntity
  8
Dimmention
100
AcDbMText
 10
46.13822330795665
 20
162.3314147254745
 30
0.0
 40
2.5
 41
0.0
 71
     3
 72
     1
  1
接続ケーブル コネクタ
 73
     1
 44
1.0
1001
ACAD
1000
MTEXTBEGIN
1070
    73
1070
     1
1070
    44
1040
1.0
1070
    74
1070
     0
1000
MTEXTEND
  0
LEADER
  5
17F
330
2
100
AcDbEntity
  8
Dimmention
100
AcDbLeader
  3
Standard
 73
     0
 40
7.123519458544839
 41
30.12690355329949
 76
     3
 10
89.41724953807854
 20
63.98033047084158
 30
0.0
 10
99.39926918326492
 20
95.86633385236448
 30
0.0
 10
103.7508650995642
 20
95.8663338523641
 30
0.0
340
180
213
-0.0000000000000505
223
-1.25
233
0.0
1001
ACAD
1000
DSTYLE
1002
{
1070
    40
1040
1.0
1070
    77
1070
     0
1002
}
  0
MTEXT
  5
180
102
{ACAD_REACTORS
330
17F
102
}
330
2
100
AcDbEntity
  8
Dimmention
100
AcDbMText
 10
104.2508650995643
 20
97.1163338523641
 30
0.0
 40
2.5
 41
0.0
 71
     1
 72
     1
  1
M3 フカサ8\P(メタルインサート）　
 73
     1
 44
1.0
1001
ACAD
1000
MTEXTBEGIN
1070
    73
1070
     1
1070
    44
1040
1.0
1070
    74
1070
     0
1000
MTEXTEND
  0
LINE
  5
181
330
2
100
AcDbEntity
  8
Center
100
AcDbLine
 10
177.1378519083041
 20
161.1635436617402
 30
0.0
 11
177.137851908304
 21
121.6635436617433
 31
0.0
  0
LINE
  5
182
330
2
100
AcDbEntity
  8
Visible
100
AcDbLine
 10
178.487851908304
 20
121.6635436617433
 30
0.0
 11
178.487851908304
 21
141.6635436617433
 31
0.0
  0
LINE
  5
183
330
2
100
AcDbEntity
  8
Visible
100
AcDbLine
 10
175.7878519083321
 20
121.6635436617434
 30
0.0
 11
175.7878519083041
 21
141.6635436617433
 31
0.0
  0
LINE
  5
184
330
2
100
AcDbEntity
  8
Visible
100
AcDbLine
 10
175.7878519083041
 20
153.16354366174
 30
0.0
 11
178.4878519083041
 21
153.16354366174
 31
0.0
  0
SPLINE
  5
185
330
2
100
AcDbEntity
  8
Hatch (ISO)
100
AcDbSpline
210
0.0
220
0.0
230
1.0
 70
     8
 71
     3
 72
    10
 73
     6
 74
     0
 42
0.0000000001
 43
0.0000000001
 40
4.254924810235674
 40
4.254924810235674
 40
4.254924810235674
 40
4.254924810235674
 40
11.31631254226632
 40
28.99175857474348
 40
37.4901537524098
 40
37.4901537524098
 40
37.4901537524098
 40
37.4901537524098
 10
171.7130432196097
 20
161.1635436617402
 30
0.0
 10
171.1842499435832
 20
158.8364875673584
 30
0.0
 10
169.9635436589995
 20
150.7031417910328
 30
0.0
 10
174.5511704793085
 20
140.0083054933372
 30
0.0
 10
174.6209417673685
 20
131.4480996632774
 30
0.0
 10
171.9252847545893
 20
121.6635436617435
 30
0.0
  0
DIMENSION
  5
187
330
2
100
AcDbEntity
  8
Dimmention
100
AcDbDimension
  2
*D15
 10
89.4172495380792
 20
87.6803304708415
 30
0.0
 11
84.66724953807824
 21
89.43033047084162
 31
0.0
  1
9.5
 71
     5
 42
9.500000000002046
  3
Standard
100
AcDbAlignedDimension
 13
79.91724953807693
 23
79.98033047084075
 33
0.0
 14
89.41724953807852
 24
63.68033047084158
 34
0.0
 50
179.9999999999984
100
AcDbRotatedDimension
1001
ACAD
1000
DSTYLE
1002
{
1070
    40
1040
1.0
1002
}
  0
DIMENSION
  5
194
330
2
100
AcDbEntity
  8
Dimmention
100
AcDbDimension
  2
*D16
 10
117.4172495380762
 20
166.6635436617445
 30
0.0
 11
117.4172495380762
 21
163.9135436617439
 31
0.0
 70
   128
 71
     5
 42
5.500000000001278
  3
Standard
100
AcDbAlignedDimension
 13
101.4172495380762
 23
161.1635436617433
 33
0.0
 14
99.91724953807873
 24
166.6635436617445
 34
0.0
 50
90.0
100
AcDbRotatedDimension
1001
ACAD
1000
DSTYLE
1002
{
1070
    40
1040
1.0
1002
}
  0
DIMENSION
  5
1A1
330
2
100
AcDbEntity
  8
Dimmention
100
AcDbDimension
  2
*D17
 10
60.41724953807875
 20
209.0393393868973
 30
0.0
 11
43.99948622596705
 21
198.7054255103745
 31
0.0
 70
   132
  1
R2.0
 71
     5
 42
2.000000000000226
  3
Standard
100
AcDbRadialDimension
 15
58.72463529303749
 25
207.9739488399689
 35
0.0
 40
0.0
1001
ACAD
1000
DSTYLE
1002
{
1070
    40
1040
1.0
1002
}
  0
LWPOLYLINE
  5
1AB
330
2
100
AcDbEntity
  8
Title
100
AcDbPolyline
 90
        4
 70
     0
 43
0.0
 10
190.6
 20
276.4
 10
190.6
 20
260.6000000000002
 42
-0.4142135623730943
 10
190.4
 20
260.4000000000002
 10
110.6
 20
260.4
  0
LWPOLYLINE
  5
1AC
330
2
100
AcDbEntity
  8
Title
100
AcDbPolyline
 90
        3
 70
     0
 43
0.0
 10
20.60000000000005
 20
260.4
 10
20.60000000000005
 20
276.4
 10
190.6
 20
276.4
  0
LINE
  5
1AD
330
2
100
AcDbEntity
  8
Title
100
AcDbLine
 10
190.6
 20
270.4
 30
0.0
 11
20.60000000000005
 21
270.4
 31
0.0
  0
LINE
  5
1AE
330
2
100
AcDbEntity
  8
Title
100
AcDbLine
 10
20.60000000000005
 20
260.4
 30
0.0
 11
110.6
 21
260.4
 31
0.0
  0
LINE
  5
1AF
330
2
100
AcDbEntity
  8
Title
100
AcDbLine
 10
50.60000000000005
 20
260.4
 30
0.0
 11
50.60000000000005
 21
276.4
 31
0.0
  0
LINE
  5
1B0
330
2
100
AcDbEntity
  8
Title
100
AcDbLine
 10
70.60000000000005
 20
260.4
 30
0.0
 11
70.60000000000005
 21
276.4
 31
0.0
  0
LINE
  5
1B1
330
2
100
AcDbEntity
  8
Title
100
AcDbLine
 10
90.60000000000004
 20
260.4
 30
0.0
 11
90.60000000000004
 21
276.4
 31
0.0
  0
LINE
  5
1B2
330
2
100
AcDbEntity
  8
Title
100
AcDbLine
 10
110.6
 20
260.4
 30
0.0
 11
110.6
 21
276.4
 31
0.0
  0
LINE
  5
1B3
330
2
100
AcDbEntity
  8
Title
100
AcDbLine
 10
130.6
 20
260.4
 30
0.0
 11
130.6
 21
276.4
 31
0.0
  0
LINE
  5
1B4
330
2
100
AcDbEntity
  8
Title
100
AcDbLine
 10
150.6
 20
260.4000000000001
 30
0.0
 11
150.6
 21
276.4
 31
0.0
  0
LINE
  5
1B5
330
2
100
AcDbEntity
  8
Title
100
AcDbLine
 10
170.6
 20
260.4000000000001
 30
0.0
 11
170.6
 21
276.4
 31
0.0
  0
MTEXT
  5
1B6
330
2
100
AcDbEntity
  8
Title
100
AcDbMText
 10
35.60000000000005
 20
273.4
 30
0.0
 40
2.5
 41
30.0
 71
     5
 72
     5
  1
型式
 73
     1
 44
1.0
1001
ACAD
1000
MTEXTBEGIN
1070
    73
1070
     1
1070
    44
1040
1.0
1070
    74
1070
     0
1000
MTEXTEND
  0
MTEXT
  5
1B7
330
2
100
AcDbEntity
  8
Title
100
AcDbMText
 10
60.29035253805401
 20
273.4
 30
0.0
 40
2.5
 41
30.0
 71
     5
 72
     5
  1
最大トルク
 73
     1
 44
1.0
1001
ACAD
1000
MTEXTBEGIN
1070
    73
1070
     1
1070
    44
1040
1.0
1070
    74
1070
     0
1000
MTEXTEND
  0
MTEXT
  5
1B8
330
2
100
AcDbEntity
  8
Title
100
AcDbMText
 10
80.68800628270924
 20
273.4
 30
0.0
 40
2.5
 41
30.0
 71
     5
 72
     5
  1
最高スピード
 73
     1
 44
1.0
1001
ACAD
1000
MTEXTBEGIN
1070
    73
1070
     1
1070
    44
1040
1.0
1070
    74
1070
     0
1000
MTEXTEND
  0
MTEXT
  5
1B9
330
2
100
AcDbEntity
  8
Title
100
AcDbMText
 10
100.290352538054
 20
273.4
 30
0.0
 40
2.5
 41
30.0
 71
     5
 72
     5
  1
定格電圧
 73
     1
 44
1.0
1001
ACAD
1000
MTEXTBEGIN
1070
    73
1070
     1
1070
    44
1040
1.0
1070
    74
1070
     0
1000
MTEXTEND
  0
MTEXT
  5
1BA
330
2
100
AcDbEntity
  8
Title
100
AcDbMText
 10
120.290352538054
 20
273.4
 30
0.0
 40
2.5
 41
30.0
 71
     5
 72
     5
  1
重量
 73
     1
 44
1.0
1001
ACAD
1000
MTEXTBEGIN
1070
    73
1070
     1
1070
    44
1040
1.0
1070
    74
1070
     0
1000
MTEXTEND
  0
MTEXT
  5
1BB
330
2
100
AcDbEntity
  8
Title
100
AcDbMText
 10
160.290352538054
 20
273.4
 30
0.0
 40
2.5
 41
30.0
 71
     5
 72
     5
  1
制御方式
 73
     1
 44
1.0
1001
ACAD
1000
MTEXTBEGIN
1070
    73
1070
     1
1070
    44
1040
1.0
1070
    74
1070
     0
1000
MTEXTEND
  0
MTEXT
  5
1BC
330
2
100
AcDbEntity
  8
Title
100
AcDbMText
 10
35.60000000000005
 20
265.8771171814187
 30
0.0
 40
4.0
 41
30.0
 71
     5
 72
     5
  1
{\H0.75x;KRS-6003 HV}\P{\H0.5x;   ICS3.0}
 73
     1
 44
1.0
1001
ACAD
1000
MTEXTBEGIN
1070
    73
1070
     1
1070
    44
1040
1.0
1070
    74
1070
     0
1000
MTEXTEND
  0
MTEXT
  5
1BD
330
2
100
AcDbEntity
  8
Title
100
AcDbMText
 10
60.60000000000005
 20
265.4
 30
0.0
 40
3.0
 41
20.0
 71
     5
 72
     5
  1
67.0 {\H0.6667x;kg・cm}
 73
     1
 44
1.0
1001
ACAD
1000
MTEXTBEGIN
1070
    73
1070
     1
1070
    44
1040
1.0
1070
    74
1070
     0
1000
MTEXTEND
  0
MTEXT
  5
1BE
330
2
100
AcDbEntity
  8
Title
100
AcDbMText
 10
80.60000000000005
 20
265.4
 30
0.0
 40
3.0
 41
20.0
 71
     5
 72
     5
  1
0.22 {\H0.6667x;sec/60%%D}
 73
     1
 44
1.0
1001
ACAD
1000
MTEXTBEGIN
1070
    73
1070
     1
1070
    44
1040
1.0
1070
    74
1070
     0
1000
MTEXTEND
  0
MTEXT
  5
1BF
102
{ACAD_XDICTIONARY
360
181C
102
}
330
2
100
AcDbEntity
  8
Title
100
AcDbMText
 10
120.6
 20
265.3999999999999
 30
0.0
 40
3.0
 41
20.0
 71
     5
 72
     5
  1
105{\H0.6667x; g\P(ホーン含む)}
 73
     1
 44
1.0
1001
ACAD
1000
MTEXTBEGIN
1070
    73
1070
     1
1070
    44
1040
1.0
1070
    74
1070
     0
1000
MTEXTEND
  0
MTEXT
  5
1C0
330
2
100
AcDbEntity
  8
Title
100
AcDbMText
 10
100.6
 20
265.6879711965736
 30
0.0
 40
3.0
 41
20.0
 71
     5
 72
     5
  1
9.0 {\H0.6667x;V }～ 12.0 {\H0.6667x;V}
 73
     1
 44
1.0
1001
ACAD
1000
MTEXTBEGIN
1070
    73
1070
     1
1070
    44
1040
1.0
1070
    74
1070
     0
1000
MTEXTEND
  0
MTEXT
  5
1C1
330
2
100
AcDbEntity
  8
Title
100
AcDbMText
 10
154.0901890097845
 20
266.9377565420025
 30
0.0
 40
3.0
 41
58.79999999999992
 71
     1
 72
     5
  1
ICS3.0
 73
     1
 44
1.0
1001
ACAD
1000
MTEXTBEGIN
1070
    73
1070
     1
1070
    44
1040
1.0
1070
    74
1070
     0
1000
MTEXTEND
  0
MTEXT
  5
1C2
330
2
100
AcDbEntity
  8
Title
100
AcDbMText
 10
140.290352538054
 20
273.4
 30
0.0
 40
2.5
 41
30.0
 71
     5
 72
     5
  1
最大動作角度
 73
     1
 44
1.0
1001
ACAD
1000
MTEXTBEGIN
1070
    73
1070
     1
1070
    44
1040
1.0
1070
    74
1070
     0
1000
MTEXTEND
  0
MTEXT
  5
1C3
330
2
100
AcDbEntity
  8
Title
100
AcDbMText
 10
140.6
 20
265.3999999999999
 30
0.0
 40
3.0
 41
20.0
 71
     5
 72
     5
  1
270%%d
 73
     1
 44
1.0
1001
ACAD
1000
MTEXTBEGIN
1070
    73
1070
     1
1070
    44
1040
1.0
1070
    74
1070
     0
1000
MTEXTEND
  0
MTEXT
  5
1C4
330
2
100
AcDbEntity
  8
Title
100
AcDbMText
 10
180.290352538054
 20
273.4
 30
0.0
 40
2.5
 41
30.0
 71
     5
 72
     5
  1
ギア
 73
     1
 44
1.0
1001
ACAD
1000
MTEXTBEGIN
1070
    73
1070
     1
1070
    44
1040
1.0
1070
    74
1070
     0
1000
MTEXTEND
  0
MTEXT
  5
1C5
102
{ACAD_XDICTIONARY
360
181E
102
}
330
2
100
AcDbEntity
  8
Title
100
AcDbMText
 10
171.8792099108236
 20
268.3869577761059
 30
0.0
 40
2.0
 41
58.79999999999992
 71
     1
 72
     5
  1
全段金属ギア\P{\H0.875x;(特殊アルミ合金)}
 73
     1
 44
1.0
1001
ACAD
1000
MTEXTBEGIN
1070
    73
1070
     1
1070
    44
1040
1.0
1070
    74
1070
     0
1000
MTEXTEND
  0
CIRCLE
  5
1C6
330
2
100
AcDbEntity
  8
Visible
100
AcDbCircle
 10
88.41724953807844
 20
236.5393393868967
 30
0.0
 40
1.1
  0
CIRCLE
  5
1C7
330
2
100
AcDbEntity
  8
Visible
100
AcDbCircle
 10
88.41724953807876
 20
209.5393393868973
 30
0.0
 40
1.1
  0
CIRCLE
  5
1C8
330
2
100
AcDbEntity
  8
Visible
100
AcDbCircle
 10
61.41724953807877
 20
209.5393393868973
 30
0.0
 40
1.1
  0
LINE
  5
1C9
330
2
100
AcDbEntity
  8
Visible
100
AcDbLine
 10
79.79052243389173
 20
226.7021425599625
 30
0.0
 11
79.60566995300336
 21
226.7787112826875
 31
0.0
  0
LINE
  5
1CB
330
2
100
AcDbEntity
  8
Visible
100
AcDbLine
 10
84.87649259723673
 20
224.5954648191502
 30
0.0
 11
84.69136921323785
 21
224.6721454495957
 31
0.0
  0
ARC
  5
1CC
330
2
100
AcDbEntity
  8
Visible
100
AcDbCircle
 10
89.41724953807872
 20
223.0393393868973
 30
0.0
 40
10.5
100
AcDbArc
 50
159.137245077775
 51
155.8627549222229
  0
LINE
  5
1CD
330
2
100
AcDbEntity
  8
Visible
100
AcDbLine
 10
79.83527956165357
 20
227.333038949447
 30
0.0
 11
80.02013263858836
 21
227.256470226722
 31
0.0
  0
LINE
  5
1CE
330
2
100
AcDbEntity
  8
Visible
100
AcDbLine
 10
84.92097941793451
 20
225.2264731163552
 30
0.0
 11
85.10610280193338
 21
225.1497924859097
 31
0.0
  0
ARC
  5
1CF
330
2
100
AcDbEntity
  8
Visible
100
AcDbCircle
 10
89.4172495380784
 20
223.0393393868974
 30
0.0
 40
5.0
100
AcDbArc
 50
160.9398127675155
 51
154.0601872324849
  0
LINE
  5
1D0
330
2
100
AcDbEntity
  8
Visible
100
AcDbLine
 10
84.69136925853012
 20
224.6721454327502
 30
0.0
 11
79.79052254680502
 21
226.7021426078584
 31
0.0
  0
LINE
  5
1D1
330
2
100
AcDbEntity
  8
Visible
100
AcDbLine
 10
85.89534513910086
 20
224.1734422942475
 30
0.0
 11
84.87649259786245
 21
224.5954648348868
 31
0.0
  0
LINE
  5
1D2
330
2
100
AcDbEntity
  8
Visible
100
AcDbLine
 10
80.02013260622401
 20
227.2564703273651
 30
0.0
 11
84.92097931794921
 21
225.2264731522569
 31
0.0
  0
LINE
  5
1D3
330
2
100
AcDbEntity
  8
Visible
100
AcDbLine
 10
85.10610265728153
 20
225.1497925543936
 30
0.0
 11
86.12495519851988
 21
224.7277700137543
 31
0.0
  0
CIRCLE
  5
1D4
330
2
100
AcDbEntity
  8
Visible Narrow
100
AcDbCircle
 10
89.41724953807872
 20
214.5393393868974
 30
0.0
 40
1.3
  0
CIRCLE
  5
1D6
330
2
100
AcDbEntity
  8
Visible Narrow
100
AcDbCircle
 10
95.42765717816436
 20
217.0289317468117
 30
0.0
 40
1.3
  0
CIRCLE
  5
1D7
330
2
100
AcDbEntity
  8
Visible Narrow
100
AcDbCircle
 10
97.91724953807872
 20
223.0393393868974
 30
0.0
 40
1.3
  0
CIRCLE
  5
1D8
330
2
100
AcDbEntity
  8
Visible Narrow
100
AcDbCircle
 10
95.42765717816436
 20
229.049747026983
 30
0.0
 40
1.3
  0
CIRCLE
  5
1D9
330
2
100
AcDbEntity
  8
Visible Narrow
100
AcDbCircle
 10
89.41724953807872
 20
231.5393393868974
 30
0.0
 40
1.3
  0
CIRCLE
  5
1DA
330
2
100
AcDbEntity
  8
Visible Narrow
100
AcDbCircle
 10
80.91724953807874
 20
223.0393393868974
 30
0.0
 40
1.3
  0
ARC
  5
1DB
330
2
100
AcDbEntity
  8
Visible
100
AcDbCircle
 10
89.4172495380784
 20
223.0393393868974
 30
0.0
 40
4.0
100
AcDbArc
 50
161.8012223046695
 51
153.1987776953277
  0
LINE
  5
1DC
330
2
100
AcDbEntity
  8
Center
100
AcDbLine
 10
78.91724953807873
 20
223.0393393868974
 30
0.0
 11
99.91724953807873
 21
223.0393393868974
 31
0.0
  0
CIRCLE
  5
1DD
330
2
100
AcDbEntity
  8
Center
100
AcDbCircle
 10
89.4172495380784
 20
223.0393393868974
 30
0.0
 40
8.5
  0
LINE
  5
1DE
330
2
100
AcDbEntity
  8
Center
100
AcDbLine
 10
89.41724953807872
 20
233.5393393868973
 30
0.0
 11
89.41724953807872
 21
212.5393393868973
 31
0.0
  0
CIRCLE
  5
1DF
330
2
100
AcDbEntity
  8
Visible
100
AcDbCircle
 10
80.91724953807839
 20
223.0393393868974
 30
0.0
 40
1.149999999999999
  0
CIRCLE
  5
1E0
330
2
100
AcDbEntity
  8
Visible
100
AcDbCircle
 10
89.4172495380784
 20
231.5393393868974
 30
0.0
 40
1.149999999999999
  0
CIRCLE
  5
1E1
330
2
100
AcDbEntity
  8
Visible
100
AcDbCircle
 10
95.42765717816436
 20
229.049747026983
 30
0.0
 40
1.149999999999999
  0
CIRCLE
  5
1E2
330
2
100
AcDbEntity
  8
Visible
100
AcDbCircle
 10
97.91724953807841
 20
223.0393393868974
 30
0.0
 40
1.149999999999999
  0
CIRCLE
  5
1E3
330
2
100
AcDbEntity
  8
Visible
100
AcDbCircle
 10
95.42765717816436
 20
217.0289317468117
 30
0.0
 40
1.149999999999999
  0
CIRCLE
  5
1E4
330
2
100
AcDbEntity
  8
Visible
100
AcDbCircle
 10
89.41724953807872
 20
214.5393393868974
 30
0.0
 40
1.149999999999999
  0
CIRCLE
  5
1E5
330
2
100
AcDbEntity
  8
Visible
100
AcDbCircle
 10
89.41724953807872
 20
223.0393393868973
 30
0.0
 40
3.7
  0
LINE
  5
1E6
330
2
100
AcDbEntity
  8
Visible
100
AcDbLine
 10
88.91724953807871
 20
221.0393393868973
 30
0.0
 11
89.91724953807873
 21
221.0393393868973
 31
0.0
  0
LINE
  5
1E7
330
2
100
AcDbEntity
  8
Visible
100
AcDbLine
 10
89.91724953807873
 20
225.0393393868973
 30
0.0
 11
88.91724953807871
 21
225.0393393868973
 31
0.0
  0
LINE
  5
1E8
330
2
100
AcDbEntity
  8
Visible
100
AcDbLine
 10
87.41724953807873
 20
223.5393393868973
 30
0.0
 11
88.91724953807871
 21
223.5393393868973
 31
0.0
  0
LINE
  5
1E9
330
2
100
AcDbEntity
  8
Visible
100
AcDbLine
 10
89.91724953807873
 20
223.5393393868973
 30
0.0
 11
91.41724953807877
 21
223.5393393868973
 31
0.0
  0
LINE
  5
1EA
330
2
100
AcDbEntity
  8
Visible
100
AcDbLine
 10
87.41724953807873
 20
222.5393393868973
 30
0.0
 11
88.91724953807871
 21
222.5393393868973
 31
0.0
  0
LINE
  5
1EB
330
2
100
AcDbEntity
  8
Visible
100
AcDbLine
 10
89.91724953807873
 20
222.5393393868973
 30
0.0
 11
91.41724953807877
 21
222.5393393868973
 31
0.0
  0
LINE
  5
1EC
330
2
100
AcDbEntity
  8
Visible
100
AcDbLine
 10
87.41724953807873
 20
223.5393393868973
 30
0.0
 11
87.41724953807873
 21
222.5393393868973
 31
0.0
  0
LINE
  5
1ED
330
2
100
AcDbEntity
  8
Visible
100
AcDbLine
 10
91.41724953807877
 20
222.5393393868973
 30
0.0
 11
91.41724953807877
 21
223.5393393868973
 31
0.0
  0
LINE
  5
1EE
330
2
100
AcDbEntity
  8
Visible
100
AcDbLine
 10
88.91724953807871
 20
225.0393393868973
 30
0.0
 11
88.91724953807871
 21
223.5393393868973
 31
0.0
  0
LINE
  5
1EF
330
2
100
AcDbEntity
  8
Visible
100
AcDbLine
 10
88.91724953807871
 20
222.5393393868973
 30
0.0
 11
88.91724953807871
 21
221.0393393868973
 31
0.0
  0
LINE
  5
1F0
330
2
100
AcDbEntity
  8
Visible
100
AcDbLine
 10
89.91724953807873
 20
225.0393393868973
 30
0.0
 11
89.91724953807873
 21
223.5393393868973
 31
0.0
  0
LINE
  5
1F1
330
2
100
AcDbEntity
  8
Visible
100
AcDbLine
 10
89.91724953807873
 20
222.5393393868973
 30
0.0
 11
89.91724953807873
 21
221.0393393868973
 31
0.0
  0
LINE
  5
1F2
330
2
100
AcDbEntity
  8
Visible
100
AcDbLine
 10
179.6378519083041
 20
121.6635436617433
 30
0.0
 11
169.6378519083039
 21
121.6635436617433
 31
0.0
  0
CIRCLE
  5
1F3
330
2
100
AcDbEntity
  8
Visible
100
AcDbCircle
 10
88.41724953807926
 20
77.18033047084155
 30
0.0
 40
1.1
  0
CIRCLE
  5
1F4
330
2
100
AcDbEntity
  8
Visible
100
AcDbCircle
 10
88.41724953807819
 20
50.18033047084154
 30
0.0
 40
1.1
  0
CIRCLE
  5
1F5
330
2
100
AcDbEntity
  8
Visible
100
AcDbCircle
 10
61.41724953807926
 20
77.18033047084266
 30
0.0
 40
1.1
  0
CIRCLE
  5
1F6
330
2
100
AcDbEntity
  8
Visible
100
AcDbCircle
 10
89.41724953807872
 20
63.68033047084114
 30
0.0
 40
6.0
  0
CIRCLE
  5
1F7
330
2
100
AcDbEntity
  8
Visible
100
AcDbCircle
 10
89.41724953807872
 20
63.68033047084114
 30
0.0
 40
4.75
  0
CIRCLE
  5
1F8
330
2
100
AcDbEntity
  8
Visible
100
AcDbCircle
 10
89.41724953807872
 20
63.68033047084114
 30
0.0
 40
4.0
  0
CIRCLE
  5
1F9
330
2
100
AcDbEntity
  8
Visible
100
AcDbCircle
 10
89.41724953807872
 20
63.68033047084114
 30
0.0
 40
1.25
  0
CIRCLE
  5
1FA
330
2
100
AcDbEntity
  8
Visible
100
AcDbCircle
 10
89.41724953807872
 20
63.68033047084114
 30
0.0
 40
1.5
  0
CIRCLE
  5
1FB
330
2
100
AcDbEntity
  8
Visible
100
AcDbCircle
 10
96.91724953807913
 20
74.68033047084124
 30
0.0
 40
2.25
  0
CIRCLE
  5
1FC
330
2
100
AcDbEntity
  8
Visible
100
AcDbCircle
 10
96.9172495380782
 20
52.6803304708412
 30
0.0
 40
2.04
  0
LINE
  5
1FD
330
2
100
AcDbEntity
  8
Visible
100
AcDbLine
 10
97.21724953807822
 20
53.88033047084116
 30
0.0
 11
96.61724953807819
 21
53.88033047084118
 31
0.0
  0
LINE
  5
1FE
330
2
100
AcDbEntity
  8
Visible
100
AcDbLine
 10
95.71724953807819
 20
52.98033047084121
 30
0.0
 11
96.61724953807819
 21
52.98033047084121
 31
0.0
  0
LINE
  5
1FF
330
2
100
AcDbEntity
  8
Visible
100
AcDbLine
 10
97.21724953807822
 20
52.98033047084117
 30
0.0
 11
98.1172495380782
 21
52.98033047084112
 31
0.0
  0
LINE
  5
200
330
2
100
AcDbEntity
  8
Visible
100
AcDbLine
 10
95.71724953807819
 20
52.38033047084121
 30
0.0
 11
96.61724953807819
 21
52.38033047084115
 31
0.0
  0
LINE
  5
201
330
2
100
AcDbEntity
  8
Visible
100
AcDbLine
 10
97.21724953807822
 20
52.38033047084115
 30
0.0
 11
98.1172495380782
 21
52.38033047084112
 31
0.0
  0
LINE
  5
202
330
2
100
AcDbEntity
  8
Visible
100
AcDbLine
 10
98.1172495380782
 20
52.38033047084112
 30
0.0
 11
98.1172495380782
 21
52.98033047084112
 31
0.0
  0
LINE
  5
203
330
2
100
AcDbEntity
  8
Visible
100
AcDbLine
 10
96.61724953807819
 20
53.88033047084118
 30
0.0
 11
96.61724953807819
 21
52.98033047084121
 31
0.0
  0
LINE
  5
204
330
2
100
AcDbEntity
  8
Visible
100
AcDbLine
 10
96.61724953807819
 20
52.38033047084115
 30
0.0
 11
96.61724953807819
 21
51.48033047084121
 31
0.0
  0
LINE
  5
205
330
2
100
AcDbEntity
  8
Visible
100
AcDbLine
 10
97.21724953807822
 20
53.88033047084116
 30
0.0
 11
97.21724953807822
 21
52.98033047084117
 31
0.0
  0
LINE
  5
206
330
2
100
AcDbEntity
  8
Visible
100
AcDbLine
 10
97.21724953807822
 20
52.38033047084115
 30
0.0
 11
97.21724953807813
 21
51.48033047084118
 31
0.0
  0
LINE
  5
207
330
2
100
AcDbEntity
  8
Visible
100
AcDbLine
 10
97.21724953807813
 20
51.48033047084118
 30
0.0
 11
96.61724953807819
 21
51.48033047084121
 31
0.0
  0
LINE
  5
208
330
2
100
AcDbEntity
  8
Visible
100
AcDbLine
 10
95.71724953807819
 20
52.98033047084121
 30
0.0
 11
95.71724953807819
 21
52.38033047084121
 31
0.0
  0
CIRCLE
  5
209
330
2
100
AcDbEntity
  8
Visible
100
AcDbCircle
 10
96.9172495380782
 20
52.6803304708412
 30
0.0
 40
2.25
  0
CIRCLE
  5
20A
330
2
100
AcDbEntity
  8
Visible
100
AcDbCircle
 10
79.41724953807818
 20
50.18033047084189
 30
0.0
 40
2.04
  0
LINE
  5
20B
330
2
100
AcDbEntity
  8
Visible
100
AcDbLine
 10
79.71724953807814
 20
51.38033047084185
 30
0.0
 11
79.11724953807816
 21
51.38033047084189
 31
0.0
  0
LINE
  5
20C
330
2
100
AcDbEntity
  8
Visible
100
AcDbLine
 10
78.21724953807815
 20
50.48033047084193
 30
0.0
 11
79.11724953807816
 21
50.48033047084192
 31
0.0
  0
LINE
  5
20D
330
2
100
AcDbEntity
  8
Visible
100
AcDbLine
 10
79.71724953807814
 20
50.48033047084189
 30
0.0
 11
80.61724953807816
 21
50.48033047084182
 31
0.0
  0
LINE
  5
20E
330
2
100
AcDbEntity
  8
Visible
100
AcDbLine
 10
78.21724953807815
 20
49.88033047084189
 30
0.0
 11
79.11724953807816
 21
49.88033047084188
 31
0.0
  0
LINE
  5
20F
330
2
100
AcDbEntity
  8
Visible
100
AcDbLine
 10
79.71724953807814
 20
49.88033047084186
 30
0.0
 11
80.61724953807816
 21
49.88033047084183
 31
0.0
  0
LINE
  5
210
330
2
100
AcDbEntity
  8
Visible
100
AcDbLine
 10
80.61724953807816
 20
49.88033047084183
 30
0.0
 11
80.61724953807816
 21
50.48033047084182
 31
0.0
  0
LINE
  5
211
330
2
100
AcDbEntity
  8
Visible
100
AcDbLine
 10
79.11724953807816
 20
51.38033047084189
 30
0.0
 11
79.11724953807816
 21
50.48033047084192
 31
0.0
  0
LINE
  5
212
330
2
100
AcDbEntity
  8
Visible
100
AcDbLine
 10
79.11724953807816
 20
49.88033047084188
 30
0.0
 11
79.11724953807816
 21
48.98033047084192
 31
0.0
  0
LINE
  5
213
330
2
100
AcDbEntity
  8
Visible
100
AcDbLine
 10
79.71724953807814
 20
51.38033047084185
 30
0.0
 11
79.71724953807814
 21
50.48033047084189
 31
0.0
  0
LINE
  5
214
330
2
100
AcDbEntity
  8
Visible
100
AcDbLine
 10
79.71724953807814
 20
49.88033047084186
 30
0.0
 11
79.71724953807805
 21
48.98033047084189
 31
0.0
  0
LINE
  5
215
330
2
100
AcDbEntity
  8
Visible
100
AcDbLine
 10
79.71724953807805
 20
48.98033047084189
 30
0.0
 11
79.11724953807816
 21
48.98033047084192
 31
0.0
  0
LINE
  5
216
330
2
100
AcDbEntity
  8
Visible
100
AcDbLine
 10
78.21724953807815
 20
50.48033047084193
 30
0.0
 11
78.21724953807815
 21
49.88033047084189
 31
0.0
  0
CIRCLE
  5
217
330
2
100
AcDbEntity
  8
Visible
100
AcDbCircle
 10
79.41724953807818
 20
50.18033047084189
 30
0.0
 40
2.25
  0
CIRCLE
  5
218
330
2
100
AcDbEntity
  8
Visible
100
AcDbCircle
 10
66.41724953807927
 20
77.18033047084246
 30
0.0
 40
2.04
  0
LINE
  5
219
330
2
100
AcDbEntity
  8
Visible
100
AcDbLine
 10
66.71724953807927
 20
78.38033047084241
 30
0.0
 11
66.11724953807926
 21
78.38033047084242
 31
0.0
  0
LINE
  5
21A
330
2
100
AcDbEntity
  8
Visible
100
AcDbLine
 10
65.21724953807927
 20
77.48033047084248
 30
0.0
 11
66.11724953807926
 21
77.48033047084246
 31
0.0
  0
LINE
  5
21B
330
2
100
AcDbEntity
  8
Visible
100
AcDbLine
 10
66.71724953807927
 20
77.4803304708424
 30
0.0
 11
67.61724953807926
 21
77.48033047084238
 31
0.0
  0
LINE
  5
21C
330
2
100
AcDbEntity
  8
Visible
100
AcDbLine
 10
65.21724953807927
 20
76.88033047084245
 30
0.0
 11
66.11724953807926
 21
76.88033047084243
 31
0.0
  0
LINE
  5
21D
330
2
100
AcDbEntity
  8
Visible
100
AcDbLine
 10
66.71724953807927
 20
76.88033047084241
 30
0.0
 11
67.61724953807926
 21
76.88033047084236
 31
0.0
  0
LINE
  5
21E
330
2
100
AcDbEntity
  8
Visible
100
AcDbLine
 10
67.61724953807926
 20
76.88033047084236
 30
0.0
 11
67.61724953807926
 21
77.48033047084238
 31
0.0
  0
LINE
  5
21F
330
2
100
AcDbEntity
  8
Visible
100
AcDbLine
 10
66.11724953807926
 20
78.38033047084242
 30
0.0
 11
66.11724953807926
 21
77.48033047084246
 31
0.0
  0
LINE
  5
220
330
2
100
AcDbEntity
  8
Visible
100
AcDbLine
 10
66.11724953807926
 20
76.88033047084243
 30
0.0
 11
66.11724953807926
 21
75.98033047084246
 31
0.0
  0
LINE
  5
221
330
2
100
AcDbEntity
  8
Visible
100
AcDbLine
 10
66.71724953807927
 20
78.38033047084241
 30
0.0
 11
66.71724953807927
 21
77.4803304708424
 31
0.0
  0
LINE
  5
222
330
2
100
AcDbEntity
  8
Visible
100
AcDbLine
 10
66.71724953807927
 20
76.88033047084241
 30
0.0
 11
66.71724953807916
 21
75.98033047084243
 31
0.0
  0
LINE
  5
223
330
2
100
AcDbEntity
  8
Visible
100
AcDbLine
 10
66.71724953807916
 20
75.98033047084243
 30
0.0
 11
66.11724953807926
 21
75.98033047084246
 31
0.0
  0
LINE
  5
224
330
2
100
AcDbEntity
  8
Visible
100
AcDbLine
 10
65.21724953807927
 20
77.48033047084248
 30
0.0
 11
65.21724953807927
 21
76.88033047084245
 31
0.0
  0
CIRCLE
  5
225
330
2
100
AcDbEntity
  8
Visible
100
AcDbCircle
 10
66.41724953807927
 20
77.18033047084246
 30
0.0
 40
2.25
  0
LINE
  5
226
330
2
100
AcDbEntity
  8
Visible
100
AcDbLine
 10
78.91724953807873
 20
166.6635436617418
 30
0.0
 11
78.91724953807873
 21
161.6635436617418
 31
0.0
  0
LINE
  5
227
330
2
100
AcDbEntity
  8
Visible
100
AcDbLine
 10
99.91724953807873
 20
166.6635436617445
 30
0.0
 11
99.91724953807873
 21
161.6635436617445
 31
0.0
  0
LINE
  5
228
330
2
100
AcDbEntity
  8
Visible
100
AcDbLine
 10
95.41724953807872
 20
161.1635436617433
 30
0.0
 11
95.41724953807872
 21
161.663543661744
 31
0.0
  0
LINE
  5
229
330
2
100
AcDbEntity
  8
Visible
100
AcDbLine
 10
83.41724953807874
 20
161.1635436617433
 30
0.0
 11
83.41724953807874
 21
161.6635436617424
 31
0.0
  0
LINE
  5
22A
330
2
100
AcDbEntity
  8
Visible
100
AcDbLine
 10
94.41724953807872
 20
166.6635436617432
 30
0.0
 11
94.4172495380786
 21
167.6635436617438
 31
0.0
  0
LINE
  5
22B
330
2
100
AcDbEntity
  8
Visible
100
AcDbLine
 10
94.4172495380786
 20
167.6635436617438
 30
0.0
 11
84.41724953807874
 21
167.6635436617438
 31
0.0
  0
LINE
  5
22C
330
2
100
AcDbEntity
  8
Visible
100
AcDbLine
 10
84.41724953807874
 20
167.6635436617438
 30
0.0
 11
84.41724953807874
 21
166.6635436617432
 31
0.0
  0
LINE
  5
22D
330
2
100
AcDbEntity
  8
Center
100
AcDbLine
 10
89.41724953807872
 20
167.6635436617438
 30
0.0
 11
89.41724953807872
 21
161.1635436617433
 31
0.0
  0
LINE
  5
22E
330
2
100
AcDbEntity
  8
Visible
100
AcDbLine
 10
175.7878519083041
 20
141.6635436617433
 30
0.0
 11
178.487851908304
 21
141.6635436617433
 31
0.0
  0
CIRCLE
  5
22F
330
2
100
AcDbEntity
  8
Visible
100
AcDbCircle
 10
89.41724953807872
 20
63.68033047084114
 30
0.0
 40
3.0
  0
CIRCLE
  5
230
330
2
100
AcDbEntity
  8
Visible
100
AcDbCircle
 10
56.41724953807662
 20
72.18033047084222
 30
0.0
 40
1.0
  0
CIRCLE
  5
231
330
2
100
AcDbEntity
  8
Visible
100
AcDbCircle
 10
56.41724953807589
 20
55.18033047084232
 30
0.0
 40
1.0
  0
ARC
  5
232
330
2
100
AcDbEntity
  8
Visible
100
AcDbCircle
 10
56.41724953807589
 20
55.18033047084232
 30
0.0
 40
2.0
100
AcDbArc
 50
89.99999999999756
 51
269.9999999999976
  0
ARC
  5
233
330
2
100
AcDbEntity
  8
Visible
100
AcDbCircle
 10
56.41724953807662
 20
72.18033047084222
 30
0.0
 40
2.0
100
AcDbArc
 50
89.99999999999756
 51
269.9999999999976
  0
LINE
  5
234
330
2
100
AcDbEntity
  8
Visible
100
AcDbLine
 10
56.41724953807662
 20
74.18033047084222
 30
0.0
 11
58.41724953807915
 21
74.18033047084222
 31
0.0
  0
LINE
  5
235
330
2
100
AcDbEntity
  8
Visible
100
AcDbLine
 10
56.41724953807662
 20
70.18033047084222
 30
0.0
 11
58.41724953807901
 21
70.18033047084213
 31
0.0
  0
LINE
  5
236
330
2
100
AcDbEntity
  8
Visible
100
AcDbLine
 10
56.41724953807598
 20
57.18033047084232
 30
0.0
 11
58.41724953807847
 21
57.18033047084232
 31
0.0
  0
LINE
  5
237
330
2
100
AcDbEntity
  8
Visible
100
AcDbLine
 10
56.41724953807589
 20
53.18033047084232
 30
0.0
 11
58.41724953807831
 21
53.18033047084224
 31
0.0
  0
LINE
  5
238
330
2
100
AcDbEntity
  8
Visible
100
AcDbLine
 10
58.45765774385291
 20
78.08033047084234
 30
0.0
 11
51.11724953807558
 21
78.08033047084234
 31
0.0
  0
LINE
  5
239
330
2
100
AcDbEntity
  8
Visible
100
AcDbLine
 10
58.45765774385291
 20
75.58033047084234
 30
0.0
 11
52.41724953807558
 21
75.58033047084233
 31
0.0
  0
LINE
  5
23A
330
2
100
AcDbEntity
  8
Visible
100
AcDbLine
 10
58.45765774385147
 20
49.28033047084237
 30
0.0
 11
51.11724953807558
 21
49.28033047084237
 31
0.0
  0
LINE
  5
23B
330
2
100
AcDbEntity
  8
Visible
100
AcDbLine
 10
58.45765774385147
 20
51.78033047084237
 30
0.0
 11
52.41724953807558
 21
51.78033047084237
 31
0.0
  0
LINE
  5
23C
330
2
100
AcDbEntity
  8
Visible
100
AcDbLine
 10
49.91724953807558
 20
50.48033047084238
 30
0.0
 11
49.91724953807558
 21
76.88033047084234
 31
0.0
  0
LINE
  5
23D
330
2
100
AcDbEntity
  8
Visible
100
AcDbLine
 10
52.41724953807558
 20
51.78033047084237
 30
0.0
 11
52.41724953807558
 21
62.68033047084268
 31
0.0
  0
LINE
  5
23E
330
2
100
AcDbEntity
  8
Visible
100
AcDbLine
 10
52.41724953807558
 20
64.68033047084265
 30
0.0
 11
52.41724953807558
 21
75.58033047084233
 31
0.0
  0
ARC
  5
23F
330
2
100
AcDbEntity
  8
Visible
100
AcDbCircle
 10
51.11724953807558
 20
50.48033047084238
 30
0.0
 40
1.199999999999999
100
AcDbArc
 50
180.0
 51
270.0
  0
ARC
  5
240
330
2
100
AcDbEntity
  8
Visible
100
AcDbCircle
 10
51.11724953807558
 20
76.88033047084234
 30
0.0
 40
1.199999999999999
100
AcDbArc
 50
90.0
 51
180.0
  0
LINE
  5
241
330
2
100
AcDbEntity
  8
Visible
100
AcDbLine
 10
49.91724953807555
 20
62.68033047084276
 30
0.0
 11
53.91724953807558
 21
62.6803304708426
 31
0.0
  0
LINE
  5
242
330
2
100
AcDbEntity
  8
Visible
100
AcDbLine
 10
53.91724953807558
 20
62.6803304708426
 30
0.0
 11
53.91724953807558
 21
64.68033047084261
 31
0.0
  0
LINE
  5
243
330
2
100
AcDbEntity
  8
Visible
100
AcDbLine
 10
53.91724953807558
 20
64.68033047084261
 30
0.0
 11
49.91724953807562
 21
64.68033047084276
 31
0.0
  0
LINE
  5
244
330
2
100
AcDbEntity
  8
Visible
100
AcDbLine
 10
51.11724953807558
 20
64.68033047084272
 30
0.0
 11
51.1172495380755
 21
62.68033047084271
 31
0.0
  0
LINE
  5
245
330
2
100
AcDbEntity
  8
Visible
100
AcDbLine
 10
58.41724953807625
 20
121.6635436617433
 30
0.0
 11
54.41724953807661
 21
121.6635436617433
 31
0.0
  0
LINE
  5
246
330
2
100
AcDbEntity
  8
Visible
100
AcDbLine
 10
54.41724953807661
 20
121.6635436617433
 30
0.0
 11
54.41724953807661
 21
125.6635436617433
 31
0.0
  0
LINE
  5
247
330
2
100
AcDbEntity
  8
Visible
100
AcDbLine
 10
58.41724953807625
 20
125.6635436617433
 30
0.0
 11
52.41724953807558
 21
125.6635436617433
 31
0.0
  0
LINE
  5
248
330
2
100
AcDbEntity
  8
Visible
100
AcDbLine
 10
52.41724953807558
 20
125.6635436617433
 30
0.0
 11
49.91724953807558
 21
128.1635436617433
 31
0.0
  0
LINE
  5
249
330
2
100
AcDbEntity
  8
Visible
100
AcDbLine
 10
49.91724953807558
 20
128.1635436617433
 30
0.0
 11
49.91724953807558
 21
131.8635436617433
 31
0.0
  0
LINE
  5
24A
330
2
100
AcDbEntity
  8
Visible
100
AcDbLine
 10
49.91724953807558
 20
131.8635436617433
 30
0.0
 11
58.41724953807625
 21
131.8635436617433
 31
0.0
  0
LINE
  5
24B
330
2
100
AcDbEntity
  8
Visible
100
AcDbLine
 10
49.91724953807558
 20
128.1635436617433
 30
0.0
 11
58.41724953807625
 21
128.1635436617433
 31
0.0
  0
LINE
  5
24C
330
2
100
AcDbEntity
  8
Visible
100
AcDbLine
 10
49.91724953807558
 20
131.8635436617433
 30
0.0
 11
49.91724953807558
 21
139.8635436617433
 31
0.0
  0
LINE
  5
24D
330
2
100
AcDbEntity
  8
Visible
100
AcDbLine
 10
50.91724953807558
 20
140.8635436617433
 30
0.0
 11
58.41724953807625
 21
140.8635436617433
 31
0.0
  0
LINE
  5
24E
330
2
100
AcDbEntity
  8
Visible
100
AcDbLine
 10
49.91724953807558
 20
139.8635436617433
 30
0.0
 11
50.91724953807558
 21
140.8635436617433
 31
0.0
  0
LINE
  5
24F
330
2
100
AcDbEntity
  8
Visible
100
AcDbLine
 10
49.91724953807558
 20
139.8635436617433
 30
0.0
 11
58.41724953807625
 21
139.8635436617433
 31
0.0
  0
LINE
  5
250
330
2
100
AcDbEntity
  8
Visible
100
AcDbLine
 10
58.11724953807622
 20
140.8635436617433
 30
0.0
 11
57.59231755692069
 21
146.8635436617433
 31
0.0
  0
LINE
  5
251
330
2
100
AcDbEntity
  8
Visible
100
AcDbLine
 10
57.59231755692069
 20
146.8635436617433
 30
0.0
 11
53.44218151923179
 21
146.8635436617433
 31
0.0
  0
LINE
  5
252
330
2
100
AcDbEntity
  8
Visible
100
AcDbLine
 10
53.44218151923179
 20
146.8635436617433
 30
0.0
 11
52.91724953807624
 21
140.8635436617433
 31
0.0
  0
LINE
  5
253
330
2
100
AcDbEntity
  8
Visible
100
AcDbLine
 10
58.45765774385291
 20
237.4393393868974
 30
0.0
 11
51.11724953807557
 21
237.4393393868974
 31
0.0
  0
LINE
  5
254
330
2
100
AcDbEntity
  8
Visible
100
AcDbLine
 10
58.45765774385291
 20
236.4393393868974
 30
0.0
 11
51.11724953807556
 21
236.4393393868974
 31
0.0
  0
ARC
  5
255
330
2
100
AcDbEntity
  8
Visible
100
AcDbCircle
 10
51.11724953807556
 20
236.2393393868975
 30
0.0
 40
0.2
100
AcDbArc
 50
90.0
 51
180.0
  0
LINE
  5
256
330
2
100
AcDbEntity
  8
Visible
100
AcDbLine
 10
58.45765774385146
 20
208.6393393868975
 30
0.0
 11
51.11724953807557
 21
208.6393393868975
 31
0.0
  0
LINE
  5
257
330
2
100
AcDbEntity
  8
Visible
100
AcDbLine
 10
58.45765774385146
 20
209.6393393868975
 30
0.0
 11
51.11724953807558
 21
209.6393393868975
 31
0.0
  0
LINE
  5
258
330
2
100
AcDbEntity
  8
Visible
100
AcDbLine
 10
49.91724953807556
 20
209.8393393868975
 30
0.0
 11
49.91724953807556
 21
236.2393393868974
 31
0.0
  0
LINE
  5
259
330
2
100
AcDbEntity
  8
Visible
100
AcDbLine
 10
50.91724953807558
 20
209.8393393868975
 30
0.0
 11
50.91724953807556
 21
236.2393393868975
 31
0.0
  0
ARC
  5
25A
330
2
100
AcDbEntity
  8
Visible
100
AcDbCircle
 10
51.11724953807558
 20
209.8393393868975
 30
0.0
 40
0.2
100
AcDbArc
 50
180.0
 51
270.0
  0
ARC
  5
25B
330
2
100
AcDbEntity
  8
Visible
100
AcDbCircle
 10
51.11724953807557
 20
209.8393393868975
 30
0.0
 40
1.199999999999999
100
AcDbArc
 50
180.0
 51
270.0
  0
ARC
  5
25C
330
2
100
AcDbEntity
  8
Visible
100
AcDbCircle
 10
51.11724953807557
 20
236.2393393868974
 30
0.0
 40
1.199999999999999
100
AcDbArc
 50
90.0
 51
180.0
  0
LINE
  5
25D
330
2
100
AcDbEntity
  8
Visible
100
AcDbLine
 10
153.1378519083041
 20
166.6635436617418
 30
0.0
 11
163.6378519083041
 21
166.6635436617432
 31
0.0
  0
LINE
  5
25E
330
2
100
AcDbEntity
  8
Visible
100
AcDbLine
 10
168.6378519083041
 20
166.6635436617438
 30
0.0
 11
174.1378519083041
 21
166.6635436617445
 31
0.0
  0
LINE
  5
25F
330
2
100
AcDbEntity
  8
Visible
100
AcDbLine
 10
153.1378519083047
 20
161.6635436617418
 30
0.0
 11
163.6378519083041
 21
161.6635436617431
 31
0.0
  0
LINE
  5
260
330
2
100
AcDbEntity
  8
Visible
100
AcDbLine
 10
169.6378519083041
 20
161.663543661744
 30
0.0
 11
174.1378519083046
 21
161.6635436617445
 31
0.0
  0
LINE
  5
261
330
2
100
AcDbEntity
  8
Visible
100
AcDbLine
 10
174.1378519083041
 20
166.6635436617445
 30
0.0
 11
174.1378519083041
 21
161.6635436617445
 31
0.0
  0
LINE
  5
262
330
2
100
AcDbEntity
  8
Visible
100
AcDbLine
 10
169.6378519083041
 20
161.1635436617433
 30
0.0
 11
169.6378519083041
 21
161.663543661744
 31
0.0
  0
LINE
  5
263
330
2
100
AcDbEntity
  8
Visible
100
AcDbLine
 10
157.6378519083041
 20
161.1635436617433
 30
0.0
 11
157.6378519083041
 21
161.6635436617424
 31
0.0
  0
LINE
  5
264
330
2
100
AcDbEntity
  8
Visible
100
AcDbLine
 10
168.6378519083041
 20
166.6635436617432
 30
0.0
 11
168.6378519083039
 21
167.6635436617438
 31
0.0
  0
LINE
  5
265
330
2
100
AcDbEntity
  8
Visible
100
AcDbLine
 10
168.6378519083039
 20
167.6635436617438
 30
0.0
 11
158.6378519083041
 21
167.6635436617438
 31
0.0
  0
LINE
  5
266
330
2
100
AcDbEntity
  8
Visible
100
AcDbLine
 10
158.6378519083041
 20
167.6635436617438
 30
0.0
 11
158.6378519083041
 21
166.6635436617432
 31
0.0
  0
LINE
  5
267
330
2
100
AcDbEntity
  8
Visible
100
AcDbLine
 10
153.137851908304
 20
166.6635436617418
 30
0.0
 11
153.137851908304
 21
161.6635436617418
 31
0.0
  0
CIRCLE
  5
268
330
2
100
AcDbEntity
  8
Visible
100
AcDbCircle
 10
61.41724953807926
 20
77.18033047084266
 30
0.0
 40
1.35
  0
CIRCLE
  5
269
330
2
100
AcDbEntity
  8
Visible
100
AcDbCircle
 10
88.41724953807926
 20
77.18033047084155
 30
0.0
 40
1.35
  0
CIRCLE
  5
26A
330
2
100
AcDbEntity
  8
Visible
100
AcDbCircle
 10
88.41724953807819
 20
50.18033047084154
 30
0.0
 40
1.35
  0
CIRCLE
  5
26B
330
2
100
AcDbEntity
  8
Visible
100
AcDbCircle
 10
88.41724953807844
 20
236.5393393868967
 30
0.0
 40
1.35
  0
CIRCLE
  5
26C
330
2
100
AcDbEntity
  8
Visible
100
AcDbCircle
 10
88.41724953807876
 20
209.5393393868973
 30
0.0
 40
1.35
  0
CIRCLE
  5
26D
330
2
100
AcDbEntity
  8
Visible
100
AcDbCircle
 10
61.41724953807877
 20
209.5393393868973
 30
0.0
 40
1.35
  0
LINE
  5
26E
330
2
100
AcDbEntity
  8
Visible
100
AcDbLine
 10
175.7878519083041
 20
161.1635436617402
 30
0.0
 11
175.7878519083041
 21
153.16354366174
 31
0.0
  0
LINE
  5
26F
330
2
100
AcDbEntity
  8
Visible
100
AcDbLine
 10
178.4878519083041
 20
161.1635436617402
 30
0.0
 11
178.4878519083041
 21
153.16354366174
 31
0.0
  0
LINE
  5
270
330
2
100
AcDbEntity
  8
Visible
100
AcDbLine
 10
178.2378519083041
 20
141.6635436617433
 30
0.0
 11
178.2378519083039
 21
153.16354366174
 31
0.0
  0
LINE
  5
271
330
2
100
AcDbEntity
  8
Visible
100
AcDbLine
 10
176.0378519083041
 20
141.6635436617433
 30
0.0
 11
176.0378519083041
 21
153.16354366174
 31
0.0
  0
LINE
  5
272
330
2
100
AcDbEntity
  8
Visible
100
AcDbLine
 10
163.637851908304
 20
152.1635436617428
 30
0.0
 11
147.6378519083041
 21
152.1635436617428
 31
0.0
  0
LINE
  5
273
330
2
100
AcDbEntity
  8
Visible
100
AcDbLine
 10
163.637851908304
 20
140.863543661743
 30
0.0
 11
147.6378519083041
 21
140.863543661743
 31
0.0
  0
LWPOLYLINE
  5
274
330
2
100
AcDbEntity
  8
Visible
  6
HIDDEN2
 48
0.1
370
    15
100
AcDbPolyline
 90
        4
 70
     1
 43
0.0
 10
56.76724953807624
 20
132.8635436617433
 10
56.76724953807624
 20
146.8635436617433
 10
54.26724953807624
 20
146.8635436617433
 10
54.26724953807624
 20
132.8635436617433
  0
LINE
  5
276
330
2
100
AcDbEntity
  8
Visible
370
    15
100
AcDbLine
 10
54.76724953807623
 20
149.6135436617433
 30
0.0
 11
54.76724953807623
 21
146.8635436617433
 31
0.0
  0
LINE
  5
277
330
2
100
AcDbEntity
  8
Visible
370
    15
100
AcDbLine
 10
56.26724953807624
 20
149.6135436617433
 30
0.0
 11
56.26724953807624
 21
146.8635436617433
 31
0.0
  0
LINE
  5
278
330
2
100
AcDbEntity
  8
Visible
370
    15
100
AcDbLine
 10
53.26724953807615
 20
151.1135436617433
 30
0.0
 11
46.97415510887568
 21
151.1135436617433
 31
0.0
  0
LINE
  5
279
330
2
100
AcDbEntity
  8
Visible
370
    15
100
AcDbLine
 10
53.26724953807623
 20
152.6135436617433
 30
0.0
 11
45.27936139653728
 21
152.6135436617433
 31
0.0
  0
ARC
  5
27A
330
2
100
AcDbEntity
  8
Visible
370
    15
100
AcDbCircle
 10
53.26724953807615
 20
149.6135436617433
 30
0.0
 40
3.0
100
AcDbArc
 50
0.0
 51
90.0
  0
ARC
  5
27B
330
2
100
AcDbEntity
  8
Visible
370
    15
100
AcDbCircle
 10
53.26724953807615
 20
149.6135436617433
 30
0.0
 40
1.5
100
AcDbArc
 50
0.0
 51
90.0
  0
LWPOLYLINE
  5
27C
330
2
100
AcDbEntity
  8
Visible
100
AcDbPolyline
 90
        5
 70
     0
 43
0.0
 10
56.91724953807625
 20
232.8893393868975
 10
56.91724953807625
 20
225.3893393868974
 10
54.11724953807624
 20
225.3893393868974
 10
54.11724953807624
 20
232.8893393868975
 10
55.91724953807625
 20
232.8893393868975
  0
LINE
  5
27D
330
2
100
AcDbEntity
  8
Visible
100
AcDbLine
 10
56.91724953807625
 20
232.8893393868975
 30
0.0
 11
56.91724953807625
 21
233.9393393868975
 31
0.0
  0
LINE
  5
27E
330
2
100
AcDbEntity
  8
Visible
100
AcDbLine
 10
56.91724953807625
 20
233.9393393868975
 30
0.0
 11
55.91724953807625
 21
233.9393393868975
 31
0.0
  0
LINE
  5
27F
330
2
100
AcDbEntity
  8
Visible
100
AcDbLine
 10
57.61724953807625
 20
235.1393393868974
 30
0.0
 11
53.41724953807625
 21
235.1393393868975
 31
0.0
  0
LINE
  5
280
330
2
100
AcDbEntity
  8
Visible
100
AcDbLine
 10
57.11724953807625
 20
234.6393393868974
 30
0.0
 11
53.91724953807624
 21
234.6393393868975
 31
0.0
  0
ARC
  5
281
330
2
100
AcDbEntity
  8
Visible
100
AcDbCircle
 10
53.91724953807624
 20
234.1393393868975
 30
0.0
 40
0.5
100
AcDbArc
 50
89.9999999999992
 51
180.0
  0
ARC
  5
282
330
2
100
AcDbEntity
  8
Visible
100
AcDbCircle
 10
57.61724953807624
 20
234.6393393868974
 30
0.0
 40
0.5
100
AcDbArc
 50
0.0
 51
89.99999999999836
  0
LINE
  5
283
330
2
100
AcDbEntity
  8
Visible
100
AcDbLine
 10
55.91724953807625
 20
233.9393393868975
 30
0.0
 11
55.91724953807625
 21
232.8893393868975
 31
0.0
  0
LWPOLYLINE
  5
284
330
2
100
AcDbEntity
  8
Visible
100
AcDbPolyline
 90
        5
 70
     0
 43
0.0
 10
56.91724953807622
 20
219.7893393868974
 10
56.91724953807622
 20
212.2893393868974
 10
54.1172495380762
 20
212.2893393868974
 10
54.1172495380762
 20
219.7893393868974
 10
55.91724953807622
 20
219.7893393868974
  0
LINE
  5
285
330
2
100
AcDbEntity
  8
Visible
100
AcDbLine
 10
56.91724953807622
 20
219.7893393868974
 30
0.0
 11
56.91724953807622
 21
220.8393393868974
 31
0.0
  0
LINE
  5
286
330
2
100
AcDbEntity
  8
Visible
100
AcDbLine
 10
56.91724953807622
 20
220.8393393868974
 30
0.0
 11
55.91724953807622
 21
220.8393393868974
 31
0.0
  0
LINE
  5
287
330
2
100
AcDbEntity
  8
Visible
100
AcDbLine
 10
55.91724953807622
 20
220.8393393868974
 30
0.0
 11
55.91724953807622
 21
219.7893393868974
 31
0.0
  0
LINE
  5
288
330
2
100
AcDbEntity
  8
Visible
100
AcDbLine
 10
58.11724953807622
 20
234.6393393868974
 30
0.0
 11
58.11724953807622
 21
224.6893393868975
 31
0.0
  0
LINE
  5
289
330
2
100
AcDbEntity
  8
Visible
100
AcDbLine
 10
57.61724953807624
 20
234.1393393868974
 30
0.0
 11
57.61724953807624
 21
225.1893393868975
 31
0.0
  0
ARC
  5
28A
330
2
100
AcDbEntity
  8
Visible
100
AcDbCircle
 10
57.11724953807624
 20
234.1393393868974
 30
0.0
 40
0.5
100
AcDbArc
 50
0.0
 51
89.99999999999868
  0
ARC
  5
28B
330
2
100
AcDbEntity
  8
Visible
100
AcDbCircle
 10
57.61724953807624
 20
224.6893393868975
 30
0.0
 40
0.5
100
AcDbArc
 50
270.0000000000003
 51
0.0
  0
LINE
  5
28C
330
2
100
AcDbEntity
  8
Visible
100
AcDbLine
 10
58.11724953807622
 20
221.5393393868974
 30
0.0
 11
58.11724953807622
 21
211.5893393868974
 31
0.0
  0
LINE
  5
28D
330
2
100
AcDbEntity
  8
Visible
100
AcDbLine
 10
57.61724953807624
 20
221.0393393868974
 30
0.0
 11
57.61724953807625
 21
212.0893393868974
 31
0.0
  0
ARC
  5
28E
330
2
100
AcDbEntity
  8
Visible
100
AcDbCircle
 10
57.11724953807624
 20
221.0393393868974
 30
0.0
 40
0.5
100
AcDbArc
 50
0.0
 51
89.9999999999996
  0
ARC
  5
28F
330
2
100
AcDbEntity
  8
Visible
100
AcDbCircle
 10
57.61724953807624
 20
211.5893393868974
 30
0.0
 40
0.5
100
AcDbArc
 50
270.0000000000003
 51
0.0
  0
ARC
  5
290
330
2
100
AcDbEntity
  8
Visible
100
AcDbCircle
 10
57.61724953807624
 20
221.5393393868974
 30
0.0
 40
0.5
100
AcDbArc
 50
0.0
 51
90.0
  0
LINE
  5
291
330
2
100
AcDbEntity
  8
Visible
100
AcDbLine
 10
52.91724953807623
 20
234.6393393868975
 30
0.0
 11
52.91724953807624
 21
224.6893393868974
 31
0.0
  0
LINE
  5
292
330
2
100
AcDbEntity
  8
Visible
100
AcDbLine
 10
53.41724953807624
 20
234.1393393868975
 30
0.0
 11
53.41724953807624
 21
225.1893393868975
 31
0.0
  0
ARC
  5
293
330
2
100
AcDbEntity
  8
Visible
100
AcDbCircle
 10
53.91724953807624
 20
225.1893393868975
 30
0.0
 40
0.5
100
AcDbArc
 50
180.0
 51
270.0000000000004
  0
ARC
  5
294
330
2
100
AcDbEntity
  8
Visible
100
AcDbCircle
 10
53.41724953807624
 20
234.6393393868975
 30
0.0
 40
0.5
100
AcDbArc
 50
89.99999999999827
 51
180.0
  0
LINE
  5
295
330
2
100
AcDbEntity
  8
Visible
100
AcDbLine
 10
52.91724953807624
 20
221.5393393868974
 30
0.0
 11
52.91724953807625
 21
211.5893393868974
 31
0.0
  0
LINE
  5
296
330
2
100
AcDbEntity
  8
Visible
100
AcDbLine
 10
53.41724953807624
 20
221.0393393868975
 30
0.0
 11
53.41724953807624
 21
212.0893393868974
 31
0.0
  0
ARC
  5
297
330
2
100
AcDbEntity
  8
Visible
100
AcDbCircle
 10
53.91724953807623
 20
212.0893393868974
 30
0.0
 40
0.5
100
AcDbArc
 50
180.0
 51
270.0000000000004
  0
ARC
  5
298
330
2
100
AcDbEntity
  8
Visible
100
AcDbCircle
 10
53.41724953807624
 20
221.5393393868974
 30
0.0
 40
0.5
100
AcDbArc
 50
90.0
 51
180.0
  0
LINE
  5
299
330
2
100
AcDbEntity
  8
Visible
100
AcDbLine
 10
57.61724953807624
 20
224.1893393868975
 30
0.0
 11
53.41724953807624
 21
224.1893393868974
 31
0.0
  0
LINE
  5
29A
330
2
100
AcDbEntity
  8
Visible
100
AcDbLine
 10
57.11724953807624
 20
224.6893393868975
 30
0.0
 11
53.91724953807624
 21
224.6893393868974
 31
0.0
  0
ARC
  5
29B
330
2
100
AcDbEntity
  8
Visible
100
AcDbCircle
 10
57.11724953807624
 20
225.1893393868975
 30
0.0
 40
0.5
100
AcDbArc
 50
270.0000000000004
 51
0.0
  0
ARC
  5
29C
330
2
100
AcDbEntity
  8
Visible
100
AcDbCircle
 10
53.41724953807624
 20
224.6893393868974
 30
0.0
 40
0.5
100
AcDbArc
 50
180.0
 51
270.0
  0
LINE
  5
29D
330
2
100
AcDbEntity
  8
Visible
100
AcDbLine
 10
53.41724953807624
 20
222.0393393868974
 30
0.0
 11
57.61724953807624
 21
222.0393393868974
 31
0.0
  0
LINE
  5
29E
330
2
100
AcDbEntity
  8
Visible
100
AcDbLine
 10
53.91724953807624
 20
221.5393393868974
 30
0.0
 11
57.11724953807624
 21
221.5393393868974
 31
0.0
  0
ARC
  5
29F
330
2
100
AcDbEntity
  8
Visible
100
AcDbCircle
 10
53.91724953807624
 20
221.0393393868975
 30
0.0
 40
0.5
100
AcDbArc
 50
90.0
 51
180.0
  0
LINE
  5
2A0
330
2
100
AcDbEntity
  8
Visible
100
AcDbLine
 10
57.61724953807624
 20
211.0893393868974
 30
0.0
 11
53.41724953807625
 21
211.0893393868974
 31
0.0
  0
LINE
  5
2A1
330
2
100
AcDbEntity
  8
Visible
100
AcDbLine
 10
57.11724953807625
 20
211.5893393868975
 30
0.0
 11
53.91724953807624
 21
211.5893393868974
 31
0.0
  0
ARC
  5
2A2
330
2
100
AcDbEntity
  8
Visible
100
AcDbCircle
 10
57.11724953807625
 20
212.0893393868974
 30
0.0
 40
0.5
100
AcDbArc
 50
270.0
 51
0.0
  0
ARC
  5
2A3
330
2
100
AcDbEntity
  8
Visible
100
AcDbCircle
 10
53.41724953807625
 20
211.5893393868974
 30
0.0
 40
0.5
100
AcDbArc
 50
180.0
 51
270.0
  0
LINE
  5
2A4
330
2
100
AcDbEntity
  8
Hatch (ISO)
100
AcDbLine
 10
163.637851908304
 20
116.1635436617433
 30
0.0
 11
163.637851908304
 21
167.6635436617438
 31
0.0
  0
LINE
  5
2A5
330
2
100
AcDbEntity
  8
Hatch (ISO)
100
AcDbLine
 10
163.637851908304
 20
167.6635436617438
 30
0.0
 11
168.6378519083039
 21
167.6635436617445
 31
0.0
  0
LINE
  5
2A6
330
2
100
AcDbEntity
  8
Hatch (ISO)
100
AcDbLine
 10
168.6378519083039
 20
167.6635436617445
 30
0.0
 11
168.6378519083041
 21
166.6635436617432
 31
0.0
  0
LINE
  5
2A7
330
2
100
AcDbEntity
  8
Hatch (ISO)
100
AcDbLine
 10
168.6378519083041
 20
166.6635436617432
 30
0.0
 11
174.1378519083041
 21
166.6635436617432
 31
0.0
  0
LINE
  5
2A8
330
2
100
AcDbEntity
  8
Hatch (ISO)
100
AcDbLine
 10
174.1378519083041
 20
166.6635436617432
 30
0.0
 11
174.1378519083046
 21
161.6635436617445
 31
0.0
  0
LINE
  5
2A9
330
2
100
AcDbEntity
  8
Hatch (ISO)
100
AcDbLine
 10
174.1378519083046
 20
161.6635436617445
 30
0.0
 11
169.6378519083041
 21
161.663543661744
 31
0.0
  0
LINE
  5
2AA
330
2
100
AcDbEntity
  8
Hatch (ISO)
100
AcDbLine
 10
169.6378519083041
 20
161.663543661744
 30
0.0
 11
169.6378519083041
 21
161.1635436617433
 31
0.0
  0
LINE
  5
2AB
330
2
100
AcDbEntity
  8
Hatch (ISO)
100
AcDbLine
 10
171.7130432196101
 20
161.1635436617422
 30
0.0
 11
175.7878519083041
 21
161.1635436617402
 31
0.0
  0
LINE
  5
2AC
330
2
100
AcDbEntity
  8
Hatch (ISO)
100
AcDbLine
 10
175.7878519083041
 20
161.1635436617402
 30
0.0
 11
175.7878519083041
 21
153.16354366174
 31
0.0
  0
LINE
  5
2AD
330
2
100
AcDbEntity
  8
Hatch (ISO)
100
AcDbLine
 10
175.7878519083041
 20
153.16354366174
 30
0.0
 11
176.0378519083041
 21
153.16354366174
 31
0.0
  0
LINE
  5
2AE
330
2
100
AcDbEntity
  8
Hatch (ISO)
100
AcDbLine
 10
176.0378519083041
 20
153.16354366174
 30
0.0
 11
176.0378519083041
 21
141.6635436617433
 31
0.0
  0
LINE
  5
2AF
330
2
100
AcDbEntity
  8
Hatch (ISO)
100
AcDbLine
 10
176.0378519083041
 20
141.6635436617433
 30
0.0
 11
175.7878519083041
 21
141.6635436617433
 31
0.0
  0
LINE
  5
2B0
330
2
100
AcDbEntity
  8
Hatch (ISO)
100
AcDbLine
 10
175.7878519083041
 20
141.6635436617433
 30
0.0
 11
175.7878519083037
 21
121.6635436617434
 31
0.0
  0
LINE
  5
2B1
330
2
100
AcDbEntity
  8
Visible Narrow
100
AcDbLine
 10
175.7878519083041
 20
141.6635436617433
 30
0.0
 11
175.7878519083039
 21
153.16354366174
 31
0.0
  0
HATCH
  5
2B2
330
2
100
AcDbEntity
  8
Hatch (ISO)
100
AcDbHatch
 10
0.0
 20
0.0
 30
0.0
210
0.0
220
0.0
230
1.0
  2
ANSI31
 70
     0
 71
     0
 91
        2
 92
        5
 93
        6
 72
     1
 10
175.7878519083041
 20
161.1635436617402
 11
171.7130432196101
 21
161.1635436617422
 72
     4
 94
        3
 73
     0
 74
     0
 95
       10
 96
        6
 40
4.254924810235674
 40
4.254924810235674
 40
4.254924810235674
 40
4.254924810235674
 40
11.31631254226632
 40
28.99175857474348
 40
37.4901537524098
 40
37.4901537524098
 40
37.4901537524098
 40
37.4901537524098
 10
171.7130432196097
 20
161.1635436617402
 10
171.1842499435832
 20
158.8364875673584
 10
169.9635436589995
 20
150.7031417910328
 10
174.5511704793085
 20
140.0083054933372
 10
174.6209417673685
 20
131.4480996632774
 10
171.9252847545893
 20
121.6635436617435
 72
     1
 10
171.9252847545893
 20
121.6635436617433
 11
175.7878519083037
 21
121.6635436617432
 72
     1
 10
175.7878519083037
 20
121.6635436617432
 11
175.7878519083041
 21
141.6635436617433
 72
     1
 10
175.7878519083041
 20
141.6635436617433
 11
175.7878519083039
 21
153.16354366174
 72
     1
 10
175.7878519083039
 20
153.16354366174
 11
175.7878519083041
 21
161.1635436617402
 97
        0
 92
        7
 72
     0
 73
     1
 93
        6
 10
179.6378519083042
 20
161.1635436617402
 10
178.4878519083041
 20
161.1635436617402
 10
178.4878519083042
 20
153.16354366174
 10
178.487851908304
 20
141.6635436617433
 10
178.4878519083036
 20
121.6635436617433
 10
179.6378519083041
 20
121.6635436617433
 97
        0
 75
     0
 76
     1
 52
0.0
 41
0.5
 77
     0
 78
     1
 53
45.0
 43
0.0
 44
3.663543661743005
 45
-1.122532015133643
 46
1.122532015133643
 79
     0
 47
0.0792511166009023
 98
        2
 10
173.9327050654833
 20
153.169417526265
 10
179.007202810925
 20
156.1809597617769
1001
ACAD
1010
0.0
1020
0.0
1030
0.0
  0
LINE
  5
2B3
330
2
100
AcDbEntity
  8
Visible Narrow
100
AcDbLine
 10
178.487851908304
 20
141.6635436617433
 30
0.0
 11
178.4878519083041
 21
153.16354366174
 31
0.0
  0
LINE
  5
2B4
330
2
100
AcDbEntity
  8
Hatch (ISO)
100
AcDbLine
 10
178.4878519083041
 20
161.1635436617402
 30
0.0
 11
178.4878519083042
 21
153.16354366174
 31
0.0
  0
LINE
  5
2B5
330
2
100
AcDbEntity
  8
Hatch (ISO)
100
AcDbLine
 10
178.4878519083042
 20
153.16354366174
 30
0.0
 11
178.2378519083039
 21
153.16354366174
 31
0.0
  0
LINE
  5
2B6
330
2
100
AcDbEntity
  8
Hatch (ISO)
100
AcDbLine
 10
178.2378519083039
 20
153.16354366174
 30
0.0
 11
178.2378519083041
 21
141.6635436617433
 31
0.0
  0
LINE
  5
2B7
330
2
100
AcDbEntity
  8
Hatch (ISO)
100
AcDbLine
 10
178.2378519083041
 20
141.6635436617433
 30
0.0
 11
178.487851908304
 21
141.6635436617433
 31
0.0
  0
LINE
  5
2B8
330
2
100
AcDbEntity
  8
Hatch (ISO)
100
AcDbLine
 10
178.487851908304
 20
141.6635436617433
 30
0.0
 11
178.4878519083036
 21
121.6635436617433
 31
0.0
  0
LINE
  5
2B9
330
2
100
AcDbEntity
  8
Hatch (ISO)
100
AcDbLine
 10
178.4878519083036
 20
121.6635436617433
 30
0.0
 11
179.6378519083041
 21
121.6635436617433
 31
0.0
  0
LINE
  5
2BA
330
2
100
AcDbEntity
  8
Hatch (ISO)
100
AcDbLine
 10
179.6378519083041
 20
121.6635436617433
 30
0.0
 11
179.6378519083042
 21
161.1635436617402
 31
0.0
  0
LINE
  5
2BB
330
2
100
AcDbEntity
  8
Hatch (ISO)
100
AcDbLine
 10
179.6378519083042
 20
161.1635436617402
 30
0.0
 11
178.4878519083041
 21
161.1635436617402
 31
0.0
  0
LINE
  5
2BC
330
2
100
AcDbEntity
  8
Hatch (ISO)
100
AcDbLine
 10
171.9252847545893
 20
121.6635436617433
 30
0.0
 11
175.7878519083037
 21
121.6635436617432
 31
0.0
  0
DIMENSION
  5
2BD
330
2
100
AcDbEntity
  8
Dimmention
100
AcDbDimension
  2
*D18
 10
191.0723124032273
 20
153.16354366174
 30
0.0
 11
191.0723124032273
 21
167.7815639663124
 31
0.0
 70
   128
  1
<>\P(%%C2.7)
 71
     5
 42
8.000000000003806
  3
Standard
100
AcDbAlignedDimension
 13
179.6378519083041
 23
161.1635436617438
 33
0.0
 14
178.4878519083042
 24
153.16354366174
 34
0.0
 50
90.0
100
AcDbRotatedDimension
1001
ACAD
1000
DSTYLE
1002
{
1070
    40
1040
1.0
1002
}
  0
DIMENSION
  5
2CB
330
2
100
AcDbEntity
  8
Dimmention
100
AcDbDimension
  2
*D19
 10
191.0723124032273
 20
141.6635436617433
 30
0.0
 11
187.0295882069498
 21
131.6635436617433
 31
0.0
  1
<>\P(%%C2.7)
 71
     5
 42
20.0
  3
Standard
100
AcDbAlignedDimension
 13
179.6378519083041
 23
121.6635436617433
 33
0.0
 14
178.487851908304
 24
141.6635436617433
 34
0.0
 50
90.0
100
AcDbRotatedDimension
1001
ACAD
1000
DSTYLE
1002
{
1070
    40
1040
1.0
1002
}
  0
DIMENSION
  5
2D8
330
2
100
AcDbEntity
  8
Dimmention
100
AcDbDimension
  2
*D20
 10
191.5723124032273
 20
153.16354366174
 30
0.0
 11
187.5295882069498
 21
147.4135436617417
 31
0.0
  1
<>\P(M2.6)
 71
     5
 42
11.49999999999667
  3
Standard
100
AcDbAlignedDimension
 13
178.487851908304
 23
141.6635436617433
 33
0.0
 14
178.4878519083042
 24
153.16354366174
 34
0.0
 50
90.0
100
AcDbRotatedDimension
1001
ACAD
1000
DSTYLE
1002
{
1070
    40
1040
1.0
1002
}
  0
CIRCLE
  5
2E5
330
2
100
AcDbEntity
  8
Visible
100
AcDbCircle
 10
61.4172495380777
 20
50.18033047084189
 30
0.0
 40
2.04
  0
LINE
  5
2E6
330
2
100
AcDbEntity
  8
Visible
100
AcDbLine
 10
61.71724953807768
 20
51.38033047084189
 30
0.0
 11
61.11724953807769
 21
51.38033047084189
 31
0.0
  0
LINE
  5
2E7
330
2
100
AcDbEntity
  8
Visible
100
AcDbLine
 10
60.21724953807769
 20
50.48033047084194
 30
0.0
 11
61.11724953807769
 21
50.48033047084192
 31
0.0
  0
LINE
  5
2E8
330
2
100
AcDbEntity
  8
Visible
100
AcDbLine
 10
61.71724953807768
 20
50.48033047084189
 30
0.0
 11
62.61724953807767
 21
50.48033047084185
 31
0.0
  0
LINE
  5
2E9
330
2
100
AcDbEntity
  8
Visible
100
AcDbLine
 10
60.21724953807769
 20
49.88033047084194
 30
0.0
 11
61.11724953807769
 21
49.88033047084189
 31
0.0
  0
LINE
  5
2EA
330
2
100
AcDbEntity
  8
Visible
100
AcDbLine
 10
61.71724953807768
 20
49.88033047084186
 30
0.0
 11
62.61724953807767
 21
49.88033047084183
 31
0.0
  0
LINE
  5
2EB
330
2
100
AcDbEntity
  8
Visible
100
AcDbLine
 10
62.61724953807767
 20
49.88033047084183
 30
0.0
 11
62.61724953807767
 21
50.48033047084185
 31
0.0
  0
LINE
  5
2EC
330
2
100
AcDbEntity
  8
Visible
100
AcDbLine
 10
61.11724953807769
 20
51.38033047084189
 30
0.0
 11
61.11724953807769
 21
50.48033047084192
 31
0.0
  0
LINE
  5
2ED
330
2
100
AcDbEntity
  8
Visible
100
AcDbLine
 10
61.11724953807769
 20
49.88033047084189
 30
0.0
 11
61.11724953807769
 21
48.98033047084194
 31
0.0
  0
LINE
  5
2EE
330
2
100
AcDbEntity
  8
Visible
100
AcDbLine
 10
61.71724953807768
 20
51.38033047084189
 30
0.0
 11
61.71724953807768
 21
50.48033047084189
 31
0.0
  0
LINE
  5
2EF
330
2
100
AcDbEntity
  8
Visible
100
AcDbLine
 10
61.71724953807768
 20
49.88033047084186
 30
0.0
 11
61.71724953807757
 21
48.98033047084189
 31
0.0
  0
LINE
  5
2F0
330
2
100
AcDbEntity
  8
Visible
100
AcDbLine
 10
61.71724953807757
 20
48.98033047084189
 30
0.0
 11
61.11724953807769
 21
48.98033047084194
 31
0.0
  0
LINE
  5
2F1
330
2
100
AcDbEntity
  8
Visible
100
AcDbLine
 10
60.21724953807769
 20
50.48033047084194
 30
0.0
 11
60.21724953807769
 21
49.88033047084194
 31
0.0
  0
CIRCLE
  5
2F2
330
2
100
AcDbEntity
  8
Visible
100
AcDbCircle
 10
61.4172495380777
 20
50.18033047084189
 30
0.0
 40
2.25
  0
DIMENSION
  5
2F3
330
2
100
AcDbEntity
  8
Dimmention
100
AcDbDimension
  2
*D21
 10
49.91724953807556
 20
183.0393393868973
 30
0.0
 11
54.16724953807714
 21
184.7893393868973
 31
0.0
 71
     5
 42
8.500000000003169
  3
Standard
100
AcDbAlignedDimension
 13
58.41724953807872
 23
208.7393393868973
 33
0.0
 14
49.91724953807556
 24
209.8393393868975
 34
0.0
100
AcDbRotatedDimension
1001
ACAD
1000
DSTYLE
1002
{
1070
    40
1040
1.0
1002
}
  0
DIMENSION
  5
300
330
2
100
AcDbEntity
  8
Dimmention
100
AcDbDimension
  2
*D22
 10
33.91724953807557
 20
208.6614115488744
 30
0.0
 11
32.16724953807553
 21
223.0393393868975
 31
0.0
 71
     5
 42
28.75585567604617
  3
Standard
100
AcDbAlignedDimension
 13
50.88815128751446
 23
237.4172672249205
 33
0.0
 14
50.88815128751444
 24
208.6614115488744
 34
0.0
 50
90.0
100
AcDbRotatedDimension
1001
ACAD
1000
DSTYLE
1002
{
1070
    40
1040
1.0
1002
}
  0
DIMENSION
  5
30D
330
2
100
AcDbEntity
  8
Dimmention
100
AcDbDimension
  2
*D23
 10
66.14556379289419
 20
152.1635436617436
 30
0.0
 11
64.39556379289418
 21
156.6635436617437
 31
0.0
  1
9.0
 71
     5
 42
9.000000000000085
  3
Standard
100
AcDbAlignedDimension
 13
66.14556379289421
 23
161.1635436617437
 33
0.0
 14
66.14556379289419
 24
152.1635436617436
 34
0.0
 50
90.0
100
AcDbRotatedDimension
1001
ACAD
1000
DSTYLE
1002
{
1070
    40
1040
1.0
1002
}
  0
DIMENSION
  5
31A
330
2
100
AcDbEntity
  8
Dimmention
100
AcDbDimension
  2
*D24
 10
66.14556379289417
 20
140.8635436617433
 30
0.0
 11
66.14556379289417
 21
130.1135436617433
 31
0.0
 70
   128
  1
19.2
 71
     5
 42
19.20000000000001
  3
Standard
100
AcDbAlignedDimension
 13
65.64556379289418
 23
121.6635436617433
 33
0.0
 14
66.14556379289417
 24
140.8635436617433
 34
0.0
 50
90.0
100
AcDbRotatedDimension
1001
ACAD
1000
DSTYLE
1002
{
1070
    40
1040
1.0
1002
}
  0
DIMENSION
  5
327
330
2
100
AcDbEntity
  8
Dimmention
100
AcDbDimension
  2
*D25
 10
25.91724953807557
 20
146.8635436617433
 30
0.0
 11
24.16724953807554
 21
134.2635436617433
 31
0.0
 71
     5
 42
25.19999999999998
  3
Standard
100
AcDbAlignedDimension
 13
54.41724953807661
 23
121.6635436617433
 33
0.0
 14
53.44218151923179
 24
146.8635436617433
 34
0.0
 50
90.0
100
AcDbRotatedDimension
1001
ACAD
1000
DSTYLE
1002
{
1070
    40
1040
1.0
1002
}
  0
DIMENSION
  5
334
330
2
100
AcDbEntity
  8
Dimmention
100
AcDbDimension
  2
*D26
 10
41.91724953807557
 20
55.18033047084234
 30
0.0
 11
41.91724953807556
 21
68.18583979800871
 31
0.0
 70
   128
 71
     5
 42
16.9999999999999
  3
Standard
100
AcDbAlignedDimension
 13
55.41724953807662
 23
72.18033047084222
 33
0.0
 14
55.41724953807589
 24
55.18033047084232
 34
0.0
 50
90.0
100
AcDbRotatedDimension
1001
ACAD
1000
DSTYLE
1002
{
1070
    40
1040
1.0
1002
}
  0
DIMENSION
  5
341
330
2
100
AcDbEntity
  8
Dimmention
100
AcDbDimension
  2
*D27
 10
56.41724953807663
 20
95.68033047084147
 30
0.0
 11
68.16724953807678
 21
97.4303304708415
 31
0.0
 71
     5
 42
23.50000000000028
  3
Standard
100
AcDbAlignedDimension
 13
79.91724953807693
 23
79.68033047084073
 33
0.0
 14
56.41724953807663
 24
73.18033047084222
 34
0.0
100
AcDbRotatedDimension
1001
ACAD
1000
DSTYLE
1002
{
1070
    40
1040
1.0
1002
}
  0
DIMENSION
  5
34E
330
2
100
AcDbEntity
  8
Dimmention
100
AcDbDimension
  2
*D28
 10
57.18725737973014
 20
71.54229604873632
 30
0.0
 11
40.93596339087295
 21
85.00824328686791
 31
0.0
 70
   131
  1
<>ザ フカサ8
 71
     5
 42
1.999999999999985
  3
Standard
100
AcDbDiametricDimension
 15
55.64724169642307
 25
72.81836489294817
 35
0.0
 40
0.0
1001
ACAD
1000
DSTYLE
1002
{
1070
    40
1040
1.0
1002
}
  0
LEADER
  5
35A
330
2
100
AcDbEntity
  8
Dimmention
100
AcDbLeader
  3
Standard
 73
     0
 40
2.994923857868018
 41
14.28934010152284
 76
     3
 10
52.32224873452344
 20
63.43522126873494
 30
0.0
 10
39.47115031766805
 20
47.1745783925749
 30
0.0
 10
36.43638233446484
 20
47.1745783925749
 30
0.0
340
35B
213
0.0
223
1.25
233
0.0
1001
ACAD
1000
DSTYLE
1002
{
1070
    40
1040
1.0
1070
    77
1070
     0
1002
}
  0
MTEXT
  5
35B
102
{ACAD_REACTORS
330
35A
102
}
330
2
100
AcDbEntity
  8
Dimmention
100
AcDbMText
 10
35.93638233446486
 20
45.9245783925749
 30
0.0
 40
2.5
 41
0.0
 71
     9
 72
     1
  1
LED表示穴
 73
     1
 44
1.0
1001
ACAD
1000
MTEXTBEGIN
1070
    73
1070
     1
1070
    44
1040
1.0
1070
    74
1070
     0
1000
MTEXTEND
  0
SPLINE
  5
35C
330
2
100
AcDbEntity
  8
Hatch (ISO)
100
AcDbSpline
210
0.0
220
0.0
230
1.0
 70
     8
 71
     3
 72
    10
 73
     6
 74
     4
 42
0.0000000001
 43
0.0000000001
 44
0.0000000001
 40
0.0
 40
0.0
 40
0.0
 40
0.0
 40
2.021321093119953
 40
4.785549545230068
 40
6.720685057390566
 40
6.720685057390566
 40
6.720685057390566
 40
6.720685057390566
 10
45.90429556453989
 20
154.8502483240796
 30
0.0
 10
45.25415226796531
 20
154.2548621474342
 30
0.0
 10
43.71491490095475
 20
152.8452642084527
 30
0.0
 10
47.70664451194584
 20
151.9439051272425
 30
0.0
 10
46.74652679628976
 20
150.303378688412
 30
0.0
 10
46.351163104193
 20
149.6278317432178
 30
0.0
 11
45.90429556453989
 21
154.8502483240796
 31
0.0
 11
44.73556483884849
 21
153.2010644494566
 31
0.0
 11
46.90115439696342
 21
151.4831643355854
 31
0.0
 11
46.351163104193
 21
149.6278317432178
 31
0.0
  0
DIMENSION
  5
35D
330
2
100
AcDbEntity
  8
Hatch (ISO)
100
AcDbDimension
  2
*D29
 10
56.41724953807646
 20
72.18033047084215
 30
0.0
 11
47.4970038141092
 21
68.20198518895532
 31
0.0
 70
     4
 71
     5
 42
1.999999999999815
  3
Standard
100
AcDbRadialDimension
 15
54.76619297207093
 25
71.05160897470176
 35
0.0
 40
0.0
1001
ACAD
1000
DSTYLE
1002
{
1070
    40
1040
1.0
1002
}
  0
DIMENSION
  5
367
330
2
100
AcDbEntity
  8
Hatch (ISO)
100
AcDbDimension
  2
*D30
 10
80.95149408211481
 20
223.8015628185912
 30
0.0
 11
113.3826517962999
 21
220.8815885227003
 31
0.0
 70
   131
  1
PCD<>
 71
     5
 42
16.99999999999998
  3
Standard
100
AcDbDiametricDimension
 15
97.88300499404193
 25
222.2771159552034
 35
0.0
 40
0.0
1001
ACAD
1000
DSTYLE
1002
{
1070
    40
1040
1.0
1002
}
  0
DIMENSION
  5
372
330
2
100
AcDbEntity
  8
Hatch (ISO)
100
AcDbDimension
  2
*D31
 10
80.0566472843913
 20
227.7963474222346
 30
0.0
 11
112.1745788912984
 21
211.474186241603
 31
0.0
 70
   131
 71
     5
 42
21.00000000000003
  3
Standard
100
AcDbDiametricDimension
 15
98.77785179176607
 25
218.2823313515601
 35
0.0
 40
0.0
1001
ACAD
1000
DSTYLE
1002
{
1070
    40
1040
1.0
1002
}
  0
DIMENSION
  5
37D
330
2
100
AcDbEntity
  8
Hatch (ISO)
100
AcDbDimension
  2
*D32
 10
84.74623377110454
 20
221.2556320945757
 30
0.0
 11
111.1445178145648
 21
231.3362685347317
 31
0.0
 70
   131
 71
     5
 42
9.999999999999973
  3
Standard
100
AcDbDiametricDimension
 15
94.08826530505224
 25
224.8230466792191
 35
0.0
 40
0.0
1001
ACAD
1000
DSTYLE
1002
{
1070
    40
1040
1.0
1002
}
  0
LEADER
  5
388
330
2
100
AcDbEntity
  8
Hatch (ISO)
100
AcDbLeader
  3
Standard
 73
     0
 40
2.5
 41
9.390862944162435
 76
     3
 10
95.42765717816436
 20
229.049747026983
 30
0.0
 10
110.2272505607089
 20
243.8766404254147
 30
0.0
 10
113.1984275171519
 20
243.8766404254147
 30
0.0
340
389
213
0.0
223
-1.25
233
0.0
1001
ACAD
1000
DSTYLE
1002
{
1070
    40
1040
1.0
1070
    77
1070
     0
1002
}
  0
MTEXT
  5
389
102
{ACAD_REACTORS
330
388
102
}
330
2
100
AcDbEntity
  8
Hatch (ISO)
100
AcDbMText
 10
113.6984275171519
 20
245.1266404254147
 30
0.0
 40
2.5
 41
0.0
 71
     1
 72
     1
  1
6-M2.6
 73
     1
 44
1.0
1001
ACAD
1000
MTEXTBEGIN
1070
    73
1070
     1
1070
    44
1040
1.0
1070
    74
1070
     0
1000
MTEXTEND
  0
DIMENSION
  5
38A
330
2
100
AcDbEntity
  8
Hatch (ISO)
100
AcDbDimension
  2
*D33
 10
97.26314694489964
 20
167.6635436617438
 30
0.0
 11
95.5131469448996
 21
174.37801066682
 31
0.0
 71
     5
 42
0.999999999999261
  3
Standard
100
AcDbAlignedDimension
 13
99.91724953807873
 23
166.6635436617445
 33
0.0
 14
94.4172495380786
 24
167.6635436617438
 34
0.0
 50
90.0
100
AcDbRotatedDimension
1001
ACAD
1000
DSTYLE
1002
{
1070
    40
1040
1.0
1002
}
  0
LINE
  5
399
330
2
100
AcDbEntity
  8
Visible
100
AcDbLine
 10
93.41724953807872
 20
116.6635436617433
 30
0.0
 11
93.41724953807872
 21
119.6635436617433
 31
0.0
  0
ARC
  5
39A
330
2
100
AcDbEntity
  8
Visible
100
AcDbCircle
 10
92.91724953807877
 20
116.6635436617433
 30
0.0
 40
0.5
100
AcDbArc
 50
270.0
 51
0.0
  0
LINE
  5
39B
330
2
100
AcDbEntity
  8
Visible
100
AcDbLine
 10
84.66724953807892
 20
119.6635436617431
 30
0.0
 11
94.16724953807872
 21
119.6635436617433
 31
0.0
  0
LINE
  5
39C
330
2
100
AcDbEntity
  8
Visible
100
AcDbLine
 10
95.41724953807872
 20
121.6635436617433
 30
0.0
 11
95.41724953807872
 21
120.9135436617433
 31
0.0
  0
LINE
  5
39D
330
2
100
AcDbEntity
  8
Visible
100
AcDbLine
 10
95.41724953807872
 20
120.9135436617433
 30
0.0
 11
94.16724953807872
 21
119.6635436617433
 31
0.0
  0
LINE
  5
39E
330
2
100
AcDbEntity
  8
Visible
100
AcDbLine
 10
85.41724953807873
 20
116.6635436617433
 30
0.0
 11
85.41724953807873
 21
119.6635436617433
 31
0.0
  0
LINE
  5
39F
330
2
100
AcDbEntity
  8
Visible
100
AcDbLine
 10
83.41724953807874
 20
121.6635436617433
 30
0.0
 11
83.41724953807874
 21
120.9135436617433
 31
0.0
  0
LINE
  5
3A0
330
2
100
AcDbEntity
  8
Visible
100
AcDbLine
 10
83.41724953807874
 20
120.9135436617433
 30
0.0
 11
84.66724953807892
 21
119.6635436617431
 31
0.0
  0
LINE
  5
3A1
330
2
100
AcDbEntity
  8
Visible
100
AcDbLine
 10
92.91724953807877
 20
116.1635436617433
 30
0.0
 11
85.91724953807872
 21
116.1635436617433
 31
0.0
  0
ARC
  5
3A2
330
2
100
AcDbEntity
  8
Visible
100
AcDbCircle
 10
85.91724953807872
 20
116.6635436617433
 30
0.0
 40
0.5
100
AcDbArc
 50
180.0
 51
270.0
  0
LINE
  5
3A3
330
2
100
AcDbEntity
  8
Visible
100
AcDbLine
 10
95.41724953807872
 20
120.9135436617433
 30
0.0
 11
83.41724953807874
 21
120.9135436617433
 31
0.0
  0
DIMENSION
  5
3A4
330
2
100
AcDbEntity
  8
Dimmention
100
AcDbDimension
  2
*D34
 10
109.4172495380762
 20
119.6635436617433
 30
0.0
 11
109.4172495380762
 21
128.4604979764642
 31
0.0
 70
   128
 71
     5
 42
2.000000000000014
  3
Standard
100
AcDbAlignedDimension
 13
101.4172495380762
 23
121.6635436617433
 33
0.0
 14
94.16724953807872
 24
119.6635436617433
 34
0.0
 50
90.0
100
AcDbRotatedDimension
1001
ACAD
1000
DSTYLE
1002
{
1070
    40
1040
1.0
1002
}
  0
DIMENSION
  5
3B3
330
2
100
AcDbEntity
  8
Dimmention
100
AcDbDimension
  2
*D35
 10
117.4172495380762
 20
116.1635436617433
 30
0.0
 11
117.4172495380762
 21
118.9135436617433
 31
0.0
 70
   128
 71
     5
 42
5.5
  3
Standard
100
AcDbAlignedDimension
 13
101.4172495380762
 23
121.6635436617433
 33
0.0
 14
92.91724953807877
 24
116.1635436617433
 34
0.0
 50
90.0
100
AcDbRotatedDimension
1001
ACAD
1000
DSTYLE
1002
{
1070
    40
1040
1.0
1002
}
  0
DIMENSION
  5
3C0
330
2
100
AcDbEntity
  8
Dimmention
100
AcDbDimension
  2
*D36
 10
83.87968685909831
 20
65.99017885901807
 30
0.0
 11
105.557733948241
 21
56.94775260933454
 31
0.0
 70
   131
 71
     5
 42
11.99999999999995
  3
Standard
100
AcDbDiametricDimension
 15
94.95481221705905
 25
61.37048208266421
 35
0.0
 40
0.0
1001
ACAD
1000
DSTYLE
1002
{
1070
    40
1040
1.0
1002
}
  0
DIMENSION
  5
3CB
330
2
100
AcDbEntity
  8
Dimmention
100
AcDbDimension
  2
*D37
 10
84.67162361260022
 20
63.47653013858983
 30
0.0
 11
105.9337341868632
 21
64.38962890942531
 31
0.0
 70
   131
 71
     5
 42
9.499999999999984
  3
Standard
100
AcDbDiametricDimension
 15
94.1628754635573
 25
63.88413080309248
 35
0.0
 40
0.0
1001
ACAD
1000
DSTYLE
1002
{
1070
    40
1040
1.0
1002
}
  0
DIMENSION
  5
3D6
330
2
100
AcDbEntity
  8
Dimmention
100
AcDbDimension
  2
*D38
 10
85.69126903638247
 20
62.22531524721656
 30
0.0
 11
106.231010723143
 21
70.24619373274477
 31
0.0
 70
   131
 71
     5
 42
8.000000000000012
  3
Standard
100
AcDbDiametricDimension
 15
93.143230039775
 25
65.13534569446576
 35
0.0
 40
0.0
1001
ACAD
1000
DSTYLE
1002
{
1070
    40
1040
1.0
1002
}
  0
LEADER
  5
3E1
330
2
100
AcDbEntity
  8
Dimmention
100
AcDbLeader
  3
Standard
 73
     0
 40
2.5
 41
6.180203045685275
 76
     3
 10
84.04224953807883
 20
120.2885436617432
 30
0.0
 10
79.56625815409505
 20
116.4537485632614
 30
0.0
 10
78.15492709430079
 20
116.4537485632614
 30
0.0
340
3E2
213
0.0
223
1.25
233
0.0
1001
ACAD
1000
DSTYLE
1002
{
1070
    40
1040
1.0
1070
    77
1070
     0
1002
}
  0
MTEXT
  5
3E2
102
{ACAD_REACTORS
330
3E1
102
}
330
2
100
AcDbEntity
  8
Dimmention
100
AcDbMText
 10
77.65492709430076
 20
115.2037485632614
 30
0.0
 40
2.5
 41
0.0
 71
     9
 72
     1
  1
C1.3
 73
     1
 44
1.0
1001
ACAD
1000
MTEXTBEGIN
1070
    73
1070
     1
1070
    44
1040
1.0
1070
    74
1070
     0
1000
MTEXTEND
  0
DIMENSION
  5
3E3
330
2
100
AcDbEntity
  8
Dimmention
100
AcDbDimension
  2
*D39
 10
41.91724953807557
 20
125.6635436617433
 30
0.0
 11
41.91724953807553
 21
132.485878687124
 31
0.0
 70
   128
 71
     5
 42
4.0
  3
Standard
100
AcDbAlignedDimension
 13
54.41724953807661
 23
121.6635436617433
 33
0.0
 14
52.41724953807558
 24
125.6635436617433
 34
0.0
 50
90.0
100
AcDbRotatedDimension
1001
ACAD
1000
DSTYLE
1002
{
1070
    40
1040
1.0
1002
}
  0
DIMENSION
  5
3F2
330
2
100
AcDbEntity
  8
Dimmention
100
AcDbDimension
  2
*D40
 10
33.91724953807557
 20
140.8635436617433
 30
0.0
 11
32.16724953807555
 21
131.2635436617433
 31
0.0
 71
     5
 42
19.19999999999997
  3
Standard
100
AcDbAlignedDimension
 13
54.41724953807661
 23
121.6635436617433
 33
0.0
 14
50.91724953807558
 24
140.8635436617433
 34
0.0
 50
90.0
100
AcDbRotatedDimension
1001
ACAD
1000
DSTYLE
1002
{
1070
    40
1040
1.0
1002
}
  0
LEADER
  5
3FF
330
2
100
AcDbEntity
  8
Dimmention
100
AcDbLeader
  3
Standard
 73
     0
 40
2.5
 41
6.180203045685275
 76
     3
 10
51.16724953807558
 20
126.9135436617433
 30
0.0
 10
40.00515571609617
 20
115.8167939105227
 30
0.0
 10
38.74339251630932
 20
115.8167939105227
 30
0.0
340
400
213
0.0
223
1.25
233
0.0
1001
ACAD
1000
DSTYLE
1002
{
1070
    40
1040
1.0
1070
    77
1070
     0
1002
}
  0
MTEXT
  5
400
102
{ACAD_REACTORS
330
3FF
102
}
330
2
100
AcDbEntity
  8
Dimmention
100
AcDbMText
 10
38.24339251630931
 20
114.5667939105226
 30
0.0
 40
2.5
 41
0.0
 71
     9
 72
     1
  1
C2.5
 73
     1
 44
1.0
1001
ACAD
1000
MTEXTBEGIN
1070
    73
1070
     1
1070
    44
1040
1.0
1070
    74
1070
     0
1000
MTEXTEND
  0
CIRCLE
  5
401
330
2
100
AcDbEntity
  8
Visible Narrow
100
AcDbCircle
 10
79.41725000606673
 20
236.5393393868955
 30
0.0
 40
1.3
  0
CIRCLE
  5
402
330
2
100
AcDbEntity
  8
Visible
100
AcDbCircle
 10
79.41725000606638
 20
236.5393393868955
 30
0.0
 40
1.149999999999999
  0
CIRCLE
  5
403
330
2
100
AcDbEntity
  8
Visible Narrow
100
AcDbCircle
 10
96.9172500060668
 20
234.0393393868962
 30
0.0
 40
1.3
  0
CIRCLE
  5
404
330
2
100
AcDbEntity
  8
Visible
100
AcDbCircle
 10
96.91725000606645
 20
234.0393393868962
 30
0.0
 40
1.149999999999999
  0
CIRCLE
  5
405
330
2
100
AcDbEntity
  8
Visible Narrow
100
AcDbCircle
 10
96.91725000606769
 20
212.0393393868961
 30
0.0
 40
1.3
  0
CIRCLE
  5
406
330
2
100
AcDbEntity
  8
Visible
100
AcDbCircle
 10
96.91725000606735
 20
212.0393393868961
 30
0.0
 40
1.149999999999999
  0
CIRCLE
  5
407
330
2
100
AcDbEntity
  8
Visible Narrow
100
AcDbCircle
 10
66.41725000606784
 20
209.5393393868949
 30
0.0
 40
1.3
  0
CIRCLE
  5
408
330
2
100
AcDbEntity
  8
Visible
100
AcDbCircle
 10
66.41725000606751
 20
209.5393393868949
 30
0.0
 40
1.149999999999999
  0
LINE
  5
409
330
2
100
AcDbEntity
  8
Visible
100
AcDbLine
 10
157.921029687472
 20
70.20149223055803
 30
0.0
 11
156.921029687472
 21
70.20149223055804
 31
0.0
  0
LINE
  5
40A
330
2
100
AcDbEntity
  8
Visible
100
AcDbLine
 10
156.9210296874706
 20
38.20149223055805
 30
0.0
 11
157.9210296874706
 21
38.201492230558
 31
0.0
  0
LINE
  5
40B
330
2
100
AcDbEntity
  8
Visible
100
AcDbLine
 10
169.9210296874708
 20
44.40353325942478
 30
0.0
 11
169.9210296874715
 21
63.99945120169022
 31
0.0
  0
ARC
  5
40C
330
2
100
AcDbEntity
  8
Visible
100
AcDbCircle
 10
167.9210296874716
 20
63.99945120169029
 30
0.0
 40
1.999999999999985
100
AcDbArc
 50
359.9999999999976
 51
44.41530859719009
  0
ARC
  5
40D
330
2
100
AcDbEntity
  8
Visible
100
AcDbCircle
 10
157.9210296874713
 20
54.201492230558
 30
0.0
 40
15.99999999999998
100
AcDbArc
 50
44.41530859719001
 51
89.99999999999836
  0
ARC
  5
40E
330
2
100
AcDbEntity
  8
Visible
100
AcDbCircle
 10
157.9210296874713
 20
54.20149223055791
 30
0.0
 40
16.0
100
AcDbArc
 50
269.9999999999984
 51
315.5846914028054
  0
ARC
  5
40F
330
2
100
AcDbEntity
  8
Visible
100
AcDbCircle
 10
167.9210296874708
 20
44.40353325942486
 30
0.0
 40
1.999999999999995
100
AcDbArc
 50
315.5846914028052
 51
359.9999999999976
  0
CIRCLE
  5
410
330
2
100
AcDbEntity
  8
Visible
100
AcDbCircle
 10
165.4210296874716
 20
65.20149223055887
 30
0.0
 40
2.04
  0
LINE
  5
411
330
2
100
AcDbEntity
  8
Visible
100
AcDbLine
 10
165.7210296874717
 20
66.40149223055883
 30
0.0
 11
165.1210296874717
 21
66.40149223055884
 31
0.0
  0
LINE
  5
412
330
2
100
AcDbEntity
  8
Visible
100
AcDbLine
 10
164.2210296874717
 20
65.50149223055889
 30
0.0
 11
165.1210296874717
 21
65.50149223055888
 31
0.0
  0
LINE
  5
413
330
2
100
AcDbEntity
  8
Visible
100
AcDbLine
 10
165.7210296874717
 20
65.50149223055884
 30
0.0
 11
166.6210296874717
 21
65.50149223055878
 31
0.0
  0
LINE
  5
414
330
2
100
AcDbEntity
  8
Visible
100
AcDbLine
 10
164.2210296874717
 20
64.90149223055886
 30
0.0
 11
165.1210296874717
 21
64.90149223055884
 31
0.0
  0
LINE
  5
415
330
2
100
AcDbEntity
  8
Visible
100
AcDbLine
 10
165.7210296874717
 20
64.90149223055883
 30
0.0
 11
166.6210296874717
 21
64.90149223055879
 31
0.0
  0
LINE
  5
416
330
2
100
AcDbEntity
  8
Visible
100
AcDbLine
 10
166.6210296874717
 20
64.90149223055879
 30
0.0
 11
166.6210296874717
 21
65.50149223055878
 31
0.0
  0
LINE
  5
417
330
2
100
AcDbEntity
  8
Visible
100
AcDbLine
 10
165.1210296874717
 20
66.40149223055884
 30
0.0
 11
165.1210296874717
 21
65.50149223055888
 31
0.0
  0
LINE
  5
418
330
2
100
AcDbEntity
  8
Visible
100
AcDbLine
 10
165.1210296874717
 20
64.90149223055884
 30
0.0
 11
165.1210296874717
 21
64.00149223055888
 31
0.0
  0
LINE
  5
419
330
2
100
AcDbEntity
  8
Visible
100
AcDbLine
 10
165.7210296874717
 20
66.40149223055883
 30
0.0
 11
165.7210296874717
 21
65.50149223055884
 31
0.0
  0
LINE
  5
41A
330
2
100
AcDbEntity
  8
Visible
100
AcDbLine
 10
165.7210296874717
 20
64.90149223055883
 30
0.0
 11
165.7210296874715
 21
64.00149223055885
 31
0.0
  0
LINE
  5
41B
330
2
100
AcDbEntity
  8
Visible
100
AcDbLine
 10
165.7210296874715
 20
64.00149223055885
 30
0.0
 11
165.1210296874717
 21
64.00149223055888
 31
0.0
  0
LINE
  5
41C
330
2
100
AcDbEntity
  8
Visible
100
AcDbLine
 10
164.2210296874717
 20
65.50149223055889
 30
0.0
 11
164.2210296874717
 21
64.90149223055886
 31
0.0
  0
LINE
  5
41D
330
2
100
AcDbEntity
  8
Center
100
AcDbLine
 10
148.4210296874682
 20
39.08383033243377
 30
0.0
 11
148.4210296874695
 21
70.2014922305584
 31
0.0
  0
CIRCLE
  5
41E
330
2
100
AcDbEntity
  8
Visible
100
AcDbCircle
 10
156.9210296874718
 20
67.70149223055921
 30
0.0
 40
1.1
  0
CIRCLE
  5
41F
330
2
100
AcDbEntity
  8
Visible
100
AcDbCircle
 10
156.9210296874707
 20
40.70149223055917
 30
0.0
 40
1.1
  0
CIRCLE
  5
420
330
2
100
AcDbEntity
  8
Visible
100
AcDbCircle
 10
165.4210296874716
 20
65.20149223055887
 30
0.0
 40
2.25
  0
CIRCLE
  5
421
330
2
100
AcDbEntity
  8
Visible
100
AcDbCircle
 10
165.4210296874708
 20
43.20149223055884
 30
0.0
 40
2.04
  0
LINE
  5
422
330
2
100
AcDbEntity
  8
Visible
100
AcDbLine
 10
165.7210296874708
 20
44.40149223055878
 30
0.0
 11
165.1210296874708
 21
44.40149223055882
 31
0.0
  0
LINE
  5
423
330
2
100
AcDbEntity
  8
Visible
100
AcDbLine
 10
164.2210296874708
 20
43.50149223055885
 30
0.0
 11
165.1210296874708
 21
43.50149223055885
 31
0.0
  0
LINE
  5
424
330
2
100
AcDbEntity
  8
Visible
100
AcDbLine
 10
165.7210296874708
 20
43.50149223055882
 30
0.0
 11
166.6210296874708
 21
43.50149223055876
 31
0.0
  0
LINE
  5
425
330
2
100
AcDbEntity
  8
Visible
100
AcDbLine
 10
164.2210296874708
 20
42.90149223055884
 30
0.0
 11
165.1210296874708
 21
42.90149223055879
 31
0.0
  0
LINE
  5
426
330
2
100
AcDbEntity
  8
Visible
100
AcDbLine
 10
165.7210296874708
 20
42.90149223055879
 30
0.0
 11
166.6210296874708
 21
42.90149223055876
 31
0.0
  0
LINE
  5
427
330
2
100
AcDbEntity
  8
Visible
100
AcDbLine
 10
166.6210296874708
 20
42.90149223055876
 30
0.0
 11
166.6210296874708
 21
43.50149223055876
 31
0.0
  0
LINE
  5
428
330
2
100
AcDbEntity
  8
Visible
100
AcDbLine
 10
165.1210296874708
 20
44.40149223055882
 30
0.0
 11
165.1210296874708
 21
43.50149223055885
 31
0.0
  0
LINE
  5
429
330
2
100
AcDbEntity
  8
Visible
100
AcDbLine
 10
165.1210296874708
 20
42.90149223055879
 30
0.0
 11
165.1210296874708
 21
42.00149223055885
 31
0.0
  0
LINE
  5
42A
330
2
100
AcDbEntity
  8
Visible
100
AcDbLine
 10
165.7210296874708
 20
44.40149223055878
 30
0.0
 11
165.7210296874708
 21
43.50149223055882
 31
0.0
  0
LINE
  5
42B
330
2
100
AcDbEntity
  8
Visible
100
AcDbLine
 10
165.7210296874708
 20
42.90149223055879
 30
0.0
 11
165.7210296874707
 21
42.00149223055881
 31
0.0
  0
LINE
  5
42C
330
2
100
AcDbEntity
  8
Visible
100
AcDbLine
 10
165.7210296874707
 20
42.00149223055881
 30
0.0
 11
165.1210296874708
 21
42.00149223055885
 31
0.0
  0
LINE
  5
42D
330
2
100
AcDbEntity
  8
Visible
100
AcDbLine
 10
164.2210296874708
 20
43.50149223055885
 30
0.0
 11
164.2210296874708
 21
42.90149223055884
 31
0.0
  0
CIRCLE
  5
42E
330
2
100
AcDbEntity
  8
Visible
100
AcDbCircle
 10
165.4210296874708
 20
43.20149223055884
 30
0.0
 40
2.25
  0
ARC
  5
42F
330
2
100
AcDbEntity
  8
Visible
100
AcDbCircle
 10
147.9210296874706
 20
40.70149223055953
 30
0.0
 40
2.04
100
AcDbArc
 50
296.5931879768653
 51
185.4218860159538
  0
LINE
  5
430
330
2
100
AcDbEntity
  8
Visible
100
AcDbLine
 10
148.2210296874707
 20
41.9014922305595
 30
0.0
 11
147.6210296874707
 21
41.90149223055953
 31
0.0
  0
LINE
  5
431
330
2
100
AcDbEntity
  8
Visible
100
AcDbLine
 10
146.7210296874707
 20
41.00149223055956
 30
0.0
 11
147.6210296874707
 21
41.00149223055956
 31
0.0
  0
LINE
  5
432
330
2
100
AcDbEntity
  8
Visible
100
AcDbLine
 10
148.2210296874707
 20
41.00149223055953
 30
0.0
 11
149.1210296874707
 21
41.00149223055947
 31
0.0
  0
LINE
  5
433
330
2
100
AcDbEntity
  8
Visible
100
AcDbLine
 10
146.7210296874707
 20
40.40149223055954
 30
0.0
 11
147.6210296874707
 21
40.40149223055952
 31
0.0
  0
LINE
  5
434
330
2
100
AcDbEntity
  8
Visible
100
AcDbLine
 10
148.2210296874707
 20
40.40149223055951
 30
0.0
 11
149.1210296874707
 21
40.40149223055947
 31
0.0
  0
LINE
  5
435
330
2
100
AcDbEntity
  8
Visible
100
AcDbLine
 10
149.1210296874707
 20
40.40149223055947
 30
0.0
 11
149.1210296874707
 21
41.00149223055947
 31
0.0
  0
LINE
  5
436
330
2
100
AcDbEntity
  8
Visible
100
AcDbLine
 10
147.6210296874707
 20
41.90149223055953
 30
0.0
 11
147.6210296874707
 21
41.00149223055956
 31
0.0
  0
LINE
  5
437
330
2
100
AcDbEntity
  8
Visible
100
AcDbLine
 10
147.6210296874707
 20
40.40149223055952
 30
0.0
 11
147.6210296874707
 21
39.50149223055957
 31
0.0
  0
LINE
  5
438
330
2
100
AcDbEntity
  8
Visible
100
AcDbLine
 10
148.2210296874707
 20
41.9014922305595
 30
0.0
 11
148.2210296874707
 21
41.00149223055953
 31
0.0
  0
LINE
  5
439
330
2
100
AcDbEntity
  8
Visible
100
AcDbLine
 10
148.2210296874707
 20
40.40149223055951
 30
0.0
 11
148.2210296874705
 21
39.50149223055954
 31
0.0
  0
LINE
  5
43A
330
2
100
AcDbEntity
  8
Visible
100
AcDbLine
 10
148.2210296874705
 20
39.50149223055954
 30
0.0
 11
147.6210296874707
 21
39.50149223055957
 31
0.0
  0
LINE
  5
43B
330
2
100
AcDbEntity
  8
Visible
100
AcDbLine
 10
146.7210296874707
 20
41.00149223055956
 30
0.0
 11
146.7210296874707
 21
40.40149223055954
 31
0.0
  0
ARC
  5
43C
330
2
100
AcDbEntity
  8
Visible
100
AcDbCircle
 10
147.9210296874706
 20
40.70149223055953
 30
0.0
 40
2.25
100
AcDbArc
 50
300.5865055704177
 51
181.428568422401
  0
CIRCLE
  5
43D
330
2
100
AcDbEntity
  8
Visible
100
AcDbCircle
 10
156.9210296874718
 20
67.70149223055921
 30
0.0
 40
1.35
  0
CIRCLE
  5
43E
330
2
100
AcDbEntity
  8
Visible
100
AcDbCircle
 10
156.9210296874707
 20
40.70149223055917
 30
0.0
 40
1.35
  0
LINE
  5
43F
330
2
100
AcDbEntity
  8
Visible
100
AcDbLine
 10
153.1710296874715
 20
89.80478509865887
 30
0.0
 11
162.6710296874713
 21
89.80478509865903
 31
0.0
  0
LINE
  5
440
330
2
100
AcDbEntity
  8
Visible
100
AcDbLine
 10
163.9210296874713
 20
91.80478509865904
 30
0.0
 11
163.9210296874713
 21
91.05478509865903
 31
0.0
  0
LINE
  5
441
330
2
100
AcDbEntity
  8
Visible
100
AcDbLine
 10
163.9210296874713
 20
91.05478509865903
 30
0.0
 11
162.6710296874713
 21
89.80478509865903
 31
0.0
  0
LINE
  5
442
330
2
100
AcDbEntity
  8
Visible
100
AcDbLine
 10
151.9210296874713
 20
91.80478509865904
 30
0.0
 11
151.9210296874713
 21
91.05478509865903
 31
0.0
  0
LINE
  5
443
330
2
100
AcDbEntity
  8
Visible
100
AcDbLine
 10
151.9210296874713
 20
91.05478509865903
 30
0.0
 11
153.1710296874715
 21
89.80478509865887
 31
0.0
  0
LINE
  5
444
330
2
100
AcDbEntity
  8
Visible
100
AcDbLine
 10
163.9210296874713
 20
91.05478509865903
 30
0.0
 11
151.9210296874713
 21
91.05478509865903
 31
0.0
  0
LINE
  5
445
330
2
100
AcDbEntity
  8
Visible
100
AcDbLine
 10
169.9210296874688
 20
91.80478509865904
 30
0.0
 11
138.0019920921488
 21
91.80478509865904
 31
0.0
  0
LINE
  5
446
330
2
100
AcDbEntity
  8
Visible
100
AcDbLine
 10
156.921029687472
 20
70.20149223055804
 30
0.0
 11
129.7479129891525
 21
70.20149223055806
 31
0.0
  0
LINE
  5
447
330
2
100
AcDbEntity
  8
Visible
100
AcDbLine
 10
156.9210296874706
 20
38.20149223055805
 30
0.0
 11
150.2956617851079
 21
38.20149223055806
 31
0.0
  0
LINE
  5
448
330
2
100
AcDbEntity
  8
Visible
100
AcDbLine
 10
169.9210296874688
 20
91.80478509865904
 30
0.0
 11
169.9210296874688
 21
103.1529083701045
 31
0.0
  0
ARC
  5
449
330
2
100
AcDbEntity
  8
Dimmention
100
AcDbCircle
 10
163.8972810145752
 20
69.53235615043843
 30
0.0
 40
34.15592305339557
100
AcDbArc
 50
167.2677870730247
 51
300.6599276937941
  0
ARC
  5
44A
330
2
100
AcDbEntity
  8
Dimmention
100
AcDbCircle
 10
163.8972810145752
 20
69.53235615043843
 30
0.0
 40
34.15592305339557
100
AcDbArc
 50
313.1102345293596
 51
157.7159265469572
  0
LINE
  5
44B
330
2
100
AcDbEntity
  8
Visible
100
AcDbLine
 10
129.9210296874719
 20
70.20149223055914
 30
0.0
 11
129.7479129891525
 21
70.20149223055914
 31
0.0
  0
ARC
  5
44C
330
2
100
AcDbEntity
  8
Visible
100
AcDbCircle
 10
129.9210296874718
 20
67.70149223056029
 30
0.0
 40
1.1
100
AcDbArc
 50
267.1962601465767
 51
98.9727203759778
  0
CIRCLE
  5
44D
330
2
100
AcDbEntity
  8
Visible
100
AcDbCircle
 10
134.9210296874718
 20
67.70149223056009
 30
0.0
 40
2.04
  0
LINE
  5
44E
330
2
100
AcDbEntity
  8
Visible
100
AcDbLine
 10
135.2210296874718
 20
68.90149223056005
 30
0.0
 11
134.6210296874718
 21
68.90149223056006
 31
0.0
  0
LINE
  5
44F
330
2
100
AcDbEntity
  8
Visible
100
AcDbLine
 10
133.7210296874718
 20
68.00149223056012
 30
0.0
 11
134.6210296874718
 21
68.0014922305601
 31
0.0
  0
LINE
  5
450
330
2
100
AcDbEntity
  8
Visible
100
AcDbLine
 10
135.2210296874718
 20
68.00149223056006
 30
0.0
 11
136.1210296874718
 21
68.00149223056003
 31
0.0
  0
LINE
  5
451
330
2
100
AcDbEntity
  8
Visible
100
AcDbLine
 10
133.7210296874718
 20
67.40149223056009
 30
0.0
 11
134.6210296874718
 21
67.40149223056008
 31
0.0
  0
LINE
  5
452
330
2
100
AcDbEntity
  8
Visible
100
AcDbLine
 10
135.2210296874718
 20
67.40149223056005
 30
0.0
 11
136.1210296874718
 21
67.40149223056
 31
0.0
  0
LINE
  5
453
330
2
100
AcDbEntity
  8
Visible
100
AcDbLine
 10
136.1210296874718
 20
67.40149223056
 30
0.0
 11
136.1210296874718
 21
68.00149223056003
 31
0.0
  0
LINE
  5
454
330
2
100
AcDbEntity
  8
Visible
100
AcDbLine
 10
134.6210296874718
 20
68.90149223056006
 30
0.0
 11
134.6210296874718
 21
68.0014922305601
 31
0.0
  0
LINE
  5
455
330
2
100
AcDbEntity
  8
Visible
100
AcDbLine
 10
134.6210296874718
 20
67.40149223056008
 30
0.0
 11
134.6210296874718
 21
66.5014922305601
 31
0.0
  0
LINE
  5
456
330
2
100
AcDbEntity
  8
Visible
100
AcDbLine
 10
135.2210296874718
 20
68.90149223056005
 30
0.0
 11
135.2210296874718
 21
68.00149223056006
 31
0.0
  0
LINE
  5
457
330
2
100
AcDbEntity
  8
Visible
100
AcDbLine
 10
135.2210296874718
 20
67.40149223056005
 30
0.0
 11
135.2210296874717
 21
66.50149223056008
 31
0.0
  0
LINE
  5
458
330
2
100
AcDbEntity
  8
Visible
100
AcDbLine
 10
135.2210296874717
 20
66.50149223056008
 30
0.0
 11
134.6210296874718
 21
66.5014922305601
 31
0.0
  0
LINE
  5
459
330
2
100
AcDbEntity
  8
Visible
100
AcDbLine
 10
133.7210296874718
 20
68.00149223056012
 30
0.0
 11
133.7210296874718
 21
67.40149223056009
 31
0.0
  0
CIRCLE
  5
45A
330
2
100
AcDbEntity
  8
Visible
100
AcDbCircle
 10
134.9210296874718
 20
67.70149223056009
 30
0.0
 40
2.25
  0
ARC
  5
45B
330
2
100
AcDbEntity
  8
Visible
100
AcDbCircle
 10
129.9210296874718
 20
67.70149223056029
 30
0.0
 40
1.35
100
AcDbArc
 50
268.6727527664007
 51
97.49622775615499
  0
ARC
  5
45C
330
2
100
AcDbEntity
  8
Visible
100
AcDbCircle
 10
157.9210301554599
 20
54.20149223055872
 30
0.0
 40
10.5
100
AcDbArc
 50
159.1372450777756
 51
155.8627549222228
  0
CIRCLE
  5
45D
330
2
100
AcDbEntity
  8
Visible Narrow
100
AcDbCircle
 10
157.9210301554599
 20
62.70149223055877
 30
0.0
 40
1.3
  0
CIRCLE
  5
45E
330
2
100
AcDbEntity
  8
Center
100
AcDbCircle
 10
157.9210301554596
 20
54.20149223055878
 30
0.0
 40
8.5
  0
CIRCLE
  5
45F
330
2
100
AcDbEntity
  8
Visible
100
AcDbCircle
 10
157.9210301554596
 20
62.70149223055877
 30
0.0
 40
1.149999999999999
  0
LINE
  5
460
330
2
100
AcDbEntity
  8
Visible
100
AcDbLine
 10
157.4210301554599
 20
52.20149223055876
 30
0.0
 11
158.4210301554599
 21
52.20149223055876
 31
0.0
  0
LINE
  5
461
330
2
100
AcDbEntity
  8
Visible
100
AcDbLine
 10
158.4210301554599
 20
56.20149223055875
 30
0.0
 11
157.4210301554599
 21
56.20149223055875
 31
0.0
  0
LINE
  5
462
330
2
100
AcDbEntity
  8
Visible
100
AcDbLine
 10
155.9210301554599
 20
54.70149223055876
 30
0.0
 11
157.4210301554599
 21
54.70149223055876
 31
0.0
  0
LINE
  5
463
330
2
100
AcDbEntity
  8
Visible
100
AcDbLine
 10
158.4210301554599
 20
54.70149223055876
 30
0.0
 11
159.9210301554599
 21
54.70149223055876
 31
0.0
  0
LINE
  5
464
330
2
100
AcDbEntity
  8
Visible
100
AcDbLine
 10
155.9210301554599
 20
53.70149223055875
 30
0.0
 11
157.4210301554599
 21
53.70149223055875
 31
0.0
  0
LINE
  5
465
330
2
100
AcDbEntity
  8
Visible
100
AcDbLine
 10
158.4210301554599
 20
53.70149223055875
 30
0.0
 11
159.9210301554599
 21
53.70149223055875
 31
0.0
  0
LINE
  5
466
330
2
100
AcDbEntity
  8
Visible
100
AcDbLine
 10
155.9210301554599
 20
54.70149223055876
 30
0.0
 11
155.9210301554599
 21
53.70149223055875
 31
0.0
  0
LINE
  5
467
330
2
100
AcDbEntity
  8
Visible
100
AcDbLine
 10
159.9210301554599
 20
53.70149223055875
 30
0.0
 11
159.9210301554599
 21
54.70149223055876
 31
0.0
  0
LINE
  5
468
330
2
100
AcDbEntity
  8
Visible
100
AcDbLine
 10
157.4210301554599
 20
56.20149223055875
 30
0.0
 11
157.4210301554599
 21
54.70149223055876
 31
0.0
  0
LINE
  5
469
330
2
100
AcDbEntity
  8
Visible
100
AcDbLine
 10
157.4210301554599
 20
53.70149223055875
 30
0.0
 11
157.4210301554599
 21
52.20149223055876
 31
0.0
  0
LINE
  5
46A
330
2
100
AcDbEntity
  8
Visible
100
AcDbLine
 10
158.4210301554599
 20
56.20149223055875
 30
0.0
 11
158.4210301554599
 21
54.70149223055876
 31
0.0
  0
LINE
  5
46B
330
2
100
AcDbEntity
  8
Visible
100
AcDbLine
 10
158.4210301554599
 20
53.70149223055875
 30
0.0
 11
158.4210301554599
 21
52.20149223055876
 31
0.0
  0
CIRCLE
  5
46C
330
2
100
AcDbEntity
  8
Visible
100
AcDbCircle
 10
157.9210301554596
 20
54.20149223055878
 30
0.0
 40
4.5
  0
CIRCLE
  5
46D
330
2
100
AcDbEntity
  8
Visible
100
AcDbCircle
 10
157.9210301554599
 20
54.20149223055872
 30
0.0
 40
6.5
  0
CIRCLE
  5
46E
330
2
100
AcDbEntity
  8
Visible Narrow
100
AcDbCircle
 10
151.9106225153741
 20
60.21189987064438
 30
0.0
 40
1.3
  0
CIRCLE
  5
46F
330
2
100
AcDbEntity
  8
Visible
100
AcDbCircle
 10
151.9106225153739
 20
60.21189987064417
 30
0.0
 40
1.149999999999999
  0
CIRCLE
  5
470
330
2
100
AcDbEntity
  8
Visible Narrow
100
AcDbCircle
 10
149.4210301554598
 20
54.2014922305587
 30
0.0
 40
1.3
  0
CIRCLE
  5
471
330
2
100
AcDbEntity
  8
Visible
100
AcDbCircle
 10
149.4210301554598
 20
54.20149223055836
 30
0.0
 40
1.149999999999999
  0
CIRCLE
  5
472
330
2
100
AcDbEntity
  8
Visible Narrow
100
AcDbCircle
 10
151.9106225153741
 20
48.191084590473
 30
0.0
 40
1.3
  0
CIRCLE
  5
473
330
2
100
AcDbEntity
  8
Visible
100
AcDbCircle
 10
151.9106225153743
 20
48.19108459047273
 30
0.0
 40
1.149999999999999
  0
CIRCLE
  5
474
330
2
100
AcDbEntity
  8
Visible Narrow
100
AcDbCircle
 10
157.9210301554598
 20
45.70149223055864
 30
0.0
 40
1.3
  0
CIRCLE
  5
475
330
2
100
AcDbEntity
  8
Visible
100
AcDbCircle
 10
157.9210301554602
 20
45.70149223055864
 30
0.0
 40
1.149999999999999
  0
CIRCLE
  5
476
330
2
100
AcDbEntity
  8
Visible Narrow
100
AcDbCircle
 10
163.9314377955456
 20
48.19108459047299
 30
0.0
 40
1.3
  0
CIRCLE
  5
477
330
2
100
AcDbEntity
  8
Visible
100
AcDbCircle
 10
163.9314377955459
 20
48.19108459047322
 30
0.0
 40
1.149999999999999
  0
CIRCLE
  5
478
330
2
100
AcDbEntity
  8
Visible Narrow
100
AcDbCircle
 10
166.4210301554599
 20
54.2014922305587
 30
0.0
 40
1.3
  0
CIRCLE
  5
479
330
2
100
AcDbEntity
  8
Visible
100
AcDbCircle
 10
166.4210301554599
 20
54.20149223055903
 30
0.0
 40
1.149999999999999
  0
CIRCLE
  5
47A
330
2
100
AcDbEntity
  8
Visible Narrow
100
AcDbCircle
 10
163.9314377955456
 20
60.21189987064438
 30
0.0
 40
1.3
  0
CIRCLE
  5
47B
330
2
100
AcDbEntity
  8
Visible
100
AcDbCircle
 10
163.9314377955453
 20
60.21189987064463
 30
0.0
 40
1.149999999999999
  0
LINE
  5
47C
330
2
100
AcDbEntity
  8
Center
100
AcDbLine
 10
147.4210301554599
 20
54.20149223055872
 30
0.0
 11
168.4210301554599
 21
54.20149223055872
 31
0.0
  0
LWPOLYLINE
  5
47D
330
2
100
AcDbEntity
  8
Visible
100
AcDbPolyline
 90
        4
 70
     1
 43
0.0
 10
147.4210301554599
 20
89.80478509865903
 10
168.4210301554599
 20
89.80478509865903
 10
168.4210301554599
 20
86.30478509865906
 10
147.4210301554599
 20
86.30478509865906
  0
LINE
  5
47E
330
2
100
AcDbEntity
  8
Center
100
AcDbLine
 10
89.41724953807883
 20
121.6635436617433
 30
0.0
 11
89.41724953807883
 21
116.1635436617433
 31
0.0
  0
LINE
  5
47F
330
2
100
AcDbEntity
  8
Center
100
AcDbLine
 10
157.9210296874714
 20
91.80478509865904
 30
0.0
 11
157.9210296874713
 21
86.30478509865906
 31
0.0
  0
LWPOLYLINE
  5
480
330
2
100
AcDbEntity
  8
Visible
100
AcDbPolyline
 90
        4
 70
     1
 43
0.0
 10
162.4210301554595
 20
85.30478509865906
 10
153.4210301554595
 20
85.30478509865906
 10
153.4210301554595
 20
86.30478509865906
 10
162.4210301554595
 20
86.30478509865906
  0
DIMENSION
  5
481
330
2
100
AcDbEntity
  8
Hatch (ISO)
100
AcDbDimension
  2
*D41
 10
149.4552746994959
 20
54.96371566225271
 30
0.0
 11
181.8864324136811
 21
52.0437413663617
 31
0.0
 70
   131
  1
PCD<>
 71
     5
 42
17.00000000000011
  3
Standard
100
AcDbDiametricDimension
 15
166.3867856114231
 25
53.43926879886488
 35
0.0
 40
0.0
1001
ACAD
1000
DSTYLE
1002
{
1070
    40
1040
1.0
1002
}
  0
DIMENSION
  5
48C
330
2
100
AcDbEntity
  8
Hatch (ISO)
100
AcDbDimension
  2
*D42
 10
148.5604279017725
 20
58.95850026589604
 30
0.0
 11
180.6783595086796
 21
42.63633908526435
 31
0.0
 70
   131
 71
     5
 42
21.00000000000006
  3
Standard
100
AcDbDiametricDimension
 15
167.2816324091472
 25
49.44448419522152
 35
0.0
 40
0.0
1001
ACAD
1000
DSTYLE
1002
{
1070
    40
1040
1.0
1002
}
  0
LEADER
  5
497
330
2
100
AcDbEntity
  8
Hatch (ISO)
100
AcDbLeader
  3
Standard
 73
     0
 40
2.5
 41
9.428934010152287
 76
     3
 10
163.9314377955455
 20
60.21189987064442
 30
0.0
 10
174.390949509005
 20
71.60859568353334
 30
0.0
 10
176.390949509005
 20
71.60859568353334
 30
0.0
340
498
213
0.0
223
-1.25
233
0.0
1001
ACAD
1000
DSTYLE
1002
{
1070
    40
1040
1.0
1070
    77
1070
     0
1002
}
  0
MTEXT
  5
498
102
{ACAD_REACTORS
330
497
102
}
330
2
100
AcDbEntity
  8
Hatch (ISO)
100
AcDbMText
 10
176.890949509005
 20
72.85859568353334
 30
0.0
 40
2.5
 41
0.0
 71
     1
 72
     1
  1
8-M2.6
 73
     1
 44
1.0
1001
ACAD
1000
MTEXTBEGIN
1070
    73
1070
     1
1070
    44
1040
1.0
1070
    74
1070
     0
1000
MTEXTEND
  0
DIMENSION
  5
499
330
2
100
AcDbEntity
  8
Dimmention
100
AcDbDimension
  2
*D43
 10
182.3618121122585
 20
86.30478509865906
 30
0.0
 11
180.6118121122585
 21
81.53321149459818
 31
0.0
 71
     5
 42
5.499999999999985
  3
Standard
100
AcDbAlignedDimension
 13
169.9210296874688
 23
91.80478509865904
 33
0.0
 14
168.4210301554599
 24
86.30478509865906
 34
0.0
 50
90.0
100
AcDbRotatedDimension
1001
ACAD
1000
DSTYLE
1002
{
1070
    40
1040
1.0
1002
}
  0
DIMENSION
  5
4A7
330
2
100
AcDbEntity
  8
Dimmention
100
AcDbDimension
  2
*D44
 10
175.0491040119737
 20
86.30478509865906
 30
0.0
 11
173.2991040119737
 21
79.53321149459816
 31
0.0
 71
     5
 42
3.5
  3
Standard
100
AcDbAlignedDimension
 13
168.4210301554599
 23
89.80478509865903
 33
0.0
 14
168.4210301554599
 24
86.30478509865906
 34
0.0
 50
90.0
100
AcDbRotatedDimension
1001
ACAD
1000
DSTYLE
1002
{
1070
    40
1040
1.0
1002
}
  0
DIMENSION
  5
4B6
330
2
100
AcDbEntity
  8
Dimmention
100
AcDbDimension
  2
*D45
 10
166.080247383329
 20
85.30478509865906
 30
0.0
 11
164.330247383329
 21
78.59031809358295
 31
0.0
 71
     5
 42
-1.0
  3
Standard
100
AcDbAlignedDimension
 13
162.4210301554595
 23
86.30478509865906
 33
0.0
 14
162.4210301554595
 24
85.30478509865906
 34
0.0
 50
90.0
100
AcDbRotatedDimension
1001
ACAD
1000
DSTYLE
1002
{
1070
    40
1040
1.0
1002
}
  0
DIMENSION
  5
4C5
330
2
100
AcDbEntity
  8
Dimmention
100
AcDbDimension
  2
*D46
 10
153.6281073483941
 20
52.85211690375827
 30
0.0
 11
181.4068790302366
 21
61.58369461920442
 31
0.0
 70
   131
  1
<>\P(ネジ頭)
 71
     5
 42
9.000000000000023
  3
Standard
100
AcDbDiametricDimension
 15
162.2139529625249
 25
55.55086755735928
 35
0.0
 40
0.0
1001
ACAD
1000
DSTYLE
1002
{
1070
    40
1040
1.0
1002
}
  0
LEADER
  5
4D0
330
2
100
AcDbEntity
  8
Dimmention
100
AcDbLeader
  3
Standard
 73
     0
 40
2.80456852791878
 41
18.71827411167513
 76
     3
 10
155.1125198336744
 20
87.62640588738344
 30
0.0
 10
150.6623213291127
 20
80.01786263703825
 30
0.0
 10
148.9056634765481
 20
80.01786263703825
 30
0.0
340
4D1
213
0.0
223
1.25
233
0.0
1001
ACAD
1000
DSTYLE
1002
{
1070
    40
1040
1.0
1070
    77
1070
     0
1002
}
  0
MTEXT
  5
4D1
102
{ACAD_REACTORS
330
4D0
102
}
330
2
100
AcDbEntity
  8
Dimmention
100
AcDbMText
 10
148.4056634765481
 20
78.76786263703826
 30
0.0
 40
2.5
 41
0.0
 71
     9
 72
     1
  1
フリーホーン
 73
     1
 44
1.0
1001
ACAD
1000
MTEXTBEGIN
1070
    73
1070
     1
1070
    44
1040
1.0
1070
    74
1070
     0
1000
MTEXTEND
  0
MTEXT
  5
4D2
330
2
100
AcDbEntity
  8
Dimmention
100
AcDbMText
 10
136.3869161385921
 20
110.3676836591845
 30
0.0
 40
4.0
 41
94.01300682594365
 71
     1
 72
     5
  1
フリーホーン装着時寸法
 73
     1
 44
1.0
1001
ACAD
1000
MTEXTBEGIN
1070
    73
1070
     1
1070
    44
1040
1.0
1070
    74
1070
     0
1000
MTEXTEND
1000
ACAD_MTEXT_DEFINED_HEIGHT_BEGIN
1070
    46
1040
14.02563562529744
1000
ACAD_MTEXT_DEFINED_HEIGHT_END
  0
LWPOLYLINE
  5
4D3
330
2
100
AcDbEntity
  8
Dimmention
100
AcDbPolyline
 90
        4
 70
     1
 43
0.0
 10
134.8035048952359
 20
111.5682679359506
 10
193.4275024444123
 20
111.5682679359506
 10
193.4275024444123
 20
104.479533649962
 10
134.8035048952359
 20
104.479533649962
  0
DIMENSION
  5
4D4
330
2
100
AcDbEntity
  8
Dimmention
100
AcDbDimension
  2
*D47
 10
106.8886472113014
 20
166.6635436617445
 30
0.0
 11
105.1386472113014
 21
173.4668431541303
 31
0.0
 71
     5
 42
5.0
  3
Standard
100
AcDbAlignedDimension
 13
99.91724953807873
 23
161.6635436617445
 33
0.0
 14
99.91724953807873
 24
166.6635436617445
 34
0.0
 50
90.0
100
AcDbRotatedDimension
1001
ACAD
1000
DSTYLE
1002
{
1070
    40
1040
1.0
1002
}
  0
LEADER
  5
4E3
330
2
100
AcDbEntity
  8
Dimmention
100
AcDbLeader
  3
Standard
 73
     0
 40
7.478849407783418
 41
19.07360406091371
 76
     3
 10
82.60975272917153
 20
164.4014672300793
 30
0.0
 10
75.55140456142955
 20
171.5078265664707
 30
0.0
 10
73.55140456142954
 20
171.5078265664707
 30
0.0
340
4E4
213
0.0
223
1.25
233
0.0
1001
ACAD
1000
DSTYLE
1002
{
1070
    40
1040
1.0
1070
    77
1070
     0
1002
}
  0
MTEXT
  5
4E4
102
{ACAD_XDICTIONARY
360
1834
102
}
102
{ACAD_REACTORS
330
4E3
102
}
330
2
100
AcDbEntity
  8
Dimmention
100
AcDbMText
 10
73.05140456142955
 20
170.2578265664707
 30
0.0
 40
2.5
 41
0.0
 71
     9
 72
     1
  1
サーボホーン\P(装着済)
 73
     1
 44
1.0
1001
ACAD
1000
MTEXTBEGIN
1070
    73
1070
     1
1070
    44
1040
1.0
1070
    74
1070
     0
1000
MTEXTEND
  0
LINE
  5
1735
330
2
100
AcDbEntity
  8
Visible
100
AcDbLine
 10
167.6378519083039
 20
116.6635436617433
 30
0.0
 11
167.6378519083039
 21
119.6635436617433
 31
0.0
  0
ARC
  5
1736
330
2
100
AcDbEntity
  8
Visible
100
AcDbCircle
 10
167.1378519083039
 20
116.6635436617433
 30
0.0
 40
0.5
100
AcDbArc
 50
270.0
 51
0.0
  0
LINE
  5
1737
330
2
100
AcDbEntity
  8
Visible
100
AcDbLine
 10
158.8878519083041
 20
119.6635436617431
 30
0.0
 11
163.637851908304
 21
119.6635436617432
 31
0.0
  0
LINE
  5
1738
330
2
100
AcDbEntity
  8
Visible
100
AcDbLine
 10
169.6378519083039
 20
121.6635436617433
 30
0.0
 11
169.6378519083039
 21
120.9135436617433
 31
0.0
  0
LINE
  5
1739
330
2
100
AcDbEntity
  8
Visible
100
AcDbLine
 10
169.6378519083039
 20
120.9135436617433
 30
0.0
 11
168.3878519083039
 21
119.6635436617433
 31
0.0
  0
LINE
  5
173A
330
2
100
AcDbEntity
  8
Visible
100
AcDbLine
 10
159.6378519083039
 20
116.6635436617433
 30
0.0
 11
159.6378519083039
 21
119.6635436617433
 31
0.0
  0
LINE
  5
173B
330
2
100
AcDbEntity
  8
Visible
100
AcDbLine
 10
157.6378519083039
 20
121.6635436617433
 30
0.0
 11
157.6378519083039
 21
120.9135436617433
 31
0.0
  0
LINE
  5
173C
330
2
100
AcDbEntity
  8
Visible
100
AcDbLine
 10
157.6378519083039
 20
120.9135436617433
 30
0.0
 11
158.8878519083041
 21
119.6635436617431
 31
0.0
  0
LINE
  5
173D
330
2
100
AcDbEntity
  8
Visible
100
AcDbLine
 10
167.1378519083039
 20
116.1635436617433
 30
0.0
 11
160.1378519083039
 21
116.1635436617433
 31
0.0
  0
ARC
  5
173E
330
2
100
AcDbEntity
  8
Visible
100
AcDbCircle
 10
160.1378519083039
 20
116.6635436617433
 30
0.0
 40
0.5
100
AcDbArc
 50
180.0
 51
270.0
  0
LINE
  5
173F
330
2
100
AcDbEntity
  8
Visible
100
AcDbLine
 10
163.637851908304
 20
120.9135436617433
 30
0.0
 11
157.6378519083039
 21
120.9135436617433
 31
0.0
  0
LINE
  5
1748
330
2
100
AcDbEntity
  8
Visible
100
AcDbLine
 10
167.6378519083039
 20
119.6635436617433
 30
0.0
 11
168.3878519083039
 21
119.6635436617433
 31
0.0
  0
LINE
  5
1749
330
2
100
AcDbEntity
  8
Visible
100
AcDbLine
 10
163.637851908304
 20
121.6635436617433
 30
0.0
 11
147.6378519083041
 21
121.6635436617433
 31
0.0
  0
LINE
  5
174A
330
2
100
AcDbEntity
  8
Visible
100
AcDbLine
 10
169.6378519083039
 20
121.6635436617435
 30
0.0
 11
179.6378519083041
 21
121.6635436617433
 31
0.0
  0
VIEWPORT
  5
523
102
{ACAD_XDICTIONARY
360
1836
102
}
330
10
100
AcDbEntity
 67
     1
  8
0
100
AcDbViewport
 10
310.2877632305854
 20
198.5426988025374
 30
0.0
 40
1073.498792476229
 41
515.8815102148355
 68
     1
 69
     1
 12
310.2877632305854
 22
198.5426988025374
 13
0.0
 23
0.0
 14
1.0
 24
1.0
 15
0.0
 25
0.0
 16
0.0
 26
0.0
 36
1.0
 17
0.0
 27
0.0
 37
0.0
 42
50.0
 43
0.0
 44
0.0
 45
515.8815102148355
 50
0.0
 51
0.0
 72
  2000
 90
   819232
  1

281
     0
 71
     0
 74
     0
110
0.0
120
0.0
130
0.0
111
1.0
121
0.0
131
0.0
112
0.0
122
1.0
132
0.0
 79
     0
146
0.0
1001
GENIUS_GENOBJ-N-SDF_13
1002
{
1000
OWNER
1000
GEN
1002
}
1001
GENIUS_GENODEF_13
1002
{
1000
HIER
1070
     0
1002
}
1002
{
1000
MANEDIT
1070
     0
1002
}
1002
{
1000
NOSEL
1070
     0
1002
}
1002
{
1000
BEHIND
1070
     0
1002
}
1002
{
1000
OTHER
1070
     0
1002
}
1002
{
1000
REACTOR
1002
}
1001
GENIUS_GENSCREG_15
1000
PF
1040
1.0
1000
DF
1040
1.0
1000
MIN
1011
-151.1754420711365
1021
-6.35551322794123
1031
0.0
1000
MAX
1011
519.9838371170456
1021
306.3836273361856
1031
0.0
1000
FLAGS
1070
     4
  0
ENDSEC
  0
SECTION
  2
OBJECTS
  0
DICTIONARY
  5
9
330
0
100
AcDbDictionary
281
     1
  3
ACAD_2007HEADERVARS_RT
350
1813
  3
ACAD_COLOR
350
37
  3
ACAD_GROUP
350
32
  3
ACAD_LAYOUT
350
F
  3
ACAD_MATERIAL
350
B
  3
ACAD_MLEADERSTYLE
350
1528
  3
ACAD_MLINESTYLE
350
33
  3
ACAD_PLOTSETTINGS
350
34
  3
ACAD_PLOTSTYLENAME
350
8
  3
ACAD_SCALELIST
350
1516
  3
ACAD_TABLESTYLE
350
38
  3
ACAD_VISUALSTYLE
350
27
  3
ACDB_RECOMPOSE_DATA
350
1675
  3
AcDbVariableDictionary
350
4E8
  3
AcmDictionary
350
1588
  3
AMG
350
152D
  3
AMGSNAPSETTINGS
350
15CF
  3
ASE_INDEX_DICTIONARY
350
512
  3
DWGPROPS
350
1812
  0
DICTIONARY
  5
17
330
16
100
AcDbDictionary
280
     1
281
     1
  3
ACAD_LAYERFILTERS
360
18
  3
ACAD_LAYERSTATES
360
19
  3
ACLYDICTIONARY
360
1A
  3
AMLAYER_GROUPCOLORS
360
15D8
  0
DICTIONARY
  5
15D9
330
6
100
AcDbDictionary
280
     1
281
     1
  3
ADSK_XREC_LAYER_RECONCILED
360
15DA
  0
DICTIONARY
  5
15DB
330
3F
100
AcDbDictionary
280
     1
281
     1
  3
ADSK_XREC_LAYER_RECONCILED
360
15DC
  0
DICTIONARY
  5
15DD
330
39
100
AcDbDictionary
280
     1
281
     1
  3
ADSK_XREC_LAYER_RECONCILED
360
15DE
  0
DICTIONARY
  5
15DF
330
B6
100
AcDbDictionary
280
     1
281
     1
  3
ADSK_XREC_LAYER_RECONCILED
360
15E0
  0
DICTIONARY
  5
15E1
330
1CA
100
AcDbDictionary
280
     1
281
     1
  3
ADSK_XREC_LAYER_RECONCILED
360
15E2
  0
DICTIONARY
  5
15E3
330
1D5
100
AcDbDictionary
280
     1
281
     1
  3
ADSK_XREC_LAYER_RECONCILED
360
15E4
  0
DICTIONARY
  5
15E5
330
186
100
AcDbDictionary
280
     1
281
     1
  3
ADSK_XREC_LAYER_RECONCILED
360
15E6
  0
DICTIONARY
  5
3
330
2
100
AcDbDictionary
280
     1
281
     1
  3
ACAD_SORTENTS
360
4E5
  0
DICTIONARY
  5
1820
330
356
100
AcDbDictionary
280
     1
281
     1
  3
ACAD_MTEXT_RT
360
1821
  0
DICTIONARY
  5
1822
330
36E
100
AcDbDictionary
280
     1
281
     1
  3
ACAD_MTEXT_RT
360
1823
  0
DICTIONARY
  5
1824
330
379
100
AcDbDictionary
280
     1
281
     1
  3
ACAD_MTEXT_RT
360
1825
  0
DICTIONARY
  5
1826
330
384
100
AcDbDictionary
280
     1
281
     1
  3
ACAD_MTEXT_RT
360
1827
  0
DICTIONARY
  5
1828
330
3C7
100
AcDbDictionary
280
     1
281
     1
  3
ACAD_MTEXT_RT
360
1829
  0
DICTIONARY
  5
182A
330
3D2
100
AcDbDictionary
280
     1
281
     1
  3
ACAD_MTEXT_RT
360
182B
  0
DICTIONARY
  5
182C
330
3DD
100
AcDbDictionary
280
     1
281
     1
  3
ACAD_MTEXT_RT
360
182D
  0
DICTIONARY
  5
182E
330
488
100
AcDbDictionary
280
     1
281
     1
  3
ACAD_MTEXT_RT
360
182F
  0
DICTIONARY
  5
1830
330
493
100
AcDbDictionary
280
     1
281
     1
  3
ACAD_MTEXT_RT
360
1831
  0
DICTIONARY
  5
1832
330
4CC
100
AcDbDictionary
280
     1
281
     1
  3
ACAD_MTEXT_RT
360
1833
  0
DICTIONARY
  5
181C
330
1BF
100
AcDbDictionary
280
     1
281
     1
  3
ACAD_MTEXT_RT
360
181D
  0
DICTIONARY
  5
181E
330
1C5
100
AcDbDictionary
280
     1
281
     1
  3
ACAD_MTEXT_RT
360
181F
  0
DICTIONARY
  5
1834
330
4E4
100
AcDbDictionary
280
     1
281
     1
  3
ACAD_MTEXT_RT
360
1835
  0
DICTIONARY
  5
1836
330
523
100
AcDbDictionary
280
     1
281
     1
  3
ACAD_XREC_ROUNDTRIP
360
1837
  0
DICTIONARY
  5
1813
102
{ACAD_REACTORS
330
9
102
}
330
9
100
AcDbDictionary
281
     1
  3
DIMARCSYM
350
1814
  3
DIMLTEX1
350
1816
  3
DIMLTEX2
350
1817
  3
DIMLTYPE
350
1815
  0
DICTIONARY
  5
37
102
{ACAD_REACTORS
330
9
102
}
330
9
100
AcDbDictionary
281
     1
  0
DICTIONARY
  5
32
102
{ACAD_REACTORS
330
9
102
}
330
9
100
AcDbDictionary
281
     1
  0
DICTIONARY
  5
F
102
{ACAD_REACTORS
330
9
102
}
330
9
100
AcDbDictionary
281
     1
  3
01
350
13
  3
Model
350
E
  0
DICTIONARY
  5
B
102
{ACAD_REACTORS
330
9
102
}
330
9
100
AcDbDictionary
281
     1
  3
ByBlock
350
36
  3
ByLayer
350
35
  3
Global
350
A
  0
DICTIONARY
  5
1528
102
{ACAD_REACTORS
330
9
102
}
330
9
100
AcDbDictionary
281
     1
  3
Standard
350
1529
  0
DICTIONARY
  5
33
102
{ACAD_REACTORS
330
9
102
}
330
9
100
AcDbDictionary
281
     1
  3
Standard
350
3A
  0
DICTIONARY
  5
34
102
{ACAD_REACTORS
330
9
102
}
330
9
100
AcDbDictionary
281
     1
  0
ACDBDICTIONARYWDFLT
  5
8
102
{ACAD_REACTORS
330
9
102
}
330
9
100
AcDbDictionary
281
     1
  3
Normal
350
7
100
AcDbDictionaryWithDefault
340
7
  0
DICTIONARY
  5
1516
102
{ACAD_REACTORS
330
9
102
}
330
9
100
AcDbDictionary
281
     1
  3
A0
350
1517
  3
A1
350
1518
  3
A2
350
1519
  3
A3
350
151A
  3
A4
350
151B
  3
A5
350
151C
  3
A6
350
151D
  3
A7
350
151E
  3
A8
350
151F
  3
A9
350
1520
  3
B0
350
1521
  3
B1
350
1522
  3
B2
350
1523
  3
B3
350
1524
  3
B4
350
1525
  3
B5
350
1526
  3
B6
350
1527
  0
DICTIONARY
  5
38
102
{ACAD_REACTORS
330
9
102
}
330
9
100
AcDbDictionary
281
     1
  3
Standard
350
3B
  0
DICTIONARY
  5
27
102
{ACAD_REACTORS
330
9
102
}
330
9
100
AcDbDictionary
281
     1
  3
2dWireframe
350
26
  3
3D Hidden
350
507
  3
3dWireframe
350
3D
  3
Basic
350
506
  3
Brighten
350
50A
  3
ColorChange
350
50E
  3
Conceptual
350
508
  3
Dim
350
509
  3
Facepattern
350
50D
  3
Flat
350
502
  3
FlatWithEdges
350
503
  3
Gouraud
350
504
  3
GouraudWithEdges
350
505
  3
Linepattern
350
50C
  3
Realistic
350
3C
  3
Thicken
350
50B
  0
XRECORD
  5
1675
102
{ACAD_REACTORS
330
9
102
}
330
9
100
AcDbXrecord
280
     1
 90
        1
330
3B
  0
DICTIONARY
  5
4E8
102
{ACAD_REACTORS
330
9
102
}
330
9
100
AcDbDictionary
281
     1
  3
CANNOSCALE
350
1672
  3
CMLEADERSTYLE
350
1671
  3
CTABLESTYLE
350
4E9
  3
DIMASSOC
350
4ED
  3
HIDETEXT
350
4EC
  3
INDEXCTL
350
4EB
  3
SORTENTS
350
4EA
  0
DICTIONARY
  5
1588
102
{ACAD_REACTORS
330
9
102
}
330
9
100
AcDbDictionary
281
     1
  3
AcmStdDictionary
350
1593
  0
DICTIONARY
  5
152D
102
{ACAD_REACTORS
330
9
102
}
330
9
100
AcDbDictionary
281
     1
  0
DICTIONARY
  5
15CF
102
{ACAD_REACTORS
330
9
102
}
330
9
100
AcDbDictionary
281
     1
  0
DICTIONARY
  5
512
102
{ACAD_REACTORS
330
9
102
}
330
9
100
AcDbDictionary
281
     1
  3
ASEBlockHierarchyIndexRecord
350
514
1001
DCO15
1040
1648309130.922
  0
XRECORD
  5
1812
102
{ACAD_REACTORS
330
9
102
}
330
9
100
AcDbXrecord
280
     1
  1
DWGPROPS COOKIE
  2

  3

  4

  6

  7

  8
Y.Shibata
  9

300
=
301
=
302
=
303
=
304
=
305
=
306
=
307
=
308
=
309
=
 40
0.4504416087962963
 41
2453314.561093206
 42
2455379.445237269
  1

 90
        0
  0
DICTIONARY
  5
18
102
{ACAD_REACTORS
330
17
102
}
330
17
100
AcDbDictionary
281
     1
  0
DICTIONARY
  5
19
102
{ACAD_REACTORS
330
17
102
}
330
17
100
AcDbDictionary
281
     1
  0
DICTIONARY
  5
1A
102
{ACAD_REACTORS
330
17
102
}
330
17
100
AcDbDictionary
281
     1
1001
ACAD
1000
<All
  0
DICTIONARY
  5
15D8
102
{ACAD_REACTORS
330
17
102
}
330
17
100
AcDbDictionary
280
     1
281
     1
  0
XRECORD
  5
15DA
102
{ACAD_REACTORS
330
15D9
102
}
330
15D9
100
AcDbXrecord
280
     1
290
     1
  0
XRECORD
  5
15DC
102
{ACAD_REACTORS
330
15DB
102
}
330
15DB
100
AcDbXrecord
280
     1
290
     1
  0
XRECORD
  5
15DE
102
{ACAD_REACTORS
330
15DD
102
}
330
15DD
100
AcDbXrecord
280
     1
290
     1
  0
XRECORD
  5
15E0
102
{ACAD_REACTORS
330
15DF
102
}
330
15DF
100
AcDbXrecord
280
     1
290
     1
  0
XRECORD
  5
15E2
102
{ACAD_REACTORS
330
15E1
102
}
330
15E1
100
AcDbXrecord
280
     1
290
     1
  0
XRECORD
  5
15E4
102
{ACAD_REACTORS
330
15E3
102
}
330
15E3
100
AcDbXrecord
280
     1
290
     1
  0
XRECORD
  5
15E6
102
{ACAD_REACTORS
330
15E5
102
}
330
15E5
100
AcDbXrecord
280
     1
290
     1
  0
SORTENTSTABLE
  5
4E5
102
{ACAD_REACTORS
330
3
102
}
330
3
100
AcDbSortentsTable
330
2
331
1748
  5
173A
331
470
  5
472
331
239
  5
23B
331
2F2
  5
300
331
25B
  5
25D
331
285
  5
287
331
1CB
  5
1CC
331
2A7
  5
2A9
331
401
  5
403
331
A7
  5
A8
331
423
  5
425
331
445
  5
447
331
1EB
  5
1EC
331
1737
  5
1739
331
467
  5
469
331
DE
  5
DF
331
B5
  5
B8
331
20D
  5
20F
331
3A0
  5
3A2
331
24A
  5
24C
331
22F
  5
231
331
1B9
  5
1BA
331
85
  5
85
331
63
  5
63
331
48C
  5
498
331
26C
  5
26E
331
296
  5
298
331
184
  5
185
331
497
  5
499
331
96
  5
97
331
434
  5
436
331
1DA
  5
1DB
331
456
  5
458
331
21E
  5
220
331
1FC
  5
1FE
331
412
  5
414
331
74
  5
74
331
52
  5
52
331
41
  5
41
331
2F0
  5
2F2
331
259
  5
25B
331
283
  5
285
331
1C9
  5
1CB
331
35C
  5
367
331
2A5
  5
2A7
331
2EF
  5
2F1
331
A5
  5
A6
331
421
  5
423
331
443
  5
445
331
1E9
  5
1EA
331
1735
  5
1737
331
465
  5
467
331
DC
  5
DD
331
B3
  5
B4
331
20B
  5
20D
331
47F
  5
481
331
248
  5
24A
331
22D
  5
22F
331
1B7
  5
1B8
331
83
  5
83
331
61
  5
61
331
26A
  5
26C
331
294
  5
296
331
182
  5
183
331
2B6
  5
2B8
331
FC
  5
109
331
94
  5
95
331
410
  5
412
331
3FF
  5
401
331
432
  5
434
331
1D8
  5
1D9
331
454
  5
456
331
21C
  5
21E
331
1FA
  5
1FC
331
BE
  5
BF
331
72
  5
72
331
50
  5
50
331
281
  5
283
331
4D3
  5
4E3
331
35A
  5
35C
331
E1
  5
E2
331
2A3
  5
2A5
331
2ED
  5
2EF
331
A3
  5
A4
331
41F
  5
421
331
441
  5
443
331
1E7
  5
1E8
331
463
  5
465
331
B1
  5
B2
331
209
  5
20B
331
47D
  5
47F
331
2BD
  5
2D8
331
246
  5
248
331
22B
  5
22D
331
1B5
  5
1B6
331
81
  5
81
331
268
  5
26A
331
1AF
  5
1B0
331
341
  5
35A
331
180
  5
181
331
292
  5
294
331
2B4
  5
2B6
331
92
  5
93
331
40E
  5
410
331
430
  5
432
331
1C6
  5
1C7
331
452
  5
454
331
257
  5
259
331
21A
  5
21C
331
1F8
  5
1FA
331
BC
  5
BD
331
70
  5
70
331
5F
  5
5F
331
4E
  5
4E
331
4D1
  5
4D3
331
2A1
  5
2A3
331
2EB
  5
2ED
331
A1
  5
A2
331
41D
  5
41F
331
1E5
  5
1E6
331
43F
  5
441
331
156
  5
163
331
461
  5
463
331
47B
  5
47D
331
38A
  5
39A
331
229
  5
22B
331
244
  5
246
331
2BB
  5
2BD
331
207
  5
209
331
1B3
  5
1B4
331
266
  5
268
331
1AD
  5
1AE
331
39F
  5
3A1
331
1D6
  5
1D7
331
290
  5
292
331
2B2
  5
2B4
331
90
  5
91
331
40C
  5
40E
331
42E
  5
430
331
1C4
  5
1C5
331
450
  5
452
331
3B3
  5
3CB
331
218
  5
21A
331
255
  5
257
331
1F6
  5
1F8
331
BA
  5
BB
331
6E
  5
6E
331
27F
  5
281
331
7F
  5
7F
331
5D
  5
5D
331
4C
  5
4C
331
2E9
  5
2EB
331
41B
  5
41D
331
1B1
  5
1B2
331
43D
  5
43F
331
45F
  5
461
331
205
  5
207
331
479
  5
47B
331
388
  5
38A
331
227
  5
229
331
242
  5
244
331
2B9
  5
2BB
331
1E3
  5
1E4
331
264
  5
266
331
1AB
  5
1AC
331
4B6
  5
4D0
331
39D
  5
39F
331
1D4
  5
1D6
331
28E
  5
290
331
367
  5
37D
331
8E
  5
8F
331
40A
  5
40C
331
109
  5
116
331
B8
  5
B9
331
42C
  5
42E
331
44E
  5
450
331
1F4
  5
1F6
331
276
  5
278
331
216
  5
218
331
3E3
  5
3FF
331
17F
  5
180
331
253
  5
255
331
1C2
  5
1C3
331
2B0
  5
2B2
331
6C
  5
6C
331
27D
  5
27F
331
34E
  5
35B
331
29F
  5
2A1
331
9F
  5
A0
331
7D
  5
7D
331
5B
  5
5B
331
4A
  5
4A
331
419
  5
41B
331
120
  5
12D
331
43B
  5
43D
331
1E1
  5
1E2
331
45D
  5
45F
331
477
  5
479
331
225
  5
227
331
240
  5
242
331
203
  5
205
331
262
  5
264
331
39B
  5
39D
331
1D2
  5
1D3
331
28C
  5
28E
331
2AE
  5
2B0
331
8C
  5
8D
331
408
  5
40A
331
42A
  5
42C
331
1C0
  5
1C1
331
44C
  5
44E
331
274
  5
277
331
214
  5
216
331
173E
  5
1749
331
46E
  5
470
331
17D
  5
17E
331
1F2
  5
1F3
331
3E1
  5
3E3
331
2D8
  5
2E6
331
251
  5
253
331
236
  5
238
331
AE
  5
AF
331
6A
  5
6A
331
31A
  5
334
331
27B
  5
27D
331
4E4
  5
1736
331
29D
  5
29F
331
9D
  5
9E
331
7B
  5
7B
331
59
  5
59
331
48
  5
48
331
439
  5
43B
331
45B
  5
45D
331
201
  5
203
331
475
  5
477
331
223
  5
225
331
23E
  5
240
331
480
  5
48C
331
260
  5
262
331
399
  5
39B
331
1D0
  5
1D1
331
28A
  5
28C
331
2AC
  5
2AE
331
8A
  5
8B
331
406
  5
408
331
428
  5
42A
331
1BE
  5
1BF
331
44A
  5
44C
331
173C
  5
173F
331
46C
  5
46E
331
272
  5
274
331
212
  5
214
331
24F
  5
251
331
234
  5
236
331
1F0
  5
1F1
331
AC
  5
AD
331
68
  5
68
331
499
  5
4B6
331
CF
  5
DC
331
279
  5
27B
331
29B
  5
29D
331
C1
  5
CF
331
417
  5
419
331
116
  5
120
331
9B
  5
9C
331
1DF
  5
1E0
331
79
  5
79
331
57
  5
57
331
46
  5
46
331
459
  5
45B
331
473
  5
475
331
221
  5
223
331
23C
  5
23E
331
25E
  5
260
331
327
  5
341
331
1CE
  5
1CF
331
288
  5
28A
331
2AA
  5
2AC
331
404
  5
406
331
AA
  5
AB
331
426
  5
428
331
12D
  5
13A
331
448
  5
44A
331
173A
  5
173D
331
46A
  5
46C
331
270
  5
272
331
210
  5
212
331
3A3
  5
3B3
331
232
  5
234
331
24D
  5
24F
331
1EE
  5
1EF
331
1BC
  5
1BD
331
88
  5
88
331
2E6
  5
2E8
331
26F
  5
271
331
299
  5
29B
331
187
  5
194
331
415
  5
417
331
99
  5
9A
331
437
  5
439
331
1FF
  5
201
331
1DD
  5
1DE
331
77
  5
77
331
55
  5
55
331
44
  5
44
331
471
  5
473
331
23A
  5
23C
331
1749
  5
1F4
331
2F3
  5
30D
331
25C
  5
25E
331
286
  5
288
331
1CC
  5
1CD
331
2A8
  5
2AA
331
402
  5
404
331
A8
  5
A9
331
424
  5
426
331
446
  5
448
331
1EC
  5
1ED
331
1738
  5
173B
331
468
  5
46A
331
DF
  5
E0
331
20E
  5
210
331
3A1
  5
3A3
331
24B
  5
24D
331
230
  5
232
331
1BA
  5
1BB
331
86
  5
86
331
64
  5
64
331
26D
  5
26F
331
297
  5
299
331
185
  5
187
331
413
  5
415
331
97
  5
98
331
435
  5
437
331
457
  5
459
331
1FD
  5
1FF
331
21F
  5
221
331
1DB
  5
1DC
331
75
  5
75
331
53
  5
53
331
42
  5
42
331
3C0
  5
3D6
331
238
  5
23A
331
3F2
  5
400
331
2F1
  5
2F3
331
25A
  5
25C
331
284
  5
286
331
35D
  5
372
331
2A6
  5
2A8
331
400
  5
402
331
A6
  5
A7
331
422
  5
424
331
1EA
  5
1EB
331
444
  5
446
331
163
  5
170
331
1736
  5
1738
331
466
  5
468
331
DD
  5
DE
331
B4
  5
B5
331
20C
  5
20E
331
249
  5
24B
331
22E
  5
230
331
1B8
  5
1B9
331
84
  5
84
331
62
  5
62
331
26B
  5
26D
331
4C5
  5
4D1
331
183
  5
184
331
295
  5
297
331
2B7
  5
2B9
331
95
  5
96
331
411
  5
413
331
433
  5
435
331
1D9
  5
1DA
331
455
  5
457
331
194
  5
1A1
331
1FB
  5
1FD
331
21D
  5
21F
331
BF
  5
C0
331
73
  5
73
331
51
  5
51
331
40
  5
40
331
258
  5
25A
331
282
  5
284
331
1C8
  5
1C9
331
4D4
  5
4E4
331
35B
  5
35D
331
E2
  5
EF
331
2A4
  5
2A6
331
2EE
  5
2F0
331
A4
  5
A5
331
420
  5
422
331
442
  5
444
331
1E8
  5
1E9
331
464
  5
466
331
B2
  5
B3
331
20A
  5
20C
331
47E
  5
480
331
247
  5
249
331
22C
  5
22E
331
1B6
  5
1B7
331
82
  5
82
331
60
  5
60
331
269
  5
26B
331
293
  5
295
331
181
  5
182
331
2B5
  5
2B7
331
93
  5
94
331
40F
  5
411
331
431
  5
433
331
1C7
  5
1C8
331
453
  5
455
331
21B
  5
21D
331
1F9
  5
1FB
331
BD
  5
BE
331
71
  5
71
331
4F
  5
4F
331
280
  5
282
331
4D2
  5
4D4
331
E0
  5
E1
331
2A2
  5
2A4
331
2EC
  5
2EE
331
A2
  5
A3
331
41E
  5
420
331
440
  5
442
331
1E6
  5
1E7
331
462
  5
464
331
B0
  5
B1
331
208
  5
20A
331
47C
  5
47E
331
2BC
  5
2CB
331
245
  5
247
331
22A
  5
22C
331
1B4
  5
1B5
331
80
  5
80
331
267
  5
269
331
1AE
  5
1AF
331
291
  5
293
331
1D7
  5
1D8
331
372
  5
388
331
91
  5
92
331
40D
  5
40F
331
BB
  5
BC
331
42F
  5
431
331
451
  5
453
331
1F7
  5
1F9
331
256
  5
258
331
219
  5
21B
331
1C5
  5
1C6
331
2B3
  5
2B5
331
6F
  5
6F
331
5E
  5
5E
331
4D
  5
4D
331
3E
  5
3E
331
4D0
  5
4D2
331
2A0
  5
2A2
331
2EA
  5
2EC
331
A0
  5
A1
331
41C
  5
41E
331
43E
  5
440
331
1E4
  5
1E5
331
460
  5
462
331
47A
  5
47C
331
389
  5
399
331
228
  5
22A
331
3CB
  5
3E1
331
243
  5
245
331
2BA
  5
2BC
331
206
  5
208
331
1B2
  5
1B3
331
265
  5
267
331
1AC
  5
1AD
331
39E
  5
3A0
331
28F
  5
291
331
2B1
  5
2B3
331
EF
  5
FC
331
8F
  5
90
331
40B
  5
40D
331
42D
  5
42F
331
1C3
  5
1C4
331
44F
  5
451
331
1F5
  5
1F7
331
277
  5
279
331
217
  5
219
331
254
  5
256
331
B9
  5
BA
331
6D
  5
6D
331
27E
  5
280
331
7E
  5
7E
331
5C
  5
5C
331
4B
  5
4B
331
2E8
  5
2EA
331
41A
  5
41C
331
1B0
  5
1B1
331
43C
  5
43E
331
45E
  5
460
331
204
  5
206
331
478
  5
47A
331
226
  5
228
331
241
  5
243
331
2B8
  5
2BA
331
1E2
  5
1E3
331
263
  5
265
331
39C
  5
39E
331
1D3
  5
1D4
331
334
  5
34E
331
28D
  5
28F
331
2AF
  5
2B1
331
8D
  5
8E
331
409
  5
40B
331
1C1
  5
1C2
331
42B
  5
42D
331
13A
  5
147
331
44D
  5
44F
331
215
  5
217
331
173F
  5
174A
331
46F
  5
471
331
17E
  5
17F
331
3E2
  5
3F2
331
252
  5
254
331
237
  5
239
331
1F3
  5
1F5
331
AF
  5
B0
331
6B
  5
6B
331
27C
  5
27E
331
29E
  5
2A0
331
9E
  5
9F
331
7C
  5
7C
331
5A
  5
5A
331
49
  5
49
331
418
  5
41A
331
43A
  5
43C
331
1E0
  5
1E1
331
45C
  5
45E
331
476
  5
478
331
37D
  5
389
331
224
  5
226
331
23F
  5
241
331
202
  5
204
331
481
  5
497
331
300
  5
31A
331
261
  5
263
331
39A
  5
39C
331
1D1
  5
1D2
331
28B
  5
28D
331
2AD
  5
2AF
331
8B
  5
8C
331
407
  5
409
331
429
  5
42B
331
1BF
  5
1C0
331
44B
  5
44D
331
173D
  5
1748
331
46D
  5
46F
331
273
  5
276
331
213
  5
215
331
250
  5
252
331
235
  5
237
331
1F1
  5
1F2
331
AD
  5
AE
331
69
  5
69
331
27A
  5
27C
331
4E3
  5
1735
331
29C
  5
29E
331
9C
  5
9D
331
7A
  5
7A
331
58
  5
58
331
47
  5
47
331
438
  5
43A
331
200
  5
202
331
45A
  5
45C
331
1A1
  5
1AB
331
474
  5
476
331
23D
  5
23F
331
222
  5
224
331
25F
  5
261
331
289
  5
28B
331
1CF
  5
1D0
331
2AB
  5
2AD
331
405
  5
407
331
AB
  5
AC
331
427
  5
429
331
1EF
  5
1F0
331
449
  5
44B
331
170
  5
17D
331
173B
  5
173E
331
46B
  5
46D
331
271
  5
273
331
3D6
  5
3E2
331
3A4
  5
3C0
331
233
  5
235
331
24E
  5
250
331
211
  5
213
331
1BD
  5
1BE
331
89
  5
89
331
67
  5
67
331
498
  5
4A7
331
2E7
  5
2E9
331
278
  5
27A
331
29A
  5
29C
331
C0
  5
C1
331
416
  5
418
331
9A
  5
9B
331
147
  5
156
331
1DE
  5
1DF
331
78
  5
78
331
56
  5
56
331
45
  5
45
331
458
  5
45A
331
472
  5
474
331
220
  5
222
331
23B
  5
23D
331
174A
  5
8A
331
25D
  5
25F
331
4A7
  5
4C5
331
1CD
  5
1CE
331
287
  5
289
331
2A9
  5
2AB
331
403
  5
405
331
A9
  5
AA
331
425
  5
427
331
447
  5
449
331
1ED
  5
1EE
331
1739
  5
173C
331
469
  5
46B
331
3A2
  5
3A4
331
231
  5
233
331
24C
  5
24E
331
2CB
  5
2E5
331
20F
  5
211
331
1BB
  5
1BC
331
87
  5
87
331
65
  5
65
331
30D
  5
327
331
2E5
  5
2E7
331
26E
  5
270
331
298
  5
29A
331
414
  5
416
331
98
  5
99
331
436
  5
438
331
1FE
  5
200
331
1DC
  5
1DD
331
76
  5
76
331
54
  5
54
331
43
  5
43
  0
XRECORD
  5
1821
102
{ACAD_REACTORS
330
1820
102
}
330
1820
100
AcDbXrecord
280
     1
 40
5222.0
  1
\A1;\U+22052.0ザ フカサ8
  0
XRECORD
  5
1823
102
{ACAD_REACTORS
330
1822
102
}
330
1822
100
AcDbXrecord
280
     1
 40
9591.0
  1
\A1;PCD\U+220517.0
  0
XRECORD
  5
1825
102
{ACAD_REACTORS
330
1824
102
}
330
1824
100
AcDbXrecord
280
     1
 40
6390.0
  1
\A1;\U+220521.0
  0
XRECORD
  5
1827
102
{ACAD_REACTORS
330
1826
102
}
330
1826
100
AcDbXrecord
280
     1
 40
6365.0
  1
\A1;\U+220510.0
  0
XRECORD
  5
1829
102
{ACAD_REACTORS
330
1828
102
}
330
1828
100
AcDbXrecord
280
     1
 40
6391.0
  1
\A1;\U+220512.0
  0
XRECORD
  5
182B
102
{ACAD_REACTORS
330
182A
102
}
330
182A
100
AcDbXrecord
280
     1
 40
5813.0
  1
\A1;\U+22059.5
  0
XRECORD
  5
182D
102
{ACAD_REACTORS
330
182C
102
}
330
182C
100
AcDbXrecord
280
     1
 40
5731.0
  1
\A1;\U+22058.0
  0
XRECORD
  5
182F
102
{ACAD_REACTORS
330
182E
102
}
330
182E
100
AcDbXrecord
280
     1
 40
9591.0
  1
\A1;PCD\U+220517.0
  0
XRECORD
  5
1831
102
{ACAD_REACTORS
330
1830
102
}
330
1830
100
AcDbXrecord
280
     1
 40
6390.0
  1
\A1;\U+220521.0
  0
XRECORD
  5
1833
102
{ACAD_REACTORS
330
1832
102
}
330
1832
100
AcDbXrecord
280
     1
 40
4820.0
  1
\A1;\U+22059.0\P(ネジ頭)
  0
XRECORD
  5
181D
102
{ACAD_REACTORS
330
181C
102
}
330
181C
100
AcDbXrecord
280
     1
 40
3137.0
  1
105{\H0.6667x; g^J(ホーン含む)}
  0
XRECORD
  5
181F
102
{ACAD_REACTORS
330
181E
102
}
330
181E
100
AcDbXrecord
280
     1
 40
-11150.0
  1
全段金属ギア^J{\H0.875x;(特殊アルミ合金)}
  0
XRECORD
  5
1835
102
{ACAD_REACTORS
330
1834
102
}
330
1834
100
AcDbXrecord
280
     1
 40
-10099.0
  1
サーボホーン^J(装着済)
  0
XRECORD
  5
1837
102
{ACAD_REACTORS
330
1836
102
}
330
1836
100
AcDbXrecord
280
     1
102
SHADEPLOT
 70
     0
  0
XRECORD
  5
1814
102
{ACAD_REACTORS
330
1813
102
}
330
1813
100
AcDbXrecord
280
     1
 70
     1
  0
XRECORD
  5
1816
102
{ACAD_REACTORS
330
1813
102
}
330
1813
100
AcDbXrecord
280
     1
340
20
  0
XRECORD
  5
1817
102
{ACAD_REACTORS
330
1813
102
}
330
1813
100
AcDbXrecord
280
     1
340
20
  0
XRECORD
  5
1815
102
{ACAD_REACTORS
330
1813
102
}
330
1813
100
AcDbXrecord
280
     1
340
20
  0
LAYOUT
  5
13
102
{ACAD_XDICTIONARY
360
14
102
}
102
{ACAD_REACTORS
330
F
102
}
330
F
100
AcDbPlotSettings
  1

  2
Adobe PDF.pc3
  4
A4
  6

 40
3.174999952316282
 41
3.174999952316282
 42
3.175003051757812
 43
3.17498779296875
 44
209.9098358154297
 45
297.0318298339844
 46
0.0
 47
0.0
 48
0.0
 49
0.0
140
0.0
141
0.0
142
1.0
143
1.0
 70
   688
 72
     1
 73
     0
 74
     5
  7
acad.ctb
 75
    16
147
1.0
148
0.0
149
0.0
100
AcDbLayout
  1
01
 70
     1
 71
     1
 10
-3.174999952316282
 20
-3.174999952316282
 11
206.7348358631134
 21
293.8568298816682
 12
0.0
 22
0.0
 32
0.0
 14
1.0
 24
1.0
 34
0.0
 15
201.0
 25
288.0
 35
0.0
146
0.0
 13
0.0
 23
0.0
 33
0.0
 16
1.0
 26
0.0
 36
0.0
 17
0.0
 27
1.0
 37
0.0
 76
     0
330
10
331
523
1001
ACAD_PSEXT
1000
Adobe PDF.pc3
1000
Adobe PDF Converter
1000
My Documents
1000
Adobe PDF の作成
1070
     0
  0
LAYOUT
  5
E
102
{ACAD_XDICTIONARY
360
1818
102
}
102
{ACAD_REACTORS
330
F
102
}
330
F
100
AcDbPlotSettings
  1

  2
EPSON PM-700C ESC/P R
  4

  6

 40
0.0
 41
0.0
 42
0.0
 43
0.0
 44
0.0
 45
0.0
 46
0.0
 47
0.0
 48
0.0
 49
0.0
140
0.0
141
0.0
142
1.0
143
1.0
 70
  1712
 72
     0
 73
     0
 74
     0
  7

 75
     0
147
1.0
148
0.0
149
0.0
100
AcDbLayout
  1
Model
 70
     1
 71
     0
 10
0.0
 20
0.0
 11
12.0
 21
9.0
 12
0.0
 22
0.0
 32
0.0
 14
0.0
 24
0.0
 34
0.0
 15
0.0
 25
0.0
 35
0.0
146
0.0
 13
0.0
 23
0.0
 33
0.0
 16
1.0
 26
0.0
 36
0.0
 17
0.0
 27
1.0
 37
0.0
 76
     0
330
2
331
25
  0
MATERIAL
  5
36
102
{ACAD_XDICTIONARY
360
4F5
102
}
102
{ACAD_REACTORS
330
B
102
}
330
B
100
AcDbMaterial
  1
ByBlock
  0
MATERIAL
  5
35
102
{ACAD_XDICTIONARY
360
4F3
102
}
102
{ACAD_REACTORS
330
B
102
}
330
B
100
AcDbMaterial
  1
ByLayer
  0
MATERIAL
  5
A
102
{ACAD_XDICTIONARY
360
4EE
102
}
102
{ACAD_REACTORS
330
B
102
}
330
B
100
AcDbMaterial
  1
Global
  0
MLEADERSTYLE
  5
1529
102
{ACAD_REACTORS
330
1528
102
}
330
1528
100
AcDbMLeaderStyle
170
     2
171
     1
172
     0
 90
        2
 40
0.0
 41
0.0
173
     1
 91
-1056964608
340
20
 92
       -2
290
     1
 42
2.0
291
     1
 43
0.36
  3
Standard
 44
4.0
300

342
1D
174
     1
178
     6
175
     1
176
     0
 93
-1056964608
 45
4.0
292
     0
297
     0
 46
4.0
 94
-1056964608
 47
1.0
 49
1.0
140
1.0
293
     1
141
0.0
294
     1
177
     0
142
1.0
295
     0
296
     0
143
0.125
1001
ACAD_MLEADERVER
1070
     2
  0
MLINESTYLE
  5
3A
102
{ACAD_REACTORS
330
33
102
}
330
33
100
AcDbMlineStyle
  2
STANDARD
 70
     0
  3

 62
   256
 51
90.0
 52
90.0
 71
     2
 49
0.5
 62
   256
  6
BYLAYER
 49
-0.5
 62
   256
  6
BYLAYER
  0
ACDBPLACEHOLDER
  5
7
102
{ACAD_REACTORS
330
8
102
}
330
8
  0
SCALE
  5
1517
102
{ACAD_REACTORS
330
1516
102
}
330
1516
100
AcDbScale
 70
     0
300
1:1
140
1.0
141
1.0
290
     1
  0
SCALE
  5
1518
102
{ACAD_REACTORS
330
1516
102
}
330
1516
100
AcDbScale
 70
     0
300
1:2
140
1.0
141
2.0
290
     0
  0
SCALE
  5
1519
102
{ACAD_REACTORS
330
1516
102
}
330
1516
100
AcDbScale
 70
     0
300
1:4
140
1.0
141
4.0
290
     0
  0
SCALE
  5
151A
102
{ACAD_REACTORS
330
1516
102
}
330
1516
100
AcDbScale
 70
     0
300
1:5
140
1.0
141
5.0
290
     0
  0
SCALE
  5
151B
102
{ACAD_REACTORS
330
1516
102
}
330
1516
100
AcDbScale
 70
     0
300
1:8
140
1.0
141
8.0
290
     0
  0
SCALE
  5
151C
102
{ACAD_REACTORS
330
1516
102
}
330
1516
100
AcDbScale
 70
     0
300
1:10
140
1.0
141
10.0
290
     0
  0
SCALE
  5
151D
102
{ACAD_REACTORS
330
1516
102
}
330
1516
100
AcDbScale
 70
     0
300
1:16
140
1.0
141
16.0
290
     0
  0
SCALE
  5
151E
102
{ACAD_REACTORS
330
1516
102
}
330
1516
100
AcDbScale
 70
     0
300
1:20
140
1.0
141
20.0
290
     0
  0
SCALE
  5
151F
102
{ACAD_REACTORS
330
1516
102
}
330
1516
100
AcDbScale
 70
     0
300
1:30
140
1.0
141
30.0
290
     0
  0
SCALE
  5
1520
102
{ACAD_REACTORS
330
1516
102
}
330
1516
100
AcDbScale
 70
     0
300
1:40
140
1.0
141
40.0
290
     0
  0
SCALE
  5
1521
102
{ACAD_REACTORS
330
1516
102
}
330
1516
100
AcDbScale
 70
     0
300
1:50
140
1.0
141
50.0
290
     0
  0
SCALE
  5
1522
102
{ACAD_REACTORS
330
1516
102
}
330
1516
100
AcDbScale
 70
     0
300
1:100
140
1.0
141
100.0
290
     0
  0
SCALE
  5
1523
102
{ACAD_REACTORS
330
1516
102
}
330
1516
100
AcDbScale
 70
     0
300
2:1
140
2.0
141
1.0
290
     0
  0
SCALE
  5
1524
102
{ACAD_REACTORS
330
1516
102
}
330
1516
100
AcDbScale
 70
     0
300
4:1
140
4.0
141
1.0
290
     0
  0
SCALE
  5
1525
102
{ACAD_REACTORS
330
1516
102
}
330
1516
100
AcDbScale
 70
     0
300
8:1
140
8.0
141
1.0
290
     0
  0
SCALE
  5
1526
102
{ACAD_REACTORS
330
1516
102
}
330
1516
100
AcDbScale
 70
     0
300
10:1
140
10.0
141
1.0
290
     0
  0
SCALE
  5
1527
102
{ACAD_REACTORS
330
1516
102
}
330
1516
100
AcDbScale
 70
     0
300
100:1
140
100.0
141
1.0
290
     0
  0
TABLESTYLE
  5
3B
102
{ACAD_XDICTIONARY
360
1673
102
}
102
{ACAD_REACTORS
330
38
102
}
330
38
100
AcDbTableStyle
  3
Standard
 70
     0
 71
     0
 40
1.5
 41
1.5
280
     0
281
     0
  7
Standard
140
4.5
170
     2
 62
     0
 63
     7
283
     0
274
    -2
284
     1
 64
     0
275
    -2
285
     1
 65
     0
276
    -2
286
     1
 66
     0
277
    -2
287
     1
 67
     0
278
    -2
288
     1
 68
     0
279
    -2
289
     1
 69
     0
  7
Standard
140
6.0
170
     5
 62
     0
 63
     7
283
     0
274
    -2
284
     1
 64
     0
275
    -2
285
     1
 65
     0
276
    -2
286
     1
 66
     0
277
    -2
287
     1
 67
     0
278
    -2
288
     1
 68
     0
279
    -2
289
     1
 69
     0
  7
Standard
140
4.5
170
     5
 62
     0
 63
     7
283
     0
274
    -2
284
     1
 64
     0
275
    -2
285
     1
 65
     0
276
    -2
286
     1
 66
     0
277
    -2
287
     1
 67
     0
278
    -2
288
     1
 68
     0
279
    -2
289
     1
 69
     0
  0
VISUALSTYLE
  5
26
102
{ACAD_REACTORS
330
27
102
}
330
27
100
AcDbVisualStyle
  2
2dWireframe
 70
     4
 71
     0
 72
     2
 73
     0
 90
        0
 40
-0.6
 41
-30.0
 62
     5
 63
     7
 74
     1
 91
        4
 64
     7
 65
   257
 75
     1
175
     1
 42
1.0
 92
        0
 66
   257
 43
1.0
 76
     1
 77
     6
 78
     2
 67
     7
 79
     5
170
     0
171
     0
290
     0
174
     0
 93
        1
 44
0.0
173
     0
291
     0
 45
0.0
1001
ACAD
1000
AcDbSavedByObjectVersion
1070
     0
1000
AcDbSavedByObjectVersion
1070
     0
1000
AcDbSavedByObjectVersion
1070
     0
1000
AcDbSavedByObjectVersion
1070
     0
  0
VISUALSTYLE
  5
507
102
{ACAD_REACTORS
330
27
102
}
330
27
100
AcDbVisualStyle
  2
3D Hidden
 70
     6
 71
     1
 72
     2
 73
     2
 90
        0
 40
-0.6
 41
-30.0
 62
     5
 63
     7
 74
     2
 91
        2
 64
     7
 65
   257
 75
     2
175
     1
 42
40.0
 92
        0
 66
   257
 43
1.0
 76
     1
 77
     6
 78
     2
 67
     7
 79
     3
170
     0
171
     0
290
     0
174
     0
 93
        1
 44
0.0
173
     0
291
     0
 45
0.0
1001
ACAD
1000
AcDbSavedByObjectVersion
1070
     0
1000
AcDbSavedByObjectVersion
1070
     0
1000
AcDbSavedByObjectVersion
1070
     0
  0
VISUALSTYLE
  5
3D
102
{ACAD_REACTORS
330
27
102
}
330
27
100
AcDbVisualStyle
  2
3dWireframe
 70
     5
 71
     0
 72
     2
 73
     0
 90
        0
 40
-0.6
 41
-30.0
 62
     5
 63
     7
 74
     1
 91
        4
 64
     7
 65
   257
 75
     1
175
     1
 42
1.0
 92
        0
 66
   257
 43
1.0
 76
     1
 77
     6
 78
     2
 67
     7
 79
     5
170
     0
171
     0
290
     0
174
     0
 93
        1
 44
0.0
173
     0
291
     0
 45
0.0
1001
ACAD
1000
AcDbSavedByObjectVersion
1070
     0
1000
AcDbSavedByObjectVersion
1070
     0
1000
AcDbSavedByObjectVersion
1070
     0
1000
AcDbSavedByObjectVersion
1070
     0
  0
VISUALSTYLE
  5
506
102
{ACAD_REACTORS
330
27
102
}
330
27
100
AcDbVisualStyle
  2
Basic
 70
     7
 71
     1
 72
     0
 73
     1
 90
        0
 40
-0.6
 41
-30.0
 62
     5
 63
     7
 74
     0
 91
        4
 64
     7
 65
   257
 75
     1
175
     1
 42
1.0
 92
        8
 66
     7
 43
1.0
 76
     1
 77
     6
 78
     2
 67
     7
 79
     5
170
     0
171
     0
290
     0
174
     0
 93
        1
 44
0.0
173
     0
291
     1
 45
0.0
1001
ACAD
1000
AcDbSavedByObjectVersion
1070
     0
1000
AcDbSavedByObjectVersion
1070
     0
1000
AcDbSavedByObjectVersion
1070
     0
  0
VISUALSTYLE
  5
50A
102
{ACAD_REACTORS
330
27
102
}
330
27
100
AcDbVisualStyle
  2
Brighten
 70
    12
 71
     2
 72
     2
 73
     0
 90
        0
 40
-0.6
 41
-30.0
 62
     5
 63
     7
 74
     1
 91
        4
 64
     7
 65
   257
 75
     1
175
     1
 42
1.0
 92
        8
 66
     7
 43
1.0
 76
     1
 77
     6
 78
     2
 67
     7
 79
     5
170
     0
171
     0
290
     0
174
     0
 93
        1
 44
50.0
173
     0
291
     1
 45
0.0
1001
ACAD
1000
AcDbSavedByObjectVersion
1070
     0
1000
AcDbSavedByObjectVersion
1070
     0
1000
AcDbSavedByObjectVersion
1070
     0
  0
VISUALSTYLE
  5
50E
102
{ACAD_REACTORS
330
27
102
}
330
27
100
AcDbVisualStyle
  2
ColorChange
 70
    16
 71
     2
 72
     2
 73
     3
 90
        0
 40
-0.6
 41
-30.0
 62
     5
 63
     8
 74
     1
 91
        4
 64
     7
 65
   257
 75
     1
175
     1
 42
1.0
 92
        8
 66
     8
 43
1.0
 76
     1
 77
     6
 78
     2
 67
     7
 79
     5
170
     0
171
     0
290
     0
174
     0
 93
        1
 44
0.0
173
     0
291
     1
 45
0.0
1001
ACAD
1000
AcDbSavedByObjectVersion
1070
     0
1000
AcDbSavedByObjectVersion
1070
     0
1000
AcDbSavedByObjectVersion
1070
     0
  0
VISUALSTYLE
  5
508
102
{ACAD_REACTORS
330
27
102
}
330
27
100
AcDbVisualStyle
  2
Conceptual
 70
     9
 71
     3
 72
     2
 73
     0
 90
        0
 40
-0.6
 41
-30.0
 62
     5
 63
     7
 74
     2
 91
        2
 64
     7
 65
   257
 75
     1
175
     1
 42
40.0
 92
        8
 66
     7
 43
1.0
 76
     1
 77
     6
 78
     2
 67
     7
 79
     3
170
     0
171
     0
290
     0
174
     0
 93
        1
 44
0.0
173
     0
291
     0
 45
0.0
1001
ACAD
1000
AcDbSavedByObjectVersion
1070
     0
1000
AcDbSavedByObjectVersion
1070
     0
1000
AcDbSavedByObjectVersion
1070
     0
  0
VISUALSTYLE
  5
509
102
{ACAD_REACTORS
330
27
102
}
330
27
100
AcDbVisualStyle
  2
Dim
 70
    11
 71
     2
 72
     2
 73
     0
 90
        0
 40
-0.6
 41
-30.0
 62
     5
 63
     7
 74
     1
 91
        4
 64
     7
 65
   257
 75
     1
175
     1
 42
1.0
 92
        8
 66
     7
 43
1.0
 76
     1
 77
     6
 78
     2
 67
     7
 79
     5
170
     0
171
     0
290
     0
174
     0
 93
        1
 44
-50.0
173
     0
291
     1
 45
0.0
1001
ACAD
1000
AcDbSavedByObjectVersion
1070
     0
1000
AcDbSavedByObjectVersion
1070
     0
1000
AcDbSavedByObjectVersion
1070
     0
  0
VISUALSTYLE
  5
50D
102
{ACAD_REACTORS
330
27
102
}
330
27
100
AcDbVisualStyle
  2
Facepattern
 70
    15
 71
     2
 72
     2
 73
     0
 90
        0
 40
-0.6
 41
-30.0
 62
     5
 63
     7
 74
     1
 91
        4
 64
     7
 65
   257
 75
     1
175
     1
 42
1.0
 92
        8
 66
     7
 43
1.0
 76
     1
 77
     6
 78
     2
 67
     7
 79
     5
170
     0
171
     0
290
     0
174
     0
 93
        1
 44
0.0
173
     0
291
     1
 45
0.0
1001
ACAD
1000
AcDbSavedByObjectVersion
1070
     0
1000
AcDbSavedByObjectVersion
1070
     0
1000
AcDbSavedByObjectVersion
1070
     0
  0
VISUALSTYLE
  5
502
102
{ACAD_REACTORS
330
27
102
}
330
27
100
AcDbVisualStyle
  2
Flat
 70
     0
 71
     2
 72
     1
 73
     1
 90
        2
 40
-0.6
 41
30.0
 62
     5
 63
     7
 74
     0
 91
        4
 64
     7
 65
   257
 75
     1
175
     1
 42
1.0
 92
        8
 66
     7
 43
1.0
 76
     1
 77
     6
 78
     2
 67
     7
 79
     5
170
     0
171
     0
290
     0
174
     0
 93
       13
 44
0.0
173
     0
291
     1
 45
0.0
1001
ACAD
1000
AcDbSavedByObjectVersion
1070
     0
1000
AcDbSavedByObjectVersion
1070
     0
1000
AcDbSavedByObjectVersion
1070
     0
  0
VISUALSTYLE
  5
503
102
{ACAD_REACTORS
330
27
102
}
330
27
100
AcDbVisualStyle
  2
FlatWithEdges
 70
     1
 71
     2
 72
     1
 73
     1
 90
        2
 40
-0.6
 41
30.0
 62
     5
 63
     7
 74
     1
 91
        4
 64
     7
 65
   257
 75
     1
175
     1
 42
1.0
 92
        0
 66
   257
 43
1.0
 76
     1
 77
     6
 78
     2
 67
     7
 79
     5
170
     0
171
     0
290
     0
174
     0
 93
       13
 44
0.0
173
     0
291
     1
 45
0.0
1001
ACAD
1000
AcDbSavedByObjectVersion
1070
     0
1000
AcDbSavedByObjectVersion
1070
     0
1000
AcDbSavedByObjectVersion
1070
     0
  0
VISUALSTYLE
  5
504
102
{ACAD_REACTORS
330
27
102
}
330
27
100
AcDbVisualStyle
  2
Gouraud
 70
     2
 71
     2
 72
     2
 73
     1
 90
        2
 40
-0.6
 41
30.0
 62
     5
 63
     7
 74
     0
 91
        4
 64
     7
 65
   257
 75
     1
175
     1
 42
1.0
 92
        0
 66
     7
 43
1.0
 76
     1
 77
     6
 78
     2
 67
     7
 79
     5
170
     0
171
     0
290
     0
174
     0
 93
       13
 44
0.0
173
     0
291
     1
 45
0.0
1001
ACAD
1000
AcDbSavedByObjectVersion
1070
     0
1000
AcDbSavedByObjectVersion
1070
     0
1000
AcDbSavedByObjectVersion
1070
     0
  0
VISUALSTYLE
  5
505
102
{ACAD_REACTORS
330
27
102
}
330
27
100
AcDbVisualStyle
  2
GouraudWithEdges
 70
     3
 71
     2
 72
     2
 73
     1
 90
        2
 40
-0.6
 41
30.0
 62
     5
 63
     7
 74
     1
 91
        4
 64
     7
 65
   257
 75
     1
175
     1
 42
1.0
 92
        0
 66
   257
 43
1.0
 76
     1
 77
     6
 78
     2
 67
     7
 79
     5
170
     0
171
     0
290
     0
174
     0
 93
       13
 44
0.0
173
     0
291
     1
 45
0.0
1001
ACAD
1000
AcDbSavedByObjectVersion
1070
     0
1000
AcDbSavedByObjectVersion
1070
     0
1000
AcDbSavedByObjectVersion
1070
     0
  0
VISUALSTYLE
  5
50C
102
{ACAD_REACTORS
330
27
102
}
330
27
100
AcDbVisualStyle
  2
Linepattern
 70
    14
 71
     2
 72
     2
 73
     0
 90
        0
 40
-0.6
 41
-30.0
 62
     5
 63
     7
 74
     1
 91
        4
 64
     7
 65
   257
 75
     7
175
     7
 42
1.0
 92
        8
 66
     7
 43
1.0
 76
     1
 77
     6
 78
     2
 67
     7
 79
     5
170
     0
171
     0
290
     0
174
     0
 93
        1
 44
0.0
173
     0
291
     1
 45
0.0
1001
ACAD
1000
AcDbSavedByObjectVersion
1070
     0
1000
AcDbSavedByObjectVersion
1070
     0
1000
AcDbSavedByObjectVersion
1070
     0
  0
VISUALSTYLE
  5
3C
102
{ACAD_REACTORS
330
27
102
}
330
27
100
AcDbVisualStyle
  2
Realistic
 70
     8
 71
     2
 72
     2
 73
     0
 90
        0
 40
-0.6
 41
-30.0
 62
     5
 63
     7
 74
     1
 91
        0
 64
     7
 65
   257
 75
     1
175
     1
 42
1.0
 92
        8
 66
     8
 43
1.0
 76
     1
 77
     6
 78
     2
 67
     7
 79
     5
170
     0
171
     0
290
     0
174
     0
 93
       13
 44
0.0
173
     0
291
     0
 45
0.0
1001
ACAD
1000
AcDbSavedByObjectVersion
1070
     0
1000
AcDbSavedByObjectVersion
1070
     0
1000
AcDbSavedByObjectVersion
1070
     0
1000
AcDbSavedByObjectVersion
1070
     0
  0
VISUALSTYLE
  5
50B
102
{ACAD_REACTORS
330
27
102
}
330
27
100
AcDbVisualStyle
  2
Thicken
 70
    13
 71
     2
 72
     2
 73
     0
 90
        0
 40
-0.6
 41
-30.0
 62
     5
 63
     7
 74
     1
 91
        4
 64
     7
 65
   257
 75
     1
175
     1
 42
1.0
 92
       12
 66
     7
 43
1.0
 76
     1
 77
     6
 78
     2
 67
     7
 79
     5
170
     0
171
     0
290
     0
174
     0
 93
        1
 44
0.0
173
     0
291
     1
 45
0.0
1001
ACAD
1000
AcDbSavedByObjectVersion
1070
     0
1000
AcDbSavedByObjectVersion
1070
     0
1000
AcDbSavedByObjectVersion
1070
     0
  0
DICTIONARYVAR
  5
1672
102
{ACAD_REACTORS
330
4E8
102
}
330
4E8
100
DictionaryVariables
280
     0
  1
1:1
  0
DICTIONARYVAR
  5
1671
102
{ACAD_REACTORS
330
4E8
102
}
330
4E8
100
DictionaryVariables
280
     0
  1
STANDARD
  0
DICTIONARYVAR
  5
4E9
102
{ACAD_REACTORS
330
4E8
102
}
330
4E8
100
DictionaryVariables
280
     0
  1
STANDARD
  0
DICTIONARYVAR
  5
4ED
102
{ACAD_REACTORS
330
4E8
102
}
330
4E8
100
DictionaryVariables
280
     0
  1
1
  0
DICTIONARYVAR
  5
4EC
102
{ACAD_REACTORS
330
4E8
102
}
330
4E8
100
DictionaryVariables
280
     0
  1
1
  0
DICTIONARYVAR
  5
4EB
102
{ACAD_REACTORS
330
4E8
102
}
330
4E8
100
DictionaryVariables
280
     0
  1
0
  0
DICTIONARYVAR
  5
4EA
102
{ACAD_REACTORS
330
4E8
102
}
330
4E8
100
DictionaryVariables
280
     0
  1
127
  0
DICTIONARY
  5
1593
102
{ACAD_REACTORS
330
1588
102
}
330
1588
100
AcDbDictionary
281
     1
  0
XRECORD
  5
514
102
{ACAD_REACTORS
330
512
102
}
330
512
100
AcDbXrecord
280
     1
330
C8
330
C7
330
D5
330
D6
330
E8
330
E9
330
F5
330
F6
330
102
330
103
330
10F
330
110
330
11B
330
126
330
127
330
133
330
134
330
140
330
141
330
14F
330
150
330
15C
330
15D
330
169
330
16A
330
176
330
177
330
18D
330
18E
330
19A
330
19B
330
1A6
330
2C4
330
2C5
330
2D1
330
2D2
330
2DE
330
2DF
330
2F9
330
2FA
330
306
330
307
330
313
330
314
330
320
330
321
330
32D
330
32E
330
33A
330
33B
330
347
330
348
330
354
330
355
330
362
330
36C
330
36D
330
377
330
378
330
382
330
383
330
392
330
393
330
3AC
330
3AD
330
3B9
330
3BA
330
3C5
330
3C6
330
3D0
330
3D1
330
3DB
330
3DC
330
3EB
330
3EC
330
3F8
330
3F9
330
486
330
487
330
491
330
492
330
4A0
330
4A1
330
4AF
330
4B0
330
4BE
330
4BF
330
4CA
330
4CB
330
4DC
330
4DD
330
14DF
330
14E0
330
14E9
330
14EA
330
1357
330
1358
330
1360
330
1361
330
1369
330
136A
330
1372
330
1373
330
137B
330
137C
330
1384
330
1385
330
138C
330
1393
330
1394
330
139C
330
139D
330
13A5
330
13A6
330
13B0
330
13B1
330
13B9
330
13BA
330
13C2
330
13C3
330
13CB
330
13CC
330
13D4
330
13D5
330
13DD
330
13DE
330
13E5
330
13ED
330
13EE
330
13F6
330
13F7
330
13FF
330
1400
330
1408
330
1409
330
1411
330
1412
330
141A
330
141B
330
1423
330
1424
330
142C
330
142D
330
1435
330
1436
330
143E
330
143F
330
1447
330
1448
330
144E
330
1454
330
1455
330
145B
330
145C
330
1462
330
1463
330
146C
330
146D
330
1477
330
1478
330
1480
330
1481
330
1488
330
1489
330
148F
330
1490
330
1496
330
1497
330
14A0
330
14A1
330
14A9
330
14AA
330
14B1
330
14B2
330
14B8
330
14B9
330
14C1
330
14C2
330
14CC
330
14CD
330
14D7
330
14D8
  0
DICTIONARY
  5
14
330
13
100
AcDbDictionary
280
     1
281
     1
  3
ACAD_XREC_ROUNDTRIP
360
181A
  3
ADSK_XREC_LAYOUTTHUMBNAIL
360
15
  0
DICTIONARY
  5
1818
330
E
100
AcDbDictionary
280
     1
281
     1
  3
ACAD_XREC_ROUNDTRIP
360
1819
  0
DICTIONARY
  5
4F5
330
36
100
AcDbDictionary
280
     1
281
     1
  3
ACAD_XREC_ROUNDTRIP
360
4F6
  0
DICTIONARY
  5
4F3
330
35
100
AcDbDictionary
280
     1
281
     1
  3
ACAD_XREC_ROUNDTRIP
360
4F4
  0
DICTIONARY
  5
4EE
330
A
100
AcDbDictionary
280
     1
281
     1
  3
ACAD_XREC_ROUNDTRIP
360
4EF
  0
DICTIONARY
  5
1673
330
3B
100
AcDbDictionary
280
     1
281
     1
  3
ACAD_ROUNDTRIP_2008_TABLESTYLE_CELLSTYLEMAP
360
1811
  3
ACAD_XREC_ROUNDTRIP
360
181B
  0
XRECORD
  5
181A
102
{ACAD_REACTORS
330
14
102
}
330
14
100
AcDbXrecord
280
     1
102
SHADEPLOT
 70
     1
102
SHADEPLOTRESLEVEL
 70
     2
102
SHADEPLOTCUSTOMDPI
 70
   150
  0
XRECORD
  5
15
102
{ACAD_REACTORS
330
14
102
}
330
14
100
AcDbXrecord
280
     1
310
28000000620000008C0000000100080000000000B036000000000000000000000001000000000000FFFFFF0000000000FFFFFF000000000000000000000000000000000000000000000000000000000000000000330000006600000099000000CC000000FF00000000330000333300006633000099330000CC330000FF3300
310
0000660000336600006666000099660000CC660000FF66000000990000339900006699000099990000CC990000FF99000000CC000033CC000066CC000099CC0000CCCC0000FFCC000000FF000033FF000066FF000099FF0000CCFF0000FFFF000000003300330033006600330099003300CC003300FF003300003333003333
310
33006633330099333300CC333300FF33330000663300336633006666330099663300CC663300FF66330000993300339933006699330099993300CC993300FF99330000CC330033CC330066CC330099CC3300CCCC3300FFCC330000FF330033FF330066FF330099FF3300CCFF3300FFFF330000006600330066006600660099
310
006600CC006600FF00660000336600333366006633660099336600CC336600FF33660000666600336666006666660099666600CC666600FF66660000996600339966006699660099996600CC996600FF99660000CC660033CC660066CC660099CC6600CCCC6600FFCC660000FF660033FF660066FF660099FF6600CCFF6600
310
FFFF660000009900330099006600990099009900CC009900FF00990000339900333399006633990099339900CC339900FF33990000669900336699006666990099669900CC669900FF66990000999900339999006699990099999900CC999900FF99990000CC990033CC990066CC990099CC9900CCCC9900FFCC990000FF99
310
0033FF990066FF990099FF9900CCFF9900FFFF99000000CC003300CC006600CC009900CC00CC00CC00FF00CC000033CC003333CC006633CC009933CC00CC33CC00FF33CC000066CC003366CC006666CC009966CC00CC66CC00FF66CC000099CC003399CC006699CC009999CC00CC99CC00FF99CC0000CCCC0033CCCC0066CC
310
CC0099CCCC00CCCCCC00FFCCCC0000FFCC0033FFCC0066FFCC0099FFCC00CCFFCC00FFFFCC000000FF003300FF006600FF009900FF00CC00FF00FF00FF000033FF003333FF006633FF009933FF00CC33FF00FF33FF000066FF003366FF006666FF009966FF00CC66FF00FF66FF000099FF003399FF006699FF009999FF00CC
310
99FF00FF99FF0000CCFF0033CCFF0066CCFF0099CCFF00CCCCFF00FFCCFF0000FFFF0033FFFF0066FFFF0099FFFF00CCFFFF00FFFFFF00000000000D0D0D001A1A1A00282828003535350043434300505050005D5D5D006B6B6B00787878008686860093939300A1A1A100AEAEAE00BBBBBB00C9C9C900D6D6D600E4E4E400
310
F1F1F100FFFFFF0000000000000000000000000000000000000000000000000000000000000000000000000000000000EFE2E2E2E2E2E2E2E2E2E2E2E2E2E2E2E2E2E2E2E2E2E2E2E2E2E2E2E2E2E2E2E2E2E2E2E2E2E2E2E2E2E2E2E2E2E2E2E2E2E2E2E2E2E2E2E2E2E2E2E2E2E2E2E2E2E2E2E2E2E2E2E2E2E2E2E2E2E2
310
E2E2E2E2E2E2E2E2E2E2E2E2E2E2E2E2E2E2E23E3CEFE2F5F5F5F5F5F5F5F5F5F5F5F5F5F5F5F5F5F5F5F5F5F5F5F5F5F5F5F5F5F5F5F5F5F5F5F5F5F5F5F5F5F5F5F5F5F5F5F5F5F5F5F5F5F5F5F5F5F5F5F5F5F5F5F5F5F5F5F5F5F5F5F5F5F5F5F5F5F5F5F5F5F5F5F5F5F5F5F5F5F5F5F5F5F5F5F56962EFE2E2E2E2E2
310
E2E2E2E2F5F5F5F5F5F5F5F5F5E2E2E2E2E2E2E2E2E2E2E2E2E2E2E2F5F5F5F5F5F5F5F5F5E2E2E2E2E2E2E2E2E2E2E2E2E2E2E2F5F5F5F5F5F5F5F5F5E2E2E2E2E2E2E2E2E2E2E2E2E2E2E2F5F5F5F5F5F5F5F5F5E2E2E2E2E2E2E23435EFE2E2F5F5F5F5F5F5F5F5F5F5F5F5F5F5F5F5F5F5F5F5F5F5F5F5F5F5F5F5F5F5
310
F5F5F5F5F5F5F5F5F5F5F5F5F5F5F5F5F5F5F5F5F5F5F5F5F5F5F5F5F5F5F5F5F5F5F5F5F5F5F5F5F5F5F5F5F5F5F5F5F5F5F5F5F5F5F5F5F5F5F5F5F5F5F5F5F5623EEFE2E2F5F5F5F5F5F5F5F5F5F5F5F5F5F5F5F5F5F5F5F5F5F5F5F5F5F5F5F5F5F5F5F5F5F5F5F5F5F5F5F5F5F5F5F5F5F5F5F5F5F5F5F5F5F5F5F5F5
310
F5F5F5F5F5F5F5F5F5F5F5F5F5F5F5F5F5F5F5F5F5F5F5F5F5F5F5F5F5F5F5F5F5F5F5F5F5F53532EFE2E2F5F5F5F5F5F5F5F5F5F5F5F5F5F5F5F5F5F5F5F5F5F5F5F5F5F5F5F5F5F5F5F5F5F5F5F5F5F5F5F5F5F5F5F5F5F5F5F5F5F5F5F5F5F5F5F5F5F5F5F5F5F5F5F5F5F5F5F5F5F5F5F5F5F5F5F5F5F5F5F5F5F5F5F5
310
F5F5F5F5F5F5F5F5F5F5F55D3EEFE2E2F5F5F5F5F5F5F5F5F5F5F5F5F5F5F5F5F5F5F5F5F5F5F5F5F5F5F5F5F5F5F5F5F5F5F5F5F5F5F5F5F5F5F5F5F5F5F5F5F5F5F5F5F5F5F5F5F5F5F5F5F5F5F5F5F5F5F5F5F5F5F5F5F5F5F5F5F5F5F5F5F5F5F5F5F5F5F5F5F5F5F5F5F5F5F53230EFE2E2F5F5F5F5F5F5F5F5F5F5F5
310
F5F5F5F5F5F5F5F5F5F5F5F5F5F5F5F5F5F5F5F5F5F5F5F5F5F5F5F5F5F5F5F5F5F5F5F5F5F5F5F5F5F5F5F5F5F5F5F5F5F5F5F5F5F5F5F5F5F5F5F5F5F5F5F5F5F5F5F5F5F5F5F5F5F5F5F5F5F5F5F5F5F5F5F53E3CEFE2E2F5F5F5F5F5F5F5F5F5F5F5F5F5F5F5F5F5F5F5F5F5F5F5F5F5F5F5F5F5F5F5F5F5F5F5F5F5F5
310
F5F5F5F5F5F5F5F5F5F5F5F5F5F5F5F5F5F5F5F5F5F5F5F5F5F5F5F5F5F5F5F5F5F5F5F5F5F5F5F5F5F5F5F5F5F5F5F5F5F5F5F5F5F5F5F5F56962EFE2E2F5F5F5F5F5F5F5F5F5F5F5F5F5F5F5F5F5F5F5F5F5F5F5F5F5F5F5F5F5F5F5F5F5F5F5F5F5F5F5F5F5F5F5F5F5F5F5F5F5F5F5F5F5F5F5F5F5F5F5F5F5F5F5F5F5
310
F5F5F5F5F5F5F5F5F5F5F5F5F5F5F5F5F5F5F5F5F5F5F5F5F5F5F5F5F5F53435EFE2E2F5F5F5F5F5F5F5F5F5F5F5F5F5F5F5F5F5F5F5F5F5F5F5F5F5F5F5F5F5F5F5F5F5F5F5F5F5F5F5F5F5F5F5F5F5F5F5F5F5F5F5F5F5F5F5F5F5F5F5F5F5F5F5F5F5F5F5F5F5F5F5F5F5F5F5F5F5F5F5F5F5F5F5F5F5F5F5F5F5F5F5F5
310
F5F5F53E3CEFE2F5F5F5F5F5F5F5F5F5F5F5F5F5F5F5F5F5F5F5F5F5F5F5F5F5F5F5F5F5F5F5F5F5F5F5F5F5F5F5F5F5F5F5F5F5F5F5F5F5F5F5F5F5F5F5F5F5F5F5F5F5F5F5F5F5F5F5F5F5F5F5F5F5F5F5F5F5F5F5F5F5F5F5F5F5F5F5F5F5F5F5F5F5F5F5F53822EFE2F5F5F5F5F5F5F5F5F5F5F5F5F5F5F5F5F5F5F5F5
310
F5F5F5F5F5F5F5F5F5F5F5F5F5F5F5F5F5F5F5F5F5F5F5F5F5F5F5F5F5F5F5F5F5F5F5F5F5F5F5F5F5F5F5F5F5F5F5F5F5F5F5F5F5F5F5F5F5F5F5F5F5F5F5F5F5F5F5F5F5F5F5F5F5F5F5F57374EFE2F5F5F5F5F5F5F5F5F5F5F5F5F5F5F5F5F5F5F5F5F5F5F5F5F5F5F5F5F5F5F5F5F5F5F5F5F5F5F5F5F5F5F5F5F5F5F5
310
F5F5F5F5F5F5F5F5F5F5F5F5F5F5F5F5F5F5F5F5F5F5F5F5F5F5F5F5F5F5F5F5F5F5F5F5F5F5F5F5F5F5F5F5F5F5F5F5F55BE3EFE2F5F5F5F5F5F5F5F5F5F5F5F5F5F5F5F5F5F5F5F5F5F5F5F5F5F5F5F5F5F5F5F5F5F5F5F5F5F5F5F5F5F5F5F5F5F5F5F5F5F5F5F5F5F5F5F5F5F5F5F5F5F5F5F5F5F5F5F5F5F5F5F5F5F5
310
F5F5F5F5F5F5F5F5F5F5F5F5F5F5F5F5F5F5F5F5F5F53D22EFE2F5F5F5F5F5F5F5F5F5F5F5F5F5F5F5F5F5F5F5F5F5F5F5F5F5F5F5F5F5F5F5F5F5F5F5F5F5F5F5F5F5F5F5F5F5F5F5F5F5F5F5F5F5F5F5F5F5F5F5F5F5F5F5F5F5F5F5F5F5F5F5F5F5F5F5F5F5F5F5F5F5F5F5F5F5F5F5F5F5F5F5F5F5F5F5F53D22EFE2F5
310
F5F5F5F5F5F5F5F5F5F5F5F5F5F5F5F5F5F5F5F5F5F5F5F5F5F5F5F5F5F5F5F5F5F5F5F5F5F5F5F5F5F5F5F5F5F5F5F5F5F5F5F5F5F5F5F5F5F5F5F5F5F5F5F5F5F5F5F5F5F5F5F5F5F5F5F5F5F5F5F5F5F5F5F5F5F5F5F5F5F5F5F5F5F5F52069EFE2F5F5F5F5F5F5F5F5F5F5F5F5F5F5F5F5F5F5F5F5F5F5F5F5F5F5F5F5
310
F5F5F5F5F5F5F5F5F5F5F5F5F5F5F5F5F5F5F5F5F5F5F5F5F5F5F5F5F5F5F5F5F5F5F5F5F5F5F5F5F5F5F5F5F5F5F5F5F5F5F5F5F5F5F5F5F5F5F5F5F5F5F5F5F5F5F5F52F61EFE2F5F5F5F5F5F5F5F5F5F5F5F5F5F5F5F5F5F5F5F5F5F5F5F5F5F5F5F5F5F5F5F5F5F5F5F5F5F5F5F5F5F5F5F5F5F5F5F5F5F5F5F5F5F5F5
310
F5F5F5F5F5F5F5F5F5F5F5F5F5F5F5F5F5F5F5F5F5F5F5F5F5F5F5F5F5F5F5F5F5F5F5F5F5F5F5F5F5223EEFE2F5F5F5F5F5F5F5F5F5F5F5F5F5F5F5F5F5F5F5F5F5F5F5F5F5F5F5F5F5F5F5F5F5F5F5F5F5F5F5F5F5F5F5F5F5F5F5F5F5F5F5F5F5F5F5F5F5F5F5F5F5F5F5F5F5F5F5F5F5F5F5F5F5F5F5F5F5F5F5F5F5F5
310
F5F5F5F5F5F5F5F5F5F5F5F5F5F56179EFE2F5F5F5F5F5F5F5F5F5F5F5F5F5F5F5F5F5F5F5F5F5F5F5F5F5F5F5F5F5F5F5F5F5F5F5F5F5F5F5F5F5F5F5F5F5F5F5F5F5F5F5F5F5F5F5F5F5F5F5F5F5F5F5F5F5F5F5F5F5F5F5F5F5F5F5F5F5F5F5F5F5F5F5F5F5F5F5F5F5F5F5F5F5F5F5F53C61EFE2E2F5F5F5F5F5F5F5F5
310
F5F5F5F5F5F5F5F5F5F5F5F5F5F5F5F5F5F5F5F5F5F5F5F5F5F5F5F5F5F5F5F5F5F5F5F5F5F5F5F5F5F5F5F5F5F5F5F5F5F5F5F5F5F5F5F5F5F5F5F5F5F5F5F5F5F5F5F5F5F5F5F5F5F5F5F5F5F5F5F5F5F5F5F5F5F5F53530EFE2E2F5F5F5F5F5F5F5F5F5F5F5F5F5F5F5F5F5F5F5F5F5F5F5F5F5F5F5F5F5F5F5F5F5F5F5
310
F5F5F5F5F5F5F5F5F5F5F5F5F5F5F5F5F5F5F5F5F5F5F5F5F5F5F5F5F5F5F5F5F5F5F5F5F5F5F5F5F5F5F5F5F5F5F5F5F5F5F5F5F5F5F5F5F5F5F5F55441EFE2E2F5F5F5F5F5F5F5F5F5F5F5F5F5F5F5F5F5F5F5F5F5F5F5F5F5F5F5F5F5F5F5F5F5F5F5F5F5F5F5F5F5F5F5F5F5F5F5F5F5F5F5F5F5F5F5F5F5F5F5F5F5F5
310
F5F5F5F5F5F5F5F5F5F5F5F5F5F5F5F5F5F5F5F5F5F5F5F5F5F5F5F5F5F5F5F5F57269EFE2E2F5F5F5F5F5F5F5F5F5F5F5F5F5F5F5F5F5F5F5F5F5F5F5F5F5F5F5F5F5F5F5F5F5F5F5F5F5F5F5F5F5F5F5F5F5F5F5F5F5F5F5F5F5F5F5F5F5F5F5F5F5F5F5F5F5F5F5F5F5F5F5F5F5F5F5F5F5F5F5F5F5F5F5F5F5F5F5F5F5
310
F5F5F5F5F5F52F73EFE2E2F5F5F5F5F5F5F5F5F5F5F5F5F5F5F5F5F5F5F5F5F5F5F5F5F5F5F5F5F5F5F5F5F5F5F5F5F5F5F5F5F5F5F5F5F5F5F5F5F5F5F5F5F5F5F5F5F5F5F5F5F5F5F5F5F5F5F5F5F5F5F5F5F5F5F5F5F5F5F5F5F5F5F5F5F5F5F5F5F5F5F5F5F5F5F5415BEFE2E2F5F5F5F5F5F5F5F5F5F5F5F5F5F5F5F5
310
F5F5F5F5F5F5F5F5F5F5F5F5F5F5F5F5F5F5F5F5F5F5F5F5F5F5F5F5F5F5F5F5F5F5F5F5F5F5F5F5F5F5F5F5F5F5F5F5F5F5F5F5F5F5F5F5F5F5F5F5F5F5F5F5F5F5F5F5F5F5F5F5F5F5F5F5F5F5F53E3CEFE2E2F5F5F5F5F5F5F5F5F5F5F5F5F5F5F5F5F5F5F5F5F5F5F5F5F5F5F5F5F5F5F5F5F5F5F5F5F5F5F5F5F5F5F5
310
F5F5F5F5F5F5F5F5F5F5F5F5F5F5F5F5F5F5F5F5F5F5F5F5F5F5F5F5F5F5F5F5F5F5F5F5F5F5F5F5F5F5F5F5F5F5F5F5F5F5F5F5E381EFE2E2F5F5F5F5F5F5F5F5F5F5F5F5F5F5F5F5F5F5F5F5F5F5F5F5F5F5F5F5F5F5F5F5F5F5F5F5F5F5F5F5F5F5F5F5F5F5F5F5F5F5F5F5F5F5F5F5F5F5F5F5F5F5F5F5F5F5F5F5F5F5
310
F5F5F5F5F5F5F5F5F5F5F5F5F5F5F5F5F5F5F5F5F5F5F5F5F56964EFE2E2F5F5F5F5F5F5F5F5F5F5F5F5F5F5F5F5F5F5F5F5F5F5F5F5F5F5F5F5F5F5F5F5F5F5F5F5F5F5F5F5F5F5F5F5F5F5F5F5F5F5F5F5F5F5F5F5F5F5F5F5F5F5F5F5F5F5F5F5F5F5F5F5F5F5F5F5F5F5F5F5F5F5F5F5F5F5F5F5F5F5F5F5F5F5F56962
310
EFE2E2F5F5F5F5F5F5F5F5F5F5F5F5F5F5F5F5F5F5F5F5F5F5F5F5F5F5F5F5F5F5F5F5F5F5F5F5F5F5F5F5F5F5F5F5F5F5F5F5F5F5F5F5F5F5F5F5F5F5F5F5F5F5F5F5F5F5F5F5F5F5F5F5F5F5F5F5F5F5F5F5F5F5F5F5F5F5F5F5F5F5F5F5F5F5F56174EFE2E2F5F5F5F5F5F5F5F5F5F5F5F5F5F5F5F5F5F5F5F5F5F5F5F5
310
F5F5F5F5F5F5F5F5F5F5F5F5F5F5F5F5F5F5F5F5F5F5F5F5F5F5F5F5F5F5F5F5F5F5F5F5F5F5F5F5F5F5F5F5F5F5F5F5F5F5F5F5F5F5F5F5F5F5F5F5F5F5F5F5F5F5F5F5F5F5F55D3EEFE2E2F5F5F5F5F5F5F5F5F5F5F5F5F5F5F5F5F5F5F5F5F5F5F5F5F5F5F5F5F5F5F5F5F5F5F5F5F5F5F5F5F5F5F5F5F5F5F5F5F5F5F5
310
F5F5F5F5F5F5F5F5F5F5F5F5F5F5F5F5F5F5F5F5F5F5F5F5F5F5F5F5F5F5F5F5F5F5F5F5F5F5F5F5F5F5F5F53236EFE2E2F5F5F5F5F5F5F5F5F5F5F5F5F5F5F5F5F5F5F5F5F5F5F5F5F5F5F5F5F5F5F5F5F5F5F5F5F5F5F5F5F5F5F5F5F5F5F5F5F5F5F5F5F5F5F5F5F5F5F5F5F5F5F5F5F5F5F5F5F5F5F5F5F5F5F5F5F5F5
310
F5F5F5F5F5F5F5F5F5F5F5F5F5F5F5F5F5643DEFE2E2F5F5F5F5F5F5F5F5F5F5F5F5F5F5F5F5F5F5F5F5F5F5F5F5F5F5F5F5F5F5F5F5F5F5F5F5F5F5F5F5F5F5F5F5F5F5F5F5F5F5F5F5F5F5F5F5F5F5F5F5F5F5F5F5F5F5F5F5F5F5F5F5F5F5F5F5F5F5F5F5F5F5F5F5F5F5F5F5F5F5F5F5F5F5F56520EFE2E2F5F5F5F5F5
310
F5F5F5F5F5F5F5F5F5F5F5F5F5F5F5F5F5F5F5F5F5F5F5F5F5F5F5F5F5F5F5F5F5F5F5F5F5F5F5F5F5F5F5F5F5F5F5F5F5F5F5F5F5F5F5F5F5F5F5F5F5F5F5F5F5F5F5F5F5F5F5F5F5F5F5F5F5F5F5F5F5F5F5F5F5F5F5F5F5F55D3EEFE2E2F5F5F5F5F5F5F5F5F5F5F5F5F5F5F5F5F5F5F5F5F5F5F5F5F5F5F5F5F5F5F5F5
310
F5F5F5F5F5F5F5F5F5F5F5F5F5F5F5F5F5F5F5F5F5F5F5F5F5F5F5F5F5F5F5F5F5F5F5F5F5F5F5F5F5F5F5F5F5F5F5F5F5F5F5F5F5F5F5F5F5F5F5F5F5F5F53E3CEFE2E2F5F5F5F5F5F5F5F5F5F5F5F5F5F5F5F5F5F5F5F5F5F5F5F5F5F5F5F5F5F5F5F5F5F5F5F5F5F5F5F5F5F5F5F5F5F5F5F5F5F5F5F5F5F5F5F5F5F5F5
310
F5F5F5F5F5F5F5F5F5F5F5F5F5F5F5F5F5F5F5F5F5F5F5F5F5F5F5F5F5F5F5F5F5F5F5F53E3CEFE2F5F5F5F5F5F5F5F5F5F5F5F5F5F5F5F5F5F5F5F5F5F5F5F5F5F5F5F5F5F5F5F5F5F5F5F5F5F5F5F5F5F5F5F5F5F5F5F5F5F5F5F5F5F5F5F5F5F5F5F5F5F5F5F5F5F5F5F5F5F5F5F5F5F5F5F5F5F5F5F5F5F5F5F5F5F5F5
310
F5F5F5F5F5F5F5F5F57970EFE2F5F5F5F5F5F5F5F5F5F5F5F5F5F5F5F5F5F5F5F5F5F5F5F5F5F5F5F5F5F5F5F5F5F5F5F5F5F5F5F5F5F5F5F5F5F5F5F5F5F5F5F5F5F5F5F5F5F5F5F5F5F5F5F5F5F5F5F5F5F5F5F5F5F5F5F5F5F5F5F5F5F5F5F5F5F5F5F5F5F5F5F5F5F5F5F57474EFE2F5F5F5F5F5F5F5F5F5F5F5F5F5F5
310
F5F5F5F5F5F5F5F5F5F5F5F5F5F5F5F5F5F5F5F5F5F5F5F5F5F5F5F5F5F5F5F5F5F5F5F5F5F5F5F5F5F5F5F5F5F5F5F5F5F5F5F5F5F5F5F5F5F5F5F5F5F5F5F5F5F5F5F5F5F5F5F5F5F5F5F5F5F5F5F5F5F53E3CEFE2F5F5F5F5F5F5F5F5F5F5F5F5F5F5F5F5F5F5F5F5F5F5F5F5F5F5F5F5F5F5F5F5F5F5F5F5F5F5F5F5F5
310
F5F5F5F5F5F5F5F5F5F5F5F5F5F5F5F5F5F5F5F5F5F5F5F5F5F5F5F5F5F5F5F5F5F5F5F5F5F5F5F5F5F5F5F5F5F5F5F5F5F5F5F5F5F5F53E3CEFE2F5F5F5F5F5F5F5F5F5F5F5F5F5F5F5F5F5F5F5F5F5F5F5F5F5F5F5F5F5F5F5F5F5F5F5F5F5F5F5F5F5F5F5F5F5F5F5F5F5F5F5F5F5F5F5F5F5F5F5F5F5F5F5F5F5F5F5F5
310
F5F5F5F5F5F5F5F5F5F5F5F5F5F5F5F5F5F5F5F5F5F5F5F5F5F5F5F57465EFE2F5F5F5F5F5F5F5F5F5F5F5F5F5F5F5F5F5F5F5F5F5F5F5F5F5F5F5F5F5F5F5F5F5F5F5F5F5F5F5F5F5F5F5F5F5F5F5F5F5F5F5F5F5F5F5F5F5F5F5F5F5F5F5F5F5F5F5F5F5F5F5F5F5F5F5F5F5F5F5F5F5F5F5F5F5F5F5F5F5F5F5F5F5F5F5
310
F54E4EEFE2F5F5F5F5F5F5F5F5F5F5F5F5F5F5F5F5F5F5F5F5F5F5F5F5F5F5F5F5F5F5F5F5F5F5F5F5F5F5F5F5F5F5F5F5F5F5F5F5F5F5F5F5F5F5F5F5F5F5F5F5F5F5F5F5F5F5F5F5F5F5F5F5F5F5F5F5F5F5F5F5F5F5F5F5F5F5F5F5F5F5F5F5F5F5F5F53234EFE2F5F5F5F5F5F5F5F5F5F5F5F5F5F5F5F5F5F5F5F5F5F5
310
F5F5F5F5F5F5F5F5F5F5F5F5F5F5F5F5F5F5F5F5F5F5F5F5F5F5F5F5F5F5F5F5F5F5F5F5F5F5F5F5F5F5F5F5F5F5F5F5F5F5F5F5F5F5F5F5F5F5F5F5F5F5F5F5F5F5F5F5F5F5F5F5F5F53C21EFE2F5F5F5F5F5F5F5F5F5F5F5F5F5F5F5F5F5F5F5F5F5F5F5F5F5F5F5F5F5F5F5F5F5F5F5F5F5F5F5F5F5F5F5F5F5F5F5F5F5
310
F5F5F5F5F5F5F5F5F5F5F5F5F5F5F5F5F5F5F5F5F5F5F5F5F5F5F5F5F5F5F5F5F5F5F5F5F5F5F5F5F5F5F5F5F5F5F50000EFE2F5F5F5F5F5F5F5F5F5F5F5F5F5F5F5F5F5F5F5F5F5F5F5F5F5F5F5F5F5F5F5F5F5F5F5F5F5F5F5F5F5F5F5F5F5F5F5F5F5F5F5F5F5F5F5F5F5F5F5F5F5F5F5F5F5F5F5F5F5F5F5F5F5F5F5F5
310
F5F5F5F5F5F5F5F5F5F5F5F5F5F5F5F5F5F5F5F50000EFE2E2F5F5F5F5F5F5F5F5F5F5F5F5F5F5F5F5F5F5F5F5F5F5F5F5F5F5F5F5F5F5F5F5F5F5F5F5F5F5F5F5F5F5F5F5F5F5F5F5F5F5F5F5F5F5F5F5F5F5F5F5F5F5F5F5F5F5F5F5F5F5F5F5F5F5F5F5F5F5F5F5F5F5F5F5F5F5F5F5F5F5F5F5F5F5F52D46EFE2E2F5F5
310
F5F5F5F5F5F5F5F5F5F5F5F5F5F5F5F5F5F5F5F5F5F5F5F5F5F5F5F5F5F5F5F5F5F5F5F5F5F5F5F5F5F5F5F5F5F5F5F5F5F5F5F5F5F5F5F5F5F5F5F5F5F5F5F5F5F5F5F5F5F5F5F5F5F5F5F5F5F5F5F5F5F5F5F5F5F5F5F5F5F5F5F5F5653DEFE2E2F5F5F5F5F5F5F5F5F5F5F5F5F5F5F5F5F5F5F5F5F5F5F5F5F5F5F5F5F5
310
F5F5F5F5F5F5F5F5F5F5F5F5F5F5F5F5F5F5F5F5F5F5F5F5F5F5F5F5F5F5F5F5F5F5F5F5F5F5F5F5F5F5F5F5F5F5F5F5F5F5F5F5F5F5F5F5F5F5F5F5F5F5F5F5F5F5315DEFE2E2F5F5F5F5F5F5F5F5F5F5F5F5F5F5F5F5F5F5F5F5F5F5F5F5F5F5F5F5F5F5F5F5F5F5F5F5F5F5F5F5F5F5F5F5F5F5F5F5F5F5F5F5F5F5F5F5
310
F5F5F5F5F5F5F5F5F5F5F5F5F5F5F5F5F5F5F5F5F5F5F5F5F5F5F5F5F5F5F5F5F5F5F5F5F5F5F57472EFE2E2F5F5F5F5F5F5F5F5F5F5F5F5F5F5F5F5F5F5F5F5F5F5F5F5F5F5F5F5F5F5F5F5F5F5F5F5F5F5F5F5F5F5F5F5F5F5F5F5F5F5F5F5F5F5F5F5F5F5F5F5F5F5F5F5F5F5F5F5F5F5F5F5F5F5F5F5F5F5F5F5F5F5F5
310
F5F5F5F5F5F5F5F5F5F5F5F54154EFE2E2F5F5F5F5F5F5F5F5F5F5F5F5F5F5F5F5F5F5F5F5F5F5F5F5F5F5F5F5F5F5F5F5F5F5F5F5F5F5F5F5F5F5F5F5F5F5F5F5F5F5F5F5F5F5F5F5F5F5F5F5F5F5F5F5F5F5F5F5F5F5F5F5F5F5F5F5F5F5F5F5F5F5F5F5F5F5F5F5F5F5F5F5F5F5F53C2FEFE2E2F5F5F5F5F5F5F5F5F5F5
310
F5F5F5F5F5F5F5F5F5F5F5F5F5F5F5F5F5F5F5F5F5F5F5F5F5F5F5F5F5F5F5F5F5F5F5F5F5F5F5F5F5F5F5F5F5F5F5F5F5F5F5F5F5F5F5F5F5F5F5F5F5F5F5F5F5F5F5F5F5F5F5F5F5F5F5F5F5F5F5F5F5F5F5F5F56964EFE2E2F5F5F5F5F5F5F5F5F5F5F5F5F5F5F5F5F5F5F5F5F5F5F5F5F5F5F5F5F5F5F5F5F5F5F5F5F5
310
F5F5F5F5F5F5F5F5F5F5F5F5F5F5F5F5F5F5F5F5F5F5F5F5F5F5F5F5F5F5F5F5F5F5F5F5F5F5F5F5F5F5F5F5F5F5F5F5F5F5F5F5F5F5F5F5F5F57474EFE2E2F5F5F5F5F5F5F5F5F5F5F5F5F5F5F5F5F5F5F5F5F5F5F5F5F5F5F5F5F5F5F5F5F5F5F5F5F5F5F5F5F5F5F5F5F5F5F5F5F5F5F5F5F5F5F5F5F5F5F5F5F5F5F5F5
310
F5F5F5F5F5F5F5F5F5F5F5F5F5F5F5F5F5F5F5F5F5F5F5F5F5F5F5F5F5F5F5223EEFE2E2F5F5F5F5F5F5F5F5F5F5F5F5F5F5F5F5F5F5F5F5F5F5F5F5F5F5F5F5F5F5F5F5F5F5F5F5F5F5F5F5F5F5F5F5F5F5F5F5F5F5F5F5F5F5F5F5F5F5F5F5F5F5F5F5F5F5F5F5F5F5F5F5F5F5F5F5F5F5F5F5F5F5F5F5F5F5F5F5F5F5F5
310
F5F5F5F56174EFE2E2F5F5F5F5F5F5F5F5F5F5F5F5F5F5F5F5F5F5F5F5F5F5F5F5F5F5F5F5F5F5F5F5F5F5F5F5F5F5F5F5F5F5F5F5F5F5F5F5F5F5F5F5F5F5F5F5F5F5F5F5F5F5F5F5F5F5F5F5F5F5F5F5F5F5F5F5F5F5F5F5F5F5F5F5F5F5F5F5F5F5F5F5F5F5F53E3CEFE2E2F5F5F5F5F5F5F5F5F5F5F5F5F5F5F5F5F5F5
310
F5F5F5F5F5F5F5F5F5F5F5F5F5F5F5F5F5F5F5F5F5F5F5F5F5F5F5F5F5F5F5F5F5F5F5F5F5F5F5F5F5F5F5F5F5F5F5F5F5F5F5F5F5F5F5F5F5F5F5F5F5F5F5F5F5F5F5F5F5F5F5F5F5F5F5F5F57970EFE2E2F5F5F5F5F5F5F5F5F5F5F5F5F5F5F5F5F5F5F5F5F5F5F5F5F5F5F5F5F5F5F5F5F5F5F5F5F5F5F5F5F5F5F5F5F5
310
F5F5F5F5F5F5F5F5F5F5F5F5F5F5F5F5F5F5F5F5F5F5F5F5F5F5F5F5F5F5F5F5F5F5F5F5F5F5F5F5F5F5F5F5F5F5F5F5F5F56174EFE2E2F5F5F5F5F5F5F5F5F5F5F5F5F5F5F5F5F5F5F5F5F5F5F5F5F5F5F5F5F5F5F5F5F5F5F5F5F5F5F5F5F5F5F5F5F5F5F5F5F5F5F5F5F5F5F5F5F5F5F5F5F5F5F5F5F5F5F5F5F5F5F5F5
310
F5F5F5F5F5F5F5F5F5F5F5F5F5F5F5F5F5F5F5F5F5F5F53022EFE2E2F5F5F5F5F5F5F5F5F5F5F5F5F5F5F5F5F5F5F5F5F5F5F5F5F5F5F5F5F5F5F5F5F5F5F5F5F5F5F5F5F5F5F5F5F5F5F5F5F5F5F5F5F5F5F5F5F5F5F5F5F5F5F5F5F5F5F5F5F5F5F5F5F5F5F5F5F5F5F5F5F5F5F5F5F5F5F5F5F5F5F5F5F5F5F57474EFE2
310
E2F5F5F5F5F5F5F5F5F5F5F5F5F5F5F5F5F5F5F5F5F5F5F5F5F5F5F5F5F5F5F5F5F5F5F5F5F5F5F5F5F5F5F5F5F5F5F5F5F5F5F5F5F5F5F5F5F5F5F5F5F5F5F5F5F5F5F5F5F5F5F5F5F5F5F5F5F5F5F5F5F5F5F5F5F5F5F5F5F5F5F5F5F5F5F5223EEFE2E2F5F5F5F5F5F5F5F5F5F5F5F5F5F5F5F5F5F5F5F5F5F5F5F5F5F5
310
F5F5F5F5F5F5F5F5F5F5F5F5F5F5F5F5F5F5F5F5F5F5F5F5F5F5F5F5F5F5F5F5F5F5F5F5F5F5F5F5F5F5F5F5F5F5F5F5F5F5F5F5F5F5F5F5F5F5F5F5F5F5F5F5F5F5F5F5F56174EFE2E2F5F5F5F5F5F5F5F5F5F5F5F5F5F5F5F5F5F5F5F5F5F5F5F5F5F5F5F5F5F5F5F5F5F5F5F5F5F5F5F5F5F5F5F5F5F5F5F5F5F5F5F5F5
310
F5F5F5F5F5F5F5F5F5F5F5F5F5F5F5F5F5F5F5F5F5F5F5F5F5F5F5F5F5F5F5F5F5F5F5F5F5F5F5F5F5F53E3CEFE2F5F5F5F5F5F5F5F5F5F5F5F5F5F5F5F5F5F5F5F5F5F5F5F5F5F5F5F5F5F5F5F5F5F5F5F5F5F5F5F5F5F5F5F5F5F5F5F5F5F5F5F5F5F5F5F5F5F5F5F5F5F5F5F5F5F5F5F5F5F5F5F5F5F5F5F5F5F5F5F5F5
310
F5F5F5F5F5F5F5F5F5F5F5F5F5F5F57970EFE2F5F5F5F5F5F5F5F5F5F5F5F5F5F5F5F5F5F5F5F5F5F5F5F5F5F5F5F5F5F5F5F5F5F5F5F5F5F5F5F5F5F5F5F5F5F5F5F5F5F5F5F5F5F5F5F5F5F5F5F5F5F5F5F5F5F5F5F5F5F5F5F5F5F5F5F5F5F5F5F5F5F5F5F5F5F5F5F5F5F5F5F5F5F5F5F56174EFE2F5F5F5F5F5F5F5F5
310
F5F5F5F5F5F5F5F5F5F5F5F5F5F5F5F5F5F5F5F5F5F5F5F5F5F5F5F5F5F5F5F5F5F5F5F5F5F5F5F5F5F5F5F5F5F5F5F5F5F5F5F5F5F5F5F5F5F5F5F5F5F5F5F5F5F5F5F5F5F5F5F5F5F5F5F5F5F5F5F5F5F5F5F5F5F5F5F53022EFE2F5F5F5F5F5F5F5F5F5F5F5F5F5F5F5F5F5F5F5F5F5F5F5F5F5F5F5F5F5F5F5F5F5F5F5
310
F5F5F5F5F5F5F5F5F5F5F5F5F5F5F5F5F5F5F5F5F5F5F5F5F5F5F5F5F5F5F5F5F5F5F5F5F5F5F5F5F5F5F5F5F5F5F5F5F5F5F5F5F5F5F5F5F5F5F5F5F54344EFE2F5F5F5F5F5F5F5F5F5F5F5F5F5F5F5F5F5F5F5F5F5F5F5F5F5F5F5F5F5F5F5F5F5F5F5F5F5F5F5F5F5F5F5F5F5F5F5F5F5F5F5F5F5F5F5F5F5F5F5F5F5F5
310
F5F5F5F5F5F5F5F5F5F5F5F5F5F5F5F5F5F5F5F5F5F5F5F5F5F5F5F5F5F5F5F5F5F56174EFE2F5F5F5F5F5F5F5F5F5F5F5F5F5F5F5F5F5F5F5F5F5F5F5F5F5F5F5F5F5F5F5F5F5F5F5F5F5F5F5F5F5F5F5F5F5F5F5F5F5F5F5F5F5F5F5F5F5F5F5F5F5F5F5F5F5F5F5F5F5F5F5F5F5F5F5F5F5F5F5F5F5F5F5F5F5F5F5F5F5
310
F5F5F5F5F5F5F5653EEFE2F5F5F5F5F5F5F5F5F5F5F5F5F5F5F5F5F5F5F5F5F5F5F5F5F5F5F5F5F5F5F5F5F5F5F5F5F5F5F5F5F5F5F5F5F5F5F5F5F5F5F5F5F5F5F5F5F5F5F5F5F5F5F5F5F5F5F5F5F5F5F5F5F5F5F5F5F5F5F5F5F5F5F5F5F5F5F5F5F5F5F5F5F5F5F5F5E383EFE2F5F5F5F5F5F5F5F5F5F5F5F5F5F5F5F5
310
F5F5F5F5F5F5F5F5F5F5F5F5F5F5F5F5F5F5F5F5F5F5F5F5F5F5F5F5F5F5F5F5F5F5F5F5F5F5F5F5F5F5F5F5F5F5F5F5F5F5F5F5F5F5F5F5F5F5F5F5F5F5F5F5F5F5F5F5F5F5F5F5F5F5F5F5F5F5F5F53632EFE2F5F5F5F5F5F5F5F5F5F5F5F5F5F5F5F5F5F5F5F5F5F5F5F5F5F5F5F5F5F5F5F5F5F5F5F5F5F5F5F5F5F5F5
310
F5F5F5F5F5F5F5F5F5F5F5F5F5F5F5F5F5F5F5F5F5F5F5F5F5F5F5F5F5F5F5F5F5F5F5F5F5F5F5F5F5F5F5F5F5F5F5F5F5F5F5F5F53039EFE2E2F5F5F5F5F5F5F5F5F5F5F5F5F5F5F5F5F5F5F5F5F5F5F5F5F5F5F5F5F5F5F5F5F5F5F5F5F5F5F5F5F5F5F5F5F5F5F5F5F5F5F5F5F5F5F5F5F5F5F5F5F5F5F5F5F5F5F5F5F5
310
F5F5F5F5F5F5F5F5F5F5F5F5F5F5F5F5F5F5F5F5F5F5F5F5F5F52236EFE2E2F5F5F5F5F5F5F5F5F5F5F5F5F5F5F5F5F5F5F5F5F5F5F5F5F5F5F5F5F5F5F5F5F5F5F5F5F5F5F5F5F5F5F5F5F5F5F5F5F5F5F5F5F5F5F5F5F5F5F5F5F5F5F5F5F5F5F5F5F5F5F5F5F5F5F5F5F5F5F5F5F5F5F5F5F5F5F5F5F5F5F5F5F5F5F572
310
69EFE2E2F5F5F5F5F5F5F5F5F5F5F5F5F5F5F5F5F5F5F5F5F5F5F5F5F5F5F5F5F5F5F5F5F5F5F5F5F5F5F5F5F5F5F5F5F5F5F5F5F5F5F5F5F5F5F5F5F5F5F5F5F5F5F5F5F5F5F5F5F5F5F5F5F5F5F5F5F5F5F5F5F5F5F5F5F5F5F5F5F5F5F5F5F5F5F55B43EFE2E2F5F5F5F5F5F5F5F5F5F5F5F5F5F5F5F5F5F5F5F5F5F5F5
310
F5F5F5F5F5F5F5F5F5F5F5F5F5F5F5F5F5F5F5F5F5F5F5F5F5F5F5F5F5F5F5F5F5F5F5F5F5F5F5F5F5F5F5F5F5F5F5F5F5F5F5F5F5F5F5F5F5F5F5F5F5F5F5F5F5F5F5F5F5F5F5F5696EEFE2E2F5F5F5F5F5F5F5F5F5F5F5F5F5F5F5F5F5F5F5F5F5F5F5F5F5F5F5F5F5F5F5F5F5F5F5F5F5F5F5F5F5F5F5F5F5F5F5F5F5F5
310
F5F5F5F5F5F5F5F5F5F5F5F5F5F5F5F5F5F5F5F5F5F5F5F5F5F5F5F5F5F5F5F5F5F5F5F5F5F5F5F5F5F5F5F5F57269EFE2E2F5F5F5F5F5F5F5F5F5F5F5F5F5F5F5F5F5F5F5F5F5F5F5F5F5F5F5F5F5F5F5F5F5F5F5F5F5F5F5F5F5F5F5F5F5F5F5F5F5F5F5F5F5F5F5F5F5F5F5F5F5F5F5F5F5F5F5F5F5F5F5F5F5F5F5F5F5
310
F5F5F5F5F5F5F5F5F5F5F5F5F5F5F5F5F5F53C73EFE2E2F5F5F5F5F5F5F5F5F5F5F5F5F5F5F5F5F5F5F5F5F5F5F5F5F5F5F5F5F5F5F5F5F5F5F5F5F5F5F5F5F5F5F5F5F5F5F5F5F5F5F5F5F5F5F5F5F5F5F5F5F5F5F5F5F5F5F5F5F5F5F5F5F5F5F5F5F5F5F5F5F5F5F5F5F5F5F5F5F5F5F5F5F5F5F5616CEFE2E2F5F5F5F5
310
F5F5F5F5F5F5F5F5F5F5F5F5F5F5F5F5F5F5F5F5F5F5F5F5F5F5F5F5F5F5F5F5F5F5F5F5F5F5F5F5F5F5F5F5F5F5F5F5F5F5F5F5F5F5F5F5F5F5F5F5F5F5F5F5F5F5F5F5F5F5F5F5F5F5F5F5F5F5F5F5F5F5F5F5F5F5F5F5F5F5F56964EFE2E2F5F5F5F5F5F5F5F5F5F5F5F5F5F5F5F5F5F5F5F5F5F5F5F5F5F5F5F5F5F5F5
310
F5F5F5F5F5F5F5F5F5F5F5F5F5F5F5F5F5F5F5F5F5F5F5F5F5F5F5F5F5F5F5F5F5F5F5F5F5F5F5F5F5F5F5F5F5F5F5F5F5F5F5F5F5F5F5F5F5F5F5F5F5F5F5F57465EFE2E2F5F5F5F5F5F5F5F5F5F5F5F5F5F5F5F5F5F5F5F5F5F5F5F5F5F5F5F5F5F5F5F5F5F5F5F5F5F5F5F5F5F5F5F5F5F5F5F5F5F5F5F5F5F5F5F5F5F5
310
F5F5F5F5F5F5F5F5F5F5F5F5F5F5F5F5F5F5F5F5F5F5F5F5F5F5F5F5F5F5F5F5F5F5F5F5F5AAE3EFE2E2F5F5F5F5F5F5F5F5F5F5F5F5F5F5F5F5F5F5F5F5F5F5F5F5F5F5F5F5F5F5F5F5F5F5F5F5F5F5F5F5F5F5F5F5F5F5F5F5F5F5F5F5F5F5F5F5F5F5F5F5F5F5F5F5F5F5F5F5F5F5F5F5F5F5F5F5F5F5F5F5F5F5F5F5F5
310
F5F5F5F5F5F5F5F5F5F57970EFE2E2F5F5F5F5F5F5F5F5F5F5F5F5F5F5F5F5F5F5F5F5F5F5F5F5F5F5F5F5F5F5F5F5F5F5F5F5F5F5F5F5F5F5F5F5F5F5F5F5F5F5F5F5F5F5F5F5F5F5F5F5F5F5F5F5F5F5F5F5F5F5F5F5F5F5F5F5F5F5F5F5F5F5F5F5F5F5F5F5F5F5F5F5F5F5F58081EFE2E2F5F5F5F5F5F5F5F5F5F5F5F5
310
F5F5F5F5F5F5F5F5F5F5F5F5F5F5F5F5F5F5F5F5F5F5F5F5F5F5F5F5F5F5F5F5F5F5F5F5F5F5F5F5F5F5F5F5F5F5F5F5F5F5F5F5F5F5F5F5F5F5F5F5F5F5F5F5F5F5F5F5F5F5F5F5F5F5F5F5F5F5F5F5F5F5F53232EFE2E2F5F5F5F5F5F5F5F5F5F5F5F5F5F5F5F5F5F5F5F5F5F5F5F5F5F5F5F5F5F5F5F5F5F5F5F5F5F5F5
310
F5F5F5F5F5F5F5F5F5F5F5F5F5F5F5F5F5F5F5F5F5F5F5F5F5F5F5F5F5F5F5F5F5F5F5F5F5F5F5F5F5F5F5F5F5F5F5F5F5F5F5F5F5F5F5F5643DEFE2E2F5F5F5F5F5F5F5F5F5F5F5F5F5F5F5F5F5F5F5F5F5F5F5F5F5F5F5F5F5F5F5F5F5F5F5F5F5F5F5F5F5F5F5F5F5F5F5F5F5F5F5F5F5F5F5F5F5F5F5F5F5F5F5F5F5F5
310
F5F5F5F5F5F5F5F5F5F5F5F5F5F5F5F5F5F5F5F5F5F5F5F5F5F5F5F5F56964EFE2E2F5F5F5F5F5F5F5F5F5F5F5F5F5F5F5F5F5F5F5F5F5F5F5F5F5F5F5F5F5F5F5F5F5F5F5F5F5F5F5F5F5F5F5F5F5F5F5F5F5F5F5F5F5F5F5F5F5F5F5F5F5F5F5F5F5F5F5F5F5F5F5F5F5F5F5F5F5F5F5F5F5F5F5F5F5F5F5F5F5F5F5F5F5
310
F5F56174EFE2E2F5F5F5F5F5F5F5F5F5F5F5F5F5F5F5F5F5F5F5F5F5F5F5F5F5F5F5F5F5F5F5F5F5F5F5F5F5F5F5F5F5F5F5F5F5F5F5F5F5F5F5F5F5F5F5F5F5F5F5F5F5F5F5F5F5F5F5F5F5F5F5F5F5F5F5F5F5F5F5F5F5F5F5F5F5F5F5F5F5F5F5F5F5F5F53936EFE2E2F5F5F5F5F5F5F5F5F5F5F5F5F5F5F5F5F5F5F5F5
310
F5F5F5F5F5F5F5F5F5F5F5F5F5F5F5F5F5F5F5F5F5F5F5F5F5F5F5F5F5F5F5F5F5F5F5F5F5F5F5F5F5F5F5F5F5F5F5F5F5F5F5F5F5F5F5F5F5F5F5F5F5F5F5F5F5F5F5F5F5F5F5F5F5F5F53230EFE2F5F5F5F5F5F5F5F5F5F5F5F5F5F5F5F5F5F5F5F5F5F5F5F5F5F5F5F5F5F5F5F5F5F5F5F5F5F5F5F5F5F5F5F5F5F5F5F5
310
F5F5F5F5F5F5F5F5F5F5F5F5F5F5F5F5F5F5F5F5F5F5F5F5F5F5F5F5F5F5F5F5F5F5F5F5F5F5F5F5F5F5F5F5F5F5F5F53D22EFE2F5F5F5F5F5F5F5F5F5F5F5F5F5F5F5F5F5F5F5F5F5F5F5F5F5F5F5F5F5F5F5F5F5F5F5F5F5F5F5F5F5F5F5F5F5F5F5F5F5F5F5F5F5F5F5F5F5F5F5F5F5F5F5F5F5F5F5F5F5F5F5F5F5F5F5
310
F5F5F5F5F5F5F5F5F5F5F5F5F5F5F5F5F5F5F5F5F56174EFE2F5F5F5F5F5F5F5F5F5F5F5F5F5F5F5F5F5F5F5F5F5F5F5F5F5F5F5F5F5F5F5F5F5F5F5F5F5F5F5F5F5F5F5F5F5F5F5F5F5F5F5F5F5F5F5F5F5F5F5F5F5F5F5F5F5F5F5F5F5F5F5F5F5F5F5F5F5F5F5F5F5F5F5F5F5F5F5F5F5F5F5F5F5F5F5F54344EFE2F5F5
310
F5F5F5F5F5F5F5F5F5F5F5F5F5F5F5F5F5F5F5F5F5F5F5F5F5F5F5F5F5F5F5F5F5F5F5F5F5F5F5F5F5F5F5F5F5F5F5F5F5F5F5F5F5F5F5F5F5F5F5F5F5F5F5F5F5F5F5F5F5F5F5F5F5F5F5F5F5F5F5F5F5F5F5F5F5F5F5F5F5F5F5F5F5F54344EFE2F5F5F5F5F5F5F5F5F5F5F5F5F5F5F5F5F5F5F5F5F5F5F5F5F5F5F5F5F5
310
F5F5F5F5F5F5F5F5F5F5F5F5F5F5F5F5F5F5F5F5F5F5F5F5F5F5F5F5F5F5F5F5F5F5F5F5F5F5F5F5F5F5F5F5F5F5F5F5F5F5F5F5F5F5F5F5F5F5F5F5F5F5F5F5F5F5F56E74EFE2F5F5F5F5F5F5F5F5F5F5F5F5F5F5F5F5F5F5F5F5F5F5F5F5F5F5F5F5F5F5F5F5F5F5F5F5F5F5F5F5F5F5F5F5F5F5F5F5F5F5F5F5F5F5F5F5
310
F5F5F5F5F5F5F5F5F5F5F5F5F5F5F5F5F5F5F5F5F5F5F5F5F5F5F5F5F5F5F5F5F5F5F5F5F5F5F5F5623EEFE2F5F5F5F5F5F5F5F5F5F5F5F5F5F5F5F5F5F5F5F5F5F5F5F5F5F5F5F5F5F5F5F5F5F5F5F5F5F5F5F5F5F5F5F5F5F5F5F5F5F5F5F5F5F5F5F5F5F5F5F5F5F5F5F5F5F5F5F5F5F5F5F5F5F5F5F5F5F5F5F5F5F5F5
310
F5F5F5F5F5F5F5F5F5F5F5F5F54344EFE2F5F5F5F5F5F5F5F5F5F5F5F5F5F5F5F5F5F5F5F5F5F5F5F5F5F5F5F5F5F5F5F5F5F5F5F5F5F5F5F5F5F5F5F5F5F5F5F5F5F5F5F5F5F5F5F5F5F5F5F5F5F5F5F5F5F5F5F5F5F5F5F5F5F5F5F5F5F5F5F5F5F5F5F5F5F5F5F5F5F5F5F5F5F5F5F57472EFE2F5F5F5F5F5F5F5F5F5F5
310
F5F5F5F5F5F5F5F5F5F5F5F5F5F5F5F5F5F5F5F5F5F5F5F5F5F5F5F5F5F5F5F5F5F5F5F5F5F5F5F5F5F5F5F5F5F5F5F5F5F5F5F5F5F5F5F5F5F5F5F5F5F5F5F5F5F5F5F5F5F5F5F5F5F5F5F5F5F5F5F5F5F5F5F5F5F52F77EFE2F5F5F5F5F5F5F5F5F5F5F5F5F5F5F5F5F5F5F5F5F5F5F5F5F5F5F5F5F5F5F5F5F5F5F5F5F5
310
F5F5F5F5F5F5F5F5F5F5F5F5F5F5F5F5F5F5F5F5F5F5F5F5F5F5F5F5F5F5F5F5F5F5F5F5F5F5F5F5F5F5F5F5F5F5F5F5F5F5F5F5F5F5F5F5F5F5F54C4CEFE2E2F5F5F5F5F5F5F5F5F5F5F5F5F5F5F5F5F5F5F5F5F5F5F5F5F5F5F5F5F5F5F5F5F5F5F5F5F5F5F5F5F5F5F5F5F5F5F5F5F5F5F5F5F5F5F5F5F5F5F5F5F5F5F5
310
F5F5F5F5F5F5F5F5F5F5F5F5F5F5F5F5F5F5F5F5F5F5F5F5F5F5F5F5F5F5F5F52074EFE2E2F5F5F5F5F5F5F5F5F5F5F5F5F5F5F5F5F5F5F5F5F5F5F5F5F5F5F5F5F5F5F5F5F5F5F5F5F5F5F5F5F5F5F5F5F5F5F5F5F5F5F5F5F5F5F5F5F5F5F5F5F5F5F5F5F5F5F5F5F5F5F5F5F5F5F5F5F5F5F5F5F5F5F5F5F5F5F5F5F5F5
310
F5F5F5F5F54441EFE2E2F5F5F5F5F5F5F5F5F5F5F5F5F5F5F5F5F5F5F5F5F5F5F5F5F5F5F5F5F5F5F5F5F5F5F5F5F5F5F5F5F5F5F5F5F5F5F5F5F5F5F5F5F5F5F5F5F5F5F5F5F5F5F5F5F5F5F5F5F5F5F5F5F5F5F5F5F5F5F5F5F5F5F5F5F5F5F5F5F5F5F5F5F5F5F50000EFE2E2F5F5F5F5F5F5F5F5F5F5F5F5F5F5F5F5F5
310
F5F5F5F5F5F5F5F5F5F5F5F5F5F5F5F5F5F5F5F5F5F5F5F5F5F5F5F5F5F5F5F5F5F5F5F5F5F5F5F5F5F5F5F5F5F5F5F5F5F5F5F5F5F5F5F5F5F5F5F5F5F5F5F5F5F5F5F5F5F5F5F5F5F5F5F5F5F50000EFE2E2F5F5F5F5F5F5F5F5F5F5F5F5F5F5F5F5F5F5F5F5F5F5F5F5F5F5F5F5F5F5F5F5F5F5F5F5F5F5F5F5F5F5F5F5
310
F5F5F5F5F5F5F5F5F5F5F5F5F5F5F5F5F5F5F5F5F5F5F5F5F5F5F5F5F5F5F5F5F5F5F5F5F5F5F5F5F5F5F5F5F5F5F5F5F5F5F50000EFE2E2F5F5F5F5F5F5F5F5F5F5F5F5F5F5F5F5F5F5F5F5F5F5F5F5F5F5F5F5F5F5F5F5F5F5F5F5F5F5F5F5F5F5F5F5F5F5F5F5F5F5F5F5F5F5F5F5F5F5F5F5F5F5F5F5F5F5F5F5F5F5F5
310
F5F5F5F5F5F5F5F5F5F5F5F5F5F5F5F5F5F5F5F5F5F5F5F50000EFE2E2F5F5F5F5F5F5F5F5F5F5F5F5F5F5F5F5F5F5F5F5F5F5F5F5F5F5F5F5F5F5F5F5F5F5F5F5F5F5F5F5F5F5F5F5F5F5F5F5F5F5F5F5F5F5F5F5F5F5F5F5F5F5F5F5F5F5F5F5F5F5F5F5F5F5F5F5F5F5F5F5F5F5F5F5F5F5F5F5F5F5F5F5F5F5F50000EF
310
E2E2F5F5F5F5F5F5F5F5F5F5F5F5F5F5F5F5F5F5F5F5F5F5F5F5F5F5F5F5F5F5F5F5F5F5F5F5F5F5F5F5F5F5F5F5F5F5F5F5F5F5F5F5F5F5F5F5F5F5F5F5F5F5F5F5F5F5F5F5F5F5F5F5F5F5F5F5F5F5F5F5F5F5F5F5F5F5F5F5F5F5F5F5F5F5F50000EFE2E2F5F5F5F5F5F5F5F5F5F5F5F5F5F5F5F5F5F5F5F5F5F5F5F5F5
310
F5F5F5F5F5F5F5F5F5F5F5F5F5F5F5F5F5F5F5F5F5F5F5F5F5F5F5F5F5F5F5F5F5F5F5F5F5F5F5F5F5F5F5F5F5F5F5F5F5F5F5F5F5F5F5F5F5F5F5F5F5F5F5F5F5F5F5F5F5F50000EFE2E2F5F5F5F5F5F5F5F5F5F5F5F5F5F5F5F5F5F5F5F5F5F5F5F5F5F5F5F5F5F5F5F5F5F5F5F5F5F5F5F5F5F5F5F5F5F5F5F5F5F5F5F5
310
F5F5F5F5F5F5F5F5F5F5F5F5F5F5F5F5F5F5F5F5F5F5F5F5F5F5F5F5F5F5F5F5F5F5F5F5F5F5F5F5F5F5F50000EFE2E2F5F5F5F5F5F5F5F5F5F5F5F5F5F5F5F5F5F5F5F5F5F5F5F5F5F5F5F5F5F5F5F5F5F5F5F5F5F5F5F5F5F5F5F5F5F5F5F5F5F5F5F5F5F5F5F5F5F5F5F5F5F5F5F5F5F5F5F5F5F5F5F5F5F5F5F5F5F5F5
310
F5F5F5F5F5F5F5F5F5F5F5F5F5F5F5F50000EFE2E2F5F5F5F5F5F5F5F5F5F5F5F5F5F5F5F5F5F5F5F5F5F5F5F5F5F5F5F5F5F5F5F5F5F5F5F5F5F5F5F5F5F5F5F5F5F5F5F5F5F5F5F5F5F5F5F5F5F5F5F5F5F5F5F5F5F5F5F5F5F5F5F5F5F5F5F5F5F5F5F5F5F5F5F5F5F5F5F5F5F5F5F5F5F5F50000EFE2E2F5F5F5F5F5F5
310
F5F5F5F5F5F5F5F5F5F5F5F5F5F5F5F5F5F5F5F5F5F5F5F5F5F5F5F5F5F5F5F5F5F5F5F5F5F5F5F5F5F5F5F5F5F5F5F5F5F5F5F5F5F5F5F5F5F5F5F5F5F5F5F5F5F5F5F5F5F5F5F5F5F5F5F5F5F5F5F5F5F5F5F5F5F5F5F5F50000EFE2E2F5F5F5F5F5F5F5F5F5F5F5F5F5F5F5F5F5F5F5F5F5F5F5F5F5F5F5F5F5F5F5F5F5
310
F5F5F5F5F5F5F5F5F5F5F5F5F5F5F5F5F5F5F5F5F5F5F5F5F5F5F5F5F5F5F5F5F5F5F5F5F5F5F5F5F5F5F5F5F5F5F5F5F5F5F5F5F5F5F5F5F5F5F5F5F5F50000EFE2E2F5F5F5F5F5F5F5F5F5F5F5F5F5F5F5F5F5F5F5F5F5F5F5F5F5F5F5F5F5F5F5F5F5F5F5F5F5F5F5F5F5F5F5F5F5F5F5F5F5F5F5F5F5F5F5F5F5F5F5F5
310
F5F5F5F5F5F5F5F5F5F5F5F5F5F5F5F5F5F5F5F5F5F5F5F5F5F5F5F5F5F5F5F5F5F5F50000EFE2E2F5F5F5F5F5F5F5F5F5F5F5F5F5F5F5F5F5F5F5F5F5F5F5F5F5F5F5F5F5F5F5F5F5F5F5F5F5F5F5F5F5F5F5F5F5F5F5F5F5F5F5F5F5F5F5F5F5F5F5F5F5F5F5F5F5F5F5F5F5F5F5F5F5F5F5F5F5F5F5F5F5F5F5F5F5F5F5
310
F5F5F5F5F5F5F5F50000EFE2E2F5F5F5F5F5F5F5F5F5F5F5F5F5F5F5F5F5F5F5F5F5F5F5F5F5F5F5F5F5F5F5F5F5F5F5F5F5F5F5F5F5F5F5F5F5F5F5F5F5F5F5F5F5F5F5F5F5F5F5F5F5F5F5F5F5F5F5F5F5F5F5F5F5F5F5F5F5F5F5F5F5F5F5F5F5F5F5F5F5F5F5F5F5F5F50000EFE2F5F5F5F5F5F5F5F5F5F5F5F5F5F5F5
310
F5F5F5F5F5F5F5F5F5F5F5F5F5F5F5F5F5F5F5F5F5F5F5F5F5F5F5F5F5F5F5F5F5F5F5F5F5F5F5F5F5F5F5F5F5F5F5F5F5F5F5F5F5F5F5F5F5F5F5F5F5F5F5F5F5F5F5F5F5F5F5F5F5F5F5F5F5F5F5F5F50000EFE2F5F5F5F5F5F5F5F5F5F5F5F5F5F5F5F5F5F5F5F5F5F5F5F5F5F5F5F5F5F5F5F5F5F5F5F5F5F5F5F5F5F5
310
F5F5F5F5F5F5F5F5F5F5F5F5F5F5F5F5F5F5F5F5F5F5F5F5F5F5F5F5F5F5F5F5F5F5F5F5F5F5F5F5F5F5F5F5F5F5F5F5F5F5F5F5F5F50000EFE2F5F5F5F5F5F5F5F5F5F5F5F5F5F5F5F5F5F5F5F5F5F5F5F5F5F5F5F5F5F5F5F5F5F5F5F5F5F5F5F5F5F5F5F5F5F5F5F5F5F5F5F5F5F5F5F5F5F5F5F5F5F5F5F5F5F5F5F5F5
310
F5F5F5F5F5F5F5F5F5F5F5F5F5F5F5F5F5F5F5F5F5F5F5F5F5F5F50000EFE2F5F5F5F5F5F5F5F5F5F5F5F5F5F5F5F5F5F5F5F5F5F5F5F5F5F5F5F5F5F5F5F5F5F5F5F5F5F5F5F5F5F5F5F5F5F5F5F5F5F5F5F5F5F5F5F5F5F5F5F5F5F5F5F5F5F5F5F5F5F5F5F5F5F5F5F5F5F5F5F5F5F5F5F5F5F5F5F5F5F5F5F5F5F5F5F5
310
0000EFE2F5F5F5F5F5F5F5F5F5F5F5F5F5F5F5F5F5F5F5F5F5F5F5F5F5F5F5F5F5F5F5F5F5F5F5F5F5F5F5F5F5F5F5F5F5F5F5F5F5F5F5F5F5F5F5F5F5F5F5F5F5F5F5F5F5F5F5F5F5F5F5F5F5F5F5F5F5F5F5F5F5F5F5F5F5F5F5F5F5F5F5F5F5F5F5F50000EFE2F5F5F5F5F5F5F5F5F5F5F5F5F5F5F5F5F5F5F5F5F5F5F5
310
F5F5F5F5F5F5F5F5F5F5F5F5F5F5F5F5F5F5F5F5F5F5F5F5F5F5F5F5F5F5F5F5F5F5F5F5F5F5F5F5F5F5F5F5F5F5F5F5F5F5F5F5F5F5F5F5F5F5F5F5F5F5F5F5F5F5F5F5F5F5F5F5F50000EFE2F5F5F5F5F5F5F5F5F5F5F5F5F5F5F5F5F5F5F5F5F5F5F5F5F5F5F5F5F5F5F5F5F5F5F5F5F5F5F5F5F5F5F5F5F5F5F5F5F5F5
310
F5F5F5F5F5F5F5F5F5F5F5F5F5F5F5F5F5F5F5F5F5F5F5F5F5F5F5F5F5F5F5F5F5F5F5F5F5F5F5F5F5F5F5F5F5F50000EFE2F5F5F5F5F5F5F5F5F5F5F5F5F5F5F5F5F5F5F5F5F5F5F5F5F5F5F5F5F5F5F5F5F5F5F5F5F5F5F5F5F5F5F5F5F5F5F5F5F5F5F5F5F5F5F5F5F5F5F5F5F5F5F5F5F5F5F5F5F5F5F5F5F5F5F5F5F5
310
F5F5F5F5F5F5F5F5F5F5F5F5F5F5F5F5F5F5F50000EFE2F5F5F5F5F5F5F5F5F5F5F5F5F5F5F5F5F5F5F5F5F5F5F5F5F5F5F5F5F5F5F5F5F5F5F5F5F5F5F5F5F5F5F5F5F5F5F5F5F5F5F5F5F5F5F5F5F5F5F5F5F5F5F5F5F5F5F5F5F5F5F5F5F5F5F5F5F5F5F5F5F5F5F5F5F5F5F5F5F5F5F5F5F5F5F5F50000EFE2F5F5F5F5
310
F5F5F5F5F5F5F5F5F5F5F5F5F5F5F5F5F5F5F5F5F5F5F5F5F5F5F5F5F5F5F5F5F5F5F5F5F5F5F5F5F5F5F5F5F5F5F5F5F5F5F5F5F5F5F5F5F5F5F5F5F5F5F5F5F5F5F5F5F5F5F5F5F5F5F5F5F5F5F5F5F5F5F5F5F5F5F5F5F5F5F5F50000EFE2E2F5F5F5F5F5F5F5F5F5F5F5F5F5F5F5F5F5F5F5F5F5F5F5F5F5F5F5F5F5F5
310
F5F5F5F5F5F5F5F5F5F5F5F5F5F5F5F5F5F5F5F5F5F5F5F5F5F5F5F5F5F5F5F5F5F5F5F5F5F5F5F5F5F5F5F5F5F5F5F5F5F5F5F5F5F5F5F5F5F5F5F5F5F5F5F5F50000EFE2E2F5F5F5F5F5F5F5F5F5F5F5F5F5F5F5F5F5F5F5F5F5F5F5F5F5F5F5F5F5F5F5F5F5F5F5F5F5F5F5F5F5F5F5F5F5F5F5F5F5F5F5F5F5F5F5F5F5
310
F5F5F5F5F5F5F5F5F5F5F5F5F5F5F5F5F5F5F5F5F5F5F5F5F5F5F5F5F5F5F5F5F5F5F5F5F5F50000EFE2E2F5F5F5F5F5F5F5F5F5F5F5F5F5F5F5F5F5F5F5F5F5F5F5F5F5F5F5F5F5F5F5F5F5F5F5F5F5F5F5F5F5F5F5F5F5F5F5F5F5F5F5F5F5F5F5F5F5F5F5F5F5F5F5F5F5F5F5F5F5F5F5F5F5F5F5F5F5F5F5F5F5F5F5F5
310
F5F5F5F5F5F5F5F5F5F5F50000EFE2E2F5F5F5F5F5F5F5F5F5F5F5F5F5F5F5F5F5F5F5F5F5F5F5F5F5F5F5F5F5F5F5F5F5F5F5F5F5F5F5F5F5F5F5F5F5F5F5F5F5F5F5F5F5F5F5F5F5F5F5F5F5F5F5F5F5F5F5F5F5F5F5F5F5F5F5F5F5F5F5F5F5F5F5F5F5F5F5F5F5F5F5F5F5F5F50000EFE2E2F5F5F5F5F5F5F5F5F5F5F5
310
F5F5F5F5F5F5F5F5F5F5F5F5F5F5F5F5F5F5F5F5F5F5F5F5F5F5F5F5F5F5F5F5F5F5F5F5F5F5F5F5F5F5F5F5F5F5F5F5F5F5F5F5F5F5F5F5F5F5F5F5F5F5F5F5F5F5F5F5F5F5F5F5F5F5F5F5F5F5F5F5F5F5F5F50000EFE2E2F5F5F5F5F5F5F5F5F5F5F5F5F5F5F5F5F5F5F5F5F5F5F5F5F5F5F5F5F5F5F5F5F5F5F5F5F5F5
310
F5F5F5F5F5F5F5F5F5F5F5F5F5F5F5F5F5F5F5F5F5F5F5F5F5F5F5F5F5F5F5F5F5F5F5F5F5F5F5F5F5F5F5F5F5F5F5F5F5F5F5F5F5F5F5F5F50000EFE2E2F5F5F5F5F5F5F5F5F5F5F5F5F5F5F5F5F5F5F5F5F5F5F5F5F5F5F5F5F5F5F5F5F5F5F5F5F5F5F5F5F5F5F5F5F5F5F5F5F5F5F5F5F5F5F5F5F5F5F5F5F5F5F5F5F5
310
F5F5F5F5F5F5F5F5F5F5F5F5F5F5F5F5F5F5F5F5F5F5F5F5F5F5F5F5F5F50000EFE2E2F5F5F5F5F5F5F5F5F5F5F5F5F5F5F5F5F5F5F5F5F5F5F5F5F5F5F5F5F5F5F5F5F5F5F5F5F5F5F5F5F5F5F5F5F5F5F5F5F5F5F5F5F5F5F5F5F5F5F5F5F5F5F5F5F5F5F5F5F5F5F5F5F5F5F5F5F5F5F5F5F5F5F5F5F5F5F5F5F5F5F5F5
310
F5F5F50000EFE2E2E2E2E2E2E2E2E2F5F5F5F5F5F5F5F5F5E2E2E2E2E2E2E2E2E2E2E2E2E2E2E2F5F5F5F5F5F5F5F5F5E2E2E2E2E2E2E2E2E2E2E2E2E2E2E2F5F5F5F5F5F5F5F5F5E2E2E2E2E2E2E2E2E2E2E2E2E2E2E2F5F5F5F5F5F5F5F5F5E2E2E2E2E2E2E20000EFE2F5F5F5F5F5F5F5F5F5F5F5F5F5F5F5F5F5F5F5F5
310
F5F5F5F5F5F5F5F5F5F5F5F5F5F5F5F5F5F5F5F5F5F5F5F5F5F5F5F5F5F5F5F5F5F5F5F5F5F5F5F5F5F5F5F5F5F5F5F5F5F5F5F5F5F5F5F5F5F5F5F5F5F5F5F5F5F5F5F5F5F5F5F5F5F5F5F50000
  0
XRECORD
  5
1819
102
{ACAD_REACTORS
330
1818
102
}
330
1818
100
AcDbXrecord
280
     1
102
SHADEPLOT
 70
     0
102
SHADEPLOTRESLEVEL
 70
     2
102
SHADEPLOTCUSTOMDPI
 70
   300
  0
XRECORD
  5
4F6
102
{ACAD_REACTORS
330
4F5
102
}
330
4F5
100
AcDbXrecord
280
     1
102
MATERIAL
148
0.0
149
0.0
149
0.0
 93
        0
 94
      127
282
     0
 72
     1
 77
     1
171
     1
175
     1
179
     1
273
     0
  0
XRECORD
  5
4F4
102
{ACAD_REACTORS
330
4F3
102
}
330
4F3
100
AcDbXrecord
280
     1
102
MATERIAL
148
0.0
149
0.0
149
0.0
 93
        0
 94
      127
282
     0
 72
     1
 77
     1
171
     1
175
     1
179
     1
273
     0
  0
XRECORD
  5
4EF
102
{ACAD_REACTORS
330
4EE
102
}
330
4EE
100
AcDbXrecord
280
     1
102
MATERIAL
148
0.0
149
0.0
149
0.0
 93
        0
 94
      127
282
     0
 72
     1
 77
     1
171
     1
175
     1
179
     1
273
     0
  0
CELLSTYLEMAP
  5
1811
102
{ACAD_REACTORS
330
1673
102
}
330
1673
100
AcDbCellStyleMap
 90
        3
300
CELLSTYLE
  1
TABLEFORMAT_BEGIN
 90
        5
170
     1
 91
        0
 92
    32768
 62
   257
 93
        1
300
CONTENTFORMAT
  1
CONTENTFORMAT_BEGIN
 90
        0
 91
        0
 92
        4
 93
        0
300

 40
0.0
140
1.0
 94
        5
 62
     0
340
1D
144
6.0
309
CONTENTFORMAT_END
171
     1
301
MARGIN
  1
CELLMARGIN_BEGIN
 40
1.5
 40
1.5
 40
1.5
 40
1.5
 40
0.18
 40
0.18
309
CELLMARGIN_END
 94
        6
 95
        1
302
GRIDFORMAT
  1
GRIDFORMAT_BEGIN
 90
        0
 91
        1
 62
     0
 92
       -2
340
0
 93
        0
 40
0.045
309
GRIDFORMAT_END
 95
        2
302
GRIDFORMAT
  1
GRIDFORMAT_BEGIN
 90
        0
 91
        1
 62
     0
 92
       -2
340
0
 93
        0
 40
0.045
309
GRIDFORMAT_END
 95
        4
302
GRIDFORMAT
  1
GRIDFORMAT_BEGIN
 90
        0
 91
        1
 62
     0
 92
       -2
340
0
 93
        0
 40
0.045
309
GRIDFORMAT_END
 95
        8
302
GRIDFORMAT
  1
GRIDFORMAT_BEGIN
 90
        0
 91
        1
 62
     0
 92
       -2
340
0
 93
        0
 40
0.045
309
GRIDFORMAT_END
 95
       16
302
GRIDFORMAT
  1
GRIDFORMAT_BEGIN
 90
        0
 91
        1
 62
     0
 92
       -2
340
0
 93
        0
 40
0.045
309
GRIDFORMAT_END
 95
       32
302
GRIDFORMAT
  1
GRIDFORMAT_BEGIN
 90
        0
 91
        1
 62
     0
 92
       -2
340
0
 93
        0
 40
0.045
309
GRIDFORMAT_END
309
TABLEFORMAT_END
  1
CELLSTYLE_BEGIN
 90
        1
 91
        1
300
_TITLE
309
CELLSTYLE_END
300
CELLSTYLE
  1
TABLEFORMAT_BEGIN
 90
        5
170
     1
 91
        0
 92
        0
 62
   257
 93
        1
300
CONTENTFORMAT
  1
CONTENTFORMAT_BEGIN
 90
        0
 91
        0
 92
        4
 93
        0
300

 40
0.0
140
1.0
 94
        5
 62
     0
340
1D
144
4.5
309
CONTENTFORMAT_END
171
     1
301
MARGIN
  1
CELLMARGIN_BEGIN
 40
1.5
 40
1.5
 40
1.5
 40
1.5
 40
0.18
 40
0.18
309
CELLMARGIN_END
 94
        6
 95
        1
302
GRIDFORMAT
  1
GRIDFORMAT_BEGIN
 90
        0
 91
        1
 62
     0
 92
       -2
340
0
 93
        0
 40
0.045
309
GRIDFORMAT_END
 95
        2
302
GRIDFORMAT
  1
GRIDFORMAT_BEGIN
 90
        0
 91
        1
 62
     0
 92
       -2
340
0
 93
        0
 40
0.045
309
GRIDFORMAT_END
 95
        4
302
GRIDFORMAT
  1
GRIDFORMAT_BEGIN
 90
        0
 91
        1
 62
     0
 92
       -2
340
0
 93
        0
 40
0.045
309
GRIDFORMAT_END
 95
        8
302
GRIDFORMAT
  1
GRIDFORMAT_BEGIN
 90
        0
 91
        1
 62
     0
 92
       -2
340
0
 93
        0
 40
0.045
309
GRIDFORMAT_END
 95
       16
302
GRIDFORMAT
  1
GRIDFORMAT_BEGIN
 90
        0
 91
        1
 62
     0
 92
       -2
340
0
 93
        0
 40
0.045
309
GRIDFORMAT_END
 95
       32
302
GRIDFORMAT
  1
GRIDFORMAT_BEGIN
 90
        0
 91
        1
 62
     0
 92
       -2
340
0
 93
        0
 40
0.045
309
GRIDFORMAT_END
309
TABLEFORMAT_END
  1
CELLSTYLE_BEGIN
 90
        2
 91
        1
300
_HEADER
309
CELLSTYLE_END
300
CELLSTYLE
  1
TABLEFORMAT_BEGIN
 90
        5
170
     1
 91
        0
 92
        0
 62
   257
 93
        1
300
CONTENTFORMAT
  1
CONTENTFORMAT_BEGIN
 90
        0
 91
        0
 92
        4
 93
        0
300

 40
0.0
140
1.0
 94
        2
 62
     0
340
1D
144
4.5
309
CONTENTFORMAT_END
171
     1
301
MARGIN
  1
CELLMARGIN_BEGIN
 40
1.5
 40
1.5
 40
1.5
 40
1.5
 40
0.18
 40
0.18
309
CELLMARGIN_END
 94
        6
 95
        1
302
GRIDFORMAT
  1
GRIDFORMAT_BEGIN
 90
        0
 91
        1
 62
     0
 92
       -2
340
0
 93
        0
 40
0.045
309
GRIDFORMAT_END
 95
        2
302
GRIDFORMAT
  1
GRIDFORMAT_BEGIN
 90
        0
 91
        1
 62
     0
 92
       -2
340
0
 93
        0
 40
0.045
309
GRIDFORMAT_END
 95
        4
302
GRIDFORMAT
  1
GRIDFORMAT_BEGIN
 90
        0
 91
        1
 62
     0
 92
       -2
340
0
 93
        0
 40
0.045
309
GRIDFORMAT_END
 95
        8
302
GRIDFORMAT
  1
GRIDFORMAT_BEGIN
 90
        0
 91
        1
 62
     0
 92
       -2
340
0
 93
        0
 40
0.045
309
GRIDFORMAT_END
 95
       16
302
GRIDFORMAT
  1
GRIDFORMAT_BEGIN
 90
        0
 91
        1
 62
     0
 92
       -2
340
0
 93
        0
 40
0.045
309
GRIDFORMAT_END
 95
       32
302
GRIDFORMAT
  1
GRIDFORMAT_BEGIN
 90
        0
 91
        1
 62
     0
 92
       -2
340
0
 93
        0
 40
0.045
309
GRIDFORMAT_END
309
TABLEFORMAT_END
  1
CELLSTYLE_BEGIN
 90
        3
 91
        2
300
_DATA
309
CELLSTYLE_END
  0
XRECORD
  5
181B
102
{ACAD_REACTORS
330
1673
102
}
330
1673
100
AcDbXrecord
280
     1
102
ACAD_ROUNDTRIP_PRE2007_TABLESTYLE
 90
        4
 91
        0
  1

 92
        4
 93
        0
  2

 94
        4
 95
        0
  3

  0
ENDSEC
  0
EOF
