  0
SECTION
  2
HEADER
  9
$ACADVER
  1
AC1015
  9
$ACADMAINTVER
 70
    18
  9
$DWGCODEPAGE
  3
ANSI_932
  9
$INSBASE
 10
0.0
 20
0.0
 30
0.0
  9
$EXTMIN
 10
-99.67077401317961
 20
0.0
 30
0.0
  9
$EXTMAX
 10
297.0
 20
215.157914307599
 30
0.0
  9
$LIMMIN
 10
0.0
 20
0.0
  9
$LIMMAX
 10
297.0
 20
210.0
  9
$ORTHOMODE
 70
     0
  9
$REGENMODE
 70
     1
  9
$FILLMODE
 70
     1
  9
$QTEXTMODE
 70
     0
  9
$MIRRTEXT
 70
     0
  9
$LTSCALE
 40
3.0
  9
$ATTMODE
 70
     1
  9
$TEXTSIZE
 40
1.0
  9
$TRACEWID
 40
0.05
  9
$TEXTSTYLE
  7
Standard
  9
$CLAYER
  8
0
  9
$CELTYPE
  6
ByLayer
  9
$CECOLOR
 62
   256
  9
$CELTSCALE
 40
1.0
  9
$DISPSILH
 70
     0
  9
$DIMSCALE
 40
0.0
  9
$DIMASZ
 40
2.0
  9
$DIMEXO
 40
0.3
  9
$DIMDLI
 40
3.0
  9
$DIMRND
 40
0.0
  9
$DIMDLE
 40
0.0
  9
$DIMEXE
 40
0.5
  9
$DIMTP
 40
0.0
  9
$DIMTM
 40
0.0
  9
$DIMTXT
 40
2.5
  9
$DIMCEN
 40
0.2
  9
$DIMTSZ
 40
0.0
  9
$DIMTOL
 70
     0
  9
$DIMLIM
 70
     0
  9
$DIMTIH
 70
     0
  9
$DIMTOH
 70
     0
  9
$DIMSE1
 70
     0
  9
$DIMSE2
 70
     0
  9
$DIMTAD
 70
     1
  9
$DIMZIN
 70
     0
  9
$DIMBLK
  1
Open30
  9
$DIMASO
 70
     1
  9
$DIMSHO
 70
     1
  9
$DIMPOST
  1

  9
$DIMAPOST
  1

  9
$DIMALT
 70
     0
  9
$DIMALTD
 70
     2
  9
$DIMALTF
 40
25.4
  9
$DIMLFAC
 40
1.0
  9
$DIMTOFL
 70
     1
  9
$DIMTVP
 40
0.0
  9
$DIMTIX
 70
     0
  9
$DIMSOXD
 70
     0
  9
$DIMSAH
 70
     0
  9
$DIMBLK1
  1

  9
$DIMBLK2
  1

  9
$DIMSTYLE
  2
Standard
  9
$DIMCLRD
 70
   256
  9
$DIMCLRE
 70
   256
  9
$DIMCLRT
 70
   256
  9
$DIMTFAC
 40
1.0
  9
$DIMGAP
 40
0.5
  9
$DIMJUST
 70
     0
  9
$DIMSD1
 70
     0
  9
$DIMSD2
 70
     0
  9
$DIMTOLJ
 70
     1
  9
$DIMTZIN
 70
     0
  9
$DIMALTZ
 70
     0
  9
$DIMALTTZ
 70
     0
  9
$DIMUPT
 70
     0
  9
$DIMDEC
 70
     1
  9
$DIMTDEC
 70
     1
  9
$DIMALTU
 70
     2
  9
$DIMALTTD
 70
     2
  9
$DIMTXSTY
  7
Standard
  9
$DIMAUNIT
 70
     0
  9
$DIMADEC
 70
     3
  9
$DIMALTRND
 40
0.0
  9
$DIMAZIN
 70
     0
  9
$DIMDSEP
 70
    46
  9
$DIMATFIT
 70
     2
  9
$DIMFRAC
 70
     0
  9
$DIMLDRBLK
  1
Open30
  9
$DIMLUNIT
 70
     2
  9
$DIMLWD
 70
    15
  9
$DIMLWE
 70
    15
  9
$DIMTMOVE
 70
     0
  9
$LUNITS
 70
     2
  9
$LUPREC
 70
     4
  9
$SKETCHINC
 40
0.1
  9
$FILLETRAD
 40
0.0
  9
$AUNITS
 70
     0
  9
$AUPREC
 70
     0
  9
$MENU
  1
ACAD
  9
$ELEVATION
 40
0.0
  9
$PELEVATION
 40
0.0
  9
$THICKNESS
 40
0.0
  9
$LIMCHECK
 70
     0
  9
$CHAMFERA
 40
0.5
  9
$CHAMFERB
 40
0.5
  9
$CHAMFERC
 40
0.0
  9
$CHAMFERD
 40
0.0
  9
$SKPOLY
 70
     0
  9
$TDCREATE
 40
2454767.647362014
  9
$TDUCREATE
 40
2454767.272362014
  9
$TDUPDATE
 40
2454893.437046979
  9
$TDUUPDATE
 40
2454893.062046979
  9
$TDINDWG
 40
0.1127947801
  9
$TDUSRTIMER
 40
0.1127936921
  9
$USRTIMER
 70
     1
  9
$ANGBASE
 50
0.0
  9
$ANGDIR
 70
     0
  9
$PDMODE
 70
     0
  9
$PDSIZE
 40
0.0
  9
$PLINEWID
 40
0.0
  9
$SPLFRAME
 70
     0
  9
$SPLINETYPE
 70
     6
  9
$SPLINESEGS
 70
     8
  9
$HANDSEED
  5
6DF
  9
$SURFTAB1
 70
     6
  9
$SURFTAB2
 70
     6
  9
$SURFTYPE
 70
     6
  9
$SURFU
 70
     6
  9
$SURFV
 70
     6
  9
$UCSBASE
  2

  9
$UCSNAME
  2

  9
$UCSORG
 10
0.0
 20
0.0
 30
0.0
  9
$UCSXDIR
 10
1.0
 20
0.0
 30
0.0
  9
$UCSYDIR
 10
0.0
 20
1.0
 30
0.0
  9
$UCSORTHOREF
  2

  9
$UCSORTHOVIEW
 70
     0
  9
$UCSORGTOP
 10
0.0
 20
0.0
 30
0.0
  9
$UCSORGBOTTOM
 10
0.0
 20
0.0
 30
0.0
  9
$UCSORGLEFT
 10
0.0
 20
0.0
 30
0.0
  9
$UCSORGRIGHT
 10
0.0
 20
0.0
 30
0.0
  9
$UCSORGFRONT
 10
0.0
 20
0.0
 30
0.0
  9
$UCSORGBACK
 10
0.0
 20
0.0
 30
0.0
  9
$PUCSBASE
  2

  9
$PUCSNAME
  2

  9
$PUCSORG
 10
0.0
 20
0.0
 30
0.0
  9
$PUCSXDIR
 10
1.0
 20
0.0
 30
0.0
  9
$PUCSYDIR
 10
0.0
 20
1.0
 30
0.0
  9
$PUCSORTHOREF
  2

  9
$PUCSORTHOVIEW
 70
     0
  9
$PUCSORGTOP
 10
0.0
 20
0.0
 30
0.0
  9
$PUCSORGBOTTOM
 10
0.0
 20
0.0
 30
0.0
  9
$PUCSORGLEFT
 10
0.0
 20
0.0
 30
0.0
  9
$PUCSORGRIGHT
 10
0.0
 20
0.0
 30
0.0
  9
$PUCSORGFRONT
 10
0.0
 20
0.0
 30
0.0
  9
$PUCSORGBACK
 10
0.0
 20
0.0
 30
0.0
  9
$USERI1
 70
     0
  9
$USERI2
 70
     0
  9
$USERI3
 70
     0
  9
$USERI4
 70
     0
  9
$USERI5
 70
     0
  9
$USERR1
 40
0.0
  9
$USERR2
 40
0.0
  9
$USERR3
 40
0.0
  9
$USERR4
 40
0.0
  9
$USERR5
 40
0.0
  9
$WORLDVIEW
 70
     1
  9
$SHADEDGE
 70
     3
  9
$SHADEDIF
 70
    70
  9
$TILEMODE
 70
     1
  9
$MAXACTVP
 70
    64
  9
$PINSBASE
 10
0.0
 20
0.0
 30
0.0
  9
$PLIMCHECK
 70
     0
  9
$PEXTMIN
 10
2.0
 20
2.0
 30
0.0
  9
$PEXTMAX
 10
289.0
 20
202.0
 30
0.0
  9
$PLIMMIN
 10
-3.174999952316284
 20
-3.174999952316284
  9
$PLIMMAX
 10
293.8568298816681
 20
206.7348358631134
  9
$UNITMODE
 70
     0
  9
$VISRETAIN
 70
     1
  9
$PLINEGEN
 70
     0
  9
$PSLTSCALE
 70
     1
  9
$TREEDEPTH
 70
  3020
  9
$CMLSTYLE
  2
Standard
  9
$CMLJUST
 70
     0
  9
$CMLSCALE
 40
1.0
  9
$PROXYGRAPHICS
 70
     1
  9
$MEASUREMENT
 70
     1
  9
$CELWEIGHT
370
    -1
  9
$ENDCAPS
280
     0
  9
$JOINSTYLE
280
     0
  9
$LWDISPLAY
290
     0
  9
$INSUNITS
 70
     0
  9
$HYPERLINKBASE
  1

  9
$STYLESHEET
  1

  9
$XEDIT
290
     1
  9
$CEPSNTYPE
380
     0
  9
$PSTYLEMODE
290
     1
  9
$FINGERPRINTGUID
  2
{4F1F4BFF-6B1E-43D0-A5EA-BFB8582DB762}
  9
$VERSIONGUID
  2
{2D0CDCA0-5599-4228-96DC-FFA604F7F24F}
  9
$EXTNAMES
290
     1
  9
$PSVPSCALE
 40
0.0
  9
$OLESTARTUP
290
     0
  0
ENDSEC
  0
SECTION
  2
CLASSES
  0
CLASS
  1
ACDBDICTIONARYWDFLT
  2
AcDbDictionaryWithDefault
  3
ObjectDBX Classes
 90
        0
280
     0
281
     0
  0
CLASS
  1
TABLESTYLE
  2
AcDbTableStyle
  3
ObjectDBX Classes
 90
     4095
280
     0
281
     0
  0
CLASS
  1
VAACXREFPANELOBJECT
  2
VaAcXREFPanelObject
  3
VAAC_ADDIN
 90
    32768
280
     1
281
     0
  0
CLASS
  1
VAACIMAGEINVENTORY
  2
VaAcImageInventory
  3
VAAC_ADDIN
 90
    32768
280
     1
281
     0
  0
CLASS
  1
DICTIONARYVAR
  2
AcDbDictionaryVar
  3
ObjectDBX Classes
 90
        0
280
     0
281
     0
  0
CLASS
  1
SORTENTSTABLE
  2
AcDbSortentsTable
  3
ObjectDBX Classes
 90
        0
280
     0
281
     0
  0
CLASS
  1
MATERIAL
  2
AcDbMaterial
  3
ObjectDBX Classes
 90
     1024
280
     0
281
     0
  0
CLASS
  1
VISUALSTYLE
  2
AcDbVisualStyle
  3
ObjectDBX Classes
 90
     4095
280
     0
281
     0
  0
CLASS
  1
ACDBPLACEHOLDER
  2
AcDbPlaceHolder
  3
ObjectDBX Classes
 90
        0
280
     0
281
     0
  0
CLASS
  1
LAYOUT
  2
AcDbLayout
  3
ObjectDBX Classes
 90
        0
280
     0
281
     0
  0
ENDSEC
  0
SECTION
  2
TABLES
  0
TABLE
  2
VPORT
  5
25
102
{ACAD_XDICTIONARY
360
29
102
}
330
0
100
AcDbSymbolTable
 70
     1
  0
VPORT
  5
26
330
25
100
AcDbSymbolTableRecord
100
AcDbViewportTableRecord
  2
*Active
 70
     0
 10
0.0
 20
0.0
 11
1.0
 21
1.0
 12
134.0533670780369
 22
159.4356210856084
 13
0.0
 23
0.0
 14
1.0
 24
1.0
 15
0.0
 25
0.0
 16
0.0
 26
0.0
 36
1.0
 17
0.0
 27
0.0
 37
0.0
 40
438.6940101104841
 41
1.577777777777777
 42
50.0
 43
0.0
 44
0.0
 50
0.0
 51
0.0
 71
     0
 72
  2000
 73
     1
 74
     1
 75
     0
 76
     0
 77
     0
 78
     0
281
     0
 65
     1
110
0.0
120
0.0
130
0.0
111
1.0
121
0.0
131
0.0
112
0.0
122
1.0
132
0.0
 79
     0
146
0.0
  0
ENDTAB
  0
TABLE
  2
LTYPE
  5
20
330
0
100
AcDbSymbolTable
 70
     2
  0
LTYPE
  5
21
330
20
100
AcDbSymbolTableRecord
100
AcDbLinetypeTableRecord
  2
ByBlock
 70
     0
  3

 72
    65
 73
     0
 40
0.0
  0
LTYPE
  5
22
330
20
100
AcDbSymbolTableRecord
100
AcDbLinetypeTableRecord
  2
ByLayer
 70
     0
  3

 72
    65
 73
     0
 40
0.0
  0
LTYPE
  5
C
330
20
100
AcDbSymbolTableRecord
100
AcDbLinetypeTableRecord
  2
CONTINUOUS
 70
     0
  3
Solid line
 72
    65
 73
     0
 40
0.0
  0
LTYPE
  5
49E
330
20
100
AcDbSymbolTableRecord
100
AcDbLinetypeTableRecord
  2
CENTER2
 70
     0
  3
Center (.5x) ___ _ ___ _ ___ _ ___ _ ___ _ ___
 72
    65
 73
     4
 40
1.125
 49
0.75
 74
     0
 49
-0.125
 74
     0
 49
0.125
 74
     0
 49
-0.125
 74
     0
  0
ENDTAB
  0
TABLE
  2
LAYER
  5
17
102
{ACAD_XDICTIONARY
360
18
102
}
330
0
100
AcDbSymbolTable
 70
     7
  0
LAYER
  5
6
330
17
100
AcDbSymbolTableRecord
100
AcDbLayerTableRecord
  2
0
 70
     0
 62
     7
  6
CONTINUOUS
370
    -3
390
7
  0
LAYER
  5
4D2
330
17
100
AcDbSymbolTableRecord
100
AcDbLayerTableRecord
  2
Defpoints
 70
     0
 62
     7
  6
CONTINUOUS
290
     0
370
    -3
390
7
  0
LAYER
  5
40
330
17
100
AcDbSymbolTableRecord
100
AcDbLayerTableRecord
  2
TITLE
 70
     0
 62
     7
  6
CONTINUOUS
370
    -3
390
7
  0
LAYER
  5
4C8
330
17
100
AcDbSymbolTableRecord
100
AcDbLayerTableRecord
  2
03-DIMMENTION
 70
     0
 62
     3
  6
CONTINUOUS
370
    15
390
7
  0
LAYER
  5
49D
330
17
100
AcDbSymbolTableRecord
100
AcDbLayerTableRecord
  2
02-CENTER
 70
     0
 62
     1
  6
CENTER2
370
    15
390
7
  0
LAYER
  5
68
330
17
100
AcDbSymbolTableRecord
100
AcDbLayerTableRecord
  2
Visible (ISO)
 70
     0
 62
     7
  6
CONTINUOUS
370
    50
390
7
  0
LAYER
  5
9E
330
17
100
AcDbSymbolTableRecord
100
AcDbLayerTableRecord
  2
Visible Narrow (ISO)
 70
     0
 62
     7
  6
CONTINUOUS
370
    35
390
7
  0
ENDTAB
  0
TABLE
  2
STYLE
  5
1D
330
0
100
AcDbSymbolTable
 70
     1
  0
STYLE
  5
1E
330
1D
100
AcDbSymbolTableRecord
100
AcDbTextStyleTableRecord
  2
Standard
 70
     0
 40
0.0
 41
1.0
 50
0.0
 71
     0
 42
1.0
  3
MS Gothic.ttf
  4

1001
ACAD
1000
MS Gothic
1071
    32817
  0
ENDTAB
  0
TABLE
  2
VIEW
  5
23
330
0
100
AcDbSymbolTable
 70
     0
  0
ENDTAB
  0
TABLE
  2
UCS
  5
24
330
0
100
AcDbSymbolTable
 70
     0
  0
ENDTAB
  0
TABLE
  2
APPID
  5
2A
330
0
100
AcDbSymbolTable
 70
     2
  0
APPID
  5
1C
330
2A
100
AcDbSymbolTableRecord
100
AcDbRegAppTableRecord
  2
ACAD
 70
     0
  0
APPID
  5
16
330
2A
100
AcDbSymbolTableRecord
100
AcDbRegAppTableRecord
  2
ACAD_PSEXT
 70
     0
  0
ENDTAB
  0
TABLE
  2
DIMSTYLE
  5
2B
330
0
100
AcDbSymbolTable
 70
     1
100
AcDbDimStyleTable
 71
     1
340
2C
  0
DIMSTYLE
105
2C
102
{ACAD_REACTORS
330
4C7
330
4D6
330
4E3
330
4F0
330
4FD
330
50A
330
517
330
52A
102
}
330
2B
100
AcDbSymbolTableRecord
100
AcDbDimStyleTableRecord
  2
Standard
 70
     0
 40
0.0
 41
2.0
 42
0.3
 43
3.0
 44
0.5
 73
     0
 74
     0
 77
     1
140
2.5
141
0.2
147
0.5
172
     1
176
   256
177
   256
178
   256
179
     3
271
     1
272
     1
289
     2
340
1E
341
2D
342
2D
371
    15
372
    15
  0
ENDTAB
  0
TABLE
  2
BLOCK_RECORD
  5
1
330
0
100
AcDbSymbolTable
 70
     9
  0
BLOCK_RECORD
  5
2
102
{ACAD_XDICTIONARY
360
3
102
}
330
1
100
AcDbSymbolTableRecord
100
AcDbBlockTableRecord
  2
*Model_Space
340
E
  0
BLOCK_RECORD
  5
10
330
1
100
AcDbSymbolTableRecord
100
AcDbBlockTableRecord
  2
*Paper_Space
340
13
  0
BLOCK_RECORD
  5
2D
330
1
100
AcDbSymbolTableRecord
100
AcDbBlockTableRecord
  2
_Open30
340
0
102
{BLKREFS
331
4CE
331
4CF
331
51F
331
520
331
4DC
331
4DD
331
510
331
511
331
4E9
331
4EA
331
4F6
331
4F7
331
503
331
504
331
530
331
531
102
}
  0
BLOCK_RECORD
  5
4C9
330
1
100
AcDbSymbolTableRecord
100
AcDbBlockTableRecord
  2
*D1
340
0
  0
BLOCK_RECORD
  5
4D7
330
1
100
AcDbSymbolTableRecord
100
AcDbBlockTableRecord
  2
*D2
340
0
  0
BLOCK_RECORD
  5
4E4
330
1
100
AcDbSymbolTableRecord
100
AcDbBlockTableRecord
  2
*D3
340
0
  0
BLOCK_RECORD
  5
4F1
330
1
100
AcDbSymbolTableRecord
100
AcDbBlockTableRecord
  2
*D4
340
0
  0
BLOCK_RECORD
  5
4FE
330
1
100
AcDbSymbolTableRecord
100
AcDbBlockTableRecord
  2
*D5
340
0
  0
BLOCK_RECORD
  5
50B
330
1
100
AcDbSymbolTableRecord
100
AcDbBlockTableRecord
  2
*D6
340
0
  0
BLOCK_RECORD
  5
518
330
1
100
AcDbSymbolTableRecord
100
AcDbBlockTableRecord
  2
*D7
340
0
  0
BLOCK_RECORD
  5
52B
330
1
100
AcDbSymbolTableRecord
100
AcDbBlockTableRecord
  2
*D8
340
0
  0
ENDTAB
  0
ENDSEC
  0
SECTION
  2
BLOCKS
  0
BLOCK
  5
5
330
2
100
AcDbEntity
  8
0
100
AcDbBlockBegin
  2
*Model_Space
 70
     0
 10
0.0
 20
0.0
 30
0.0
  3
*Model_Space
  1

  0
ENDBLK
  5
D
330
2
100
AcDbEntity
  8
0
100
AcDbBlockEnd
  0
BLOCK
  5
11
330
10
100
AcDbEntity
 67
     1
  8
0
100
AcDbBlockBegin
  2
*Paper_Space
 70
     0
 10
0.0
 20
0.0
 30
0.0
  3
*Paper_Space
  1

  0
ENDBLK
  5
12
330
10
100
AcDbEntity
 67
     1
  8
0
100
AcDbBlockEnd
  0
BLOCK
  5
2E
330
2D
100
AcDbEntity
  8
0
370
    15
100
AcDbBlockBegin
  2
_Open30
 70
     0
 10
0.0
 20
0.0
 30
0.0
  3
_Open30
  1

  0
LINE
  5
2F
330
2D
100
AcDbEntity
  8
0
  6
ByBlock
 62
     0
370
    -2
100
AcDbLine
 10
-1.0
 20
0.26794919
 30
0.0
 11
0.0
 21
0.0
 31
0.0
  0
LINE
  5
30
330
2D
100
AcDbEntity
  8
0
  6
ByBlock
 62
     0
370
    -2
100
AcDbLine
 10
0.0
 20
0.0
 30
0.0
 11
-1.0
 21
-0.26794919
 31
0.0
  0
LINE
  5
31
330
2D
100
AcDbEntity
  8
0
  6
ByBlock
 62
     0
370
    -2
100
AcDbLine
 10
0.0
 20
0.0
 30
0.0
 11
-1.0
 21
0.0
 31
0.0
  0
ENDBLK
  5
32
330
2D
100
AcDbEntity
  8
0
370
    15
100
AcDbBlockEnd
  0
BLOCK
  5
4CA
330
4C9
100
AcDbEntity
  8
0
100
AcDbBlockBegin
  2
*D1
 70
     1
 10
0.0
 20
0.0
 30
0.0
  3
*D1
  1

  0
LINE
  5
4CB
330
4C9
100
AcDbEntity
  8
03-DIMMENTION
370
    15
100
AcDbLine
 10
139.5
 20
146.6000000000003
 30
0.0
 11
139.5
 21
135.5041454560161
 31
0.0
  0
LINE
  5
4CC
330
4C9
100
AcDbEntity
  8
03-DIMMENTION
370
    15
100
AcDbLine
 10
157.5
 20
146.6000000000003
 30
0.0
 11
157.5
 21
135.5041454560161
 31
0.0
  0
LINE
  5
4CD
330
4C9
100
AcDbEntity
  8
03-DIMMENTION
370
    15
100
AcDbLine
 10
141.5
 20
136.0041454560161
 30
0.0
 11
155.5
 21
136.0041454560161
 31
0.0
  0
INSERT
  5
4CE
330
4C9
100
AcDbEntity
  8
03-DIMMENTION
370
    15
100
AcDbBlockReference
  2
_Open30
 10
139.5
 20
136.0041454560161
 30
0.0
 41
2.0
 42
2.0
 43
2.0
 50
180.0
  0
INSERT
  5
4CF
330
4C9
100
AcDbEntity
  8
03-DIMMENTION
370
    15
100
AcDbBlockReference
  2
_Open30
 10
157.5
 20
136.0041454560161
 30
0.0
 41
2.0
 42
2.0
 43
2.0
  0
MTEXT
  5
4D0
330
4C9
100
AcDbEntity
  8
03-DIMMENTION
100
AcDbMText
 10
148.5
 20
137.7541454560161
 30
0.0
 40
2.5
 41
0.0
 71
     5
 72
     1
  1
\A1;18.0
 73
     1
 44
1.0
1001
ACAD
1000
MTEXTBEGIN
1070
    73
1070
     1
1070
    44
1040
1.0
1070
    74
1070
     0
1000
MTEXTEND
  0
POINT
  5
4D1
330
4C9
100
AcDbEntity
  8
Defpoints
 62
     0
100
AcDbPoint
 10
139.5
 20
146.9000000000003
 30
0.0
  0
POINT
  5
4D3
330
4C9
100
AcDbEntity
  8
Defpoints
 62
     0
100
AcDbPoint
 10
157.5
 20
146.9000000000003
 30
0.0
  0
POINT
  5
4D4
330
4C9
100
AcDbEntity
  8
Defpoints
 62
     0
100
AcDbPoint
 10
157.5
 20
136.0041454560161
 30
0.0
  0
ENDBLK
  5
4D5
330
4C9
100
AcDbEntity
  8
0
100
AcDbBlockEnd
  0
BLOCK
  5
4D8
330
4D7
100
AcDbEntity
  8
0
100
AcDbBlockBegin
  2
*D2
 70
     1
 10
0.0
 20
0.0
 30
0.0
  3
*D2
  1

  0
LINE
  5
4D9
330
4D7
100
AcDbEntity
  8
03-DIMMENTION
370
    15
100
AcDbLine
 10
164.8
 20
155.0
 30
0.0
 11
170.0
 21
155.0
 31
0.0
  0
LINE
  5
4DA
330
4D7
100
AcDbEntity
  8
03-DIMMENTION
370
    15
100
AcDbLine
 10
158.9
 20
148.0000000000003
 30
0.0
 11
170.0
 21
148.0000000000003
 31
0.0
  0
LINE
  5
4DB
330
4D7
100
AcDbEntity
  8
03-DIMMENTION
370
    15
100
AcDbLine
 10
169.5
 20
153.0
 30
0.0
 11
169.5
 21
150.0000000000003
 31
0.0
  0
INSERT
  5
4DC
330
4D7
100
AcDbEntity
  8
03-DIMMENTION
370
    15
100
AcDbBlockReference
  2
_Open30
 10
169.5
 20
155.0
 30
0.0
 41
2.0
 42
2.0
 43
2.0
 50
90.0
  0
INSERT
  5
4DD
330
4D7
100
AcDbEntity
  8
03-DIMMENTION
370
    15
100
AcDbBlockReference
  2
_Open30
 10
169.5
 20
148.0000000000003
 30
0.0
 41
2.0
 42
2.0
 43
2.0
 50
270.0
  0
MTEXT
  5
4DE
330
4D7
100
AcDbEntity
  8
03-DIMMENTION
100
AcDbMText
 10
167.75
 20
151.5000000000001
 30
0.0
 40
2.5
 41
0.0
 71
     5
 72
     1
  1
\A1;7.0
 11
0.0000000000000001
 21
1.0
 31
0.0
 73
     1
 44
1.0
1001
ACAD
1000
MTEXTBEGIN
1070
    73
1070
     1
1070
    44
1040
1.0
1070
    74
1070
     0
1000
MTEXTEND
  0
POINT
  5
4DF
330
4D7
100
AcDbEntity
  8
Defpoints
 62
     0
100
AcDbPoint
 10
164.5
 20
155.0
 30
0.0
  0
POINT
  5
4E0
330
4D7
100
AcDbEntity
  8
Defpoints
 62
     0
100
AcDbPoint
 10
158.6
 20
148.0000000000003
 30
0.0
  0
POINT
  5
4E1
330
4D7
100
AcDbEntity
  8
Defpoints
 62
     0
100
AcDbPoint
 10
169.5
 20
148.0000000000003
 30
0.0
  0
ENDBLK
  5
4E2
330
4D7
100
AcDbEntity
  8
0
100
AcDbBlockEnd
  0
BLOCK
  5
4E5
330
4E4
100
AcDbEntity
  8
0
100
AcDbBlockBegin
  2
*D3
 70
     1
 10
0.0
 20
0.0
 30
0.0
  3
*D3
  1

  0
LINE
  5
4E6
330
4E4
100
AcDbEntity
  8
03-DIMMENTION
370
    15
100
AcDbLine
 10
158.0510278489341
 20
100.4999999999999
 30
0.0
 11
170.0
 21
100.4999999999999
 31
0.0
  0
LINE
  5
4E7
330
4E4
100
AcDbEntity
  8
03-DIMMENTION
370
    15
100
AcDbLine
 10
159.8
 20
109.5
 30
0.0
 11
170.0
 21
109.5
 31
0.0
  0
LINE
  5
4E8
330
4E4
100
AcDbEntity
  8
03-DIMMENTION
370
    15
100
AcDbLine
 10
169.5
 20
102.4999999999999
 30
0.0
 11
169.5
 21
107.5
 31
0.0
  0
INSERT
  5
4E9
330
4E4
100
AcDbEntity
  8
03-DIMMENTION
370
    15
100
AcDbBlockReference
  2
_Open30
 10
169.5
 20
100.4999999999999
 30
0.0
 41
2.0
 42
2.0
 43
2.0
 50
270.0
  0
INSERT
  5
4EA
330
4E4
100
AcDbEntity
  8
03-DIMMENTION
370
    15
100
AcDbBlockReference
  2
_Open30
 10
169.5
 20
109.5
 30
0.0
 41
2.0
 42
2.0
 43
2.0
 50
90.0
  0
MTEXT
  5
4EB
330
4E4
100
AcDbEntity
  8
03-DIMMENTION
100
AcDbMText
 10
167.75
 20
105.0
 30
0.0
 40
2.5
 41
0.0
 71
     5
 72
     1
  1
\A1;9.0
 11
0.0000000000000001
 21
1.0
 31
0.0
 73
     1
 44
1.0
1001
ACAD
1000
MTEXTBEGIN
1070
    73
1070
     1
1070
    44
1040
1.0
1070
    74
1070
     0
1000
MTEXTEND
  0
POINT
  5
4EC
330
4E4
100
AcDbEntity
  8
Defpoints
 62
     0
100
AcDbPoint
 10
157.7510278489341
 20
100.4999999999999
 30
0.0
  0
POINT
  5
4ED
330
4E4
100
AcDbEntity
  8
Defpoints
 62
     0
100
AcDbPoint
 10
159.5
 20
109.5
 30
0.0
  0
POINT
  5
4EE
330
4E4
100
AcDbEntity
  8
Defpoints
 62
     0
100
AcDbPoint
 10
169.5
 20
109.5
 30
0.0
  0
ENDBLK
  5
4EF
330
4E4
100
AcDbEntity
  8
0
100
AcDbBlockEnd
  0
BLOCK
  5
4F2
330
4F1
100
AcDbEntity
  8
0
100
AcDbBlockBegin
  2
*D4
 70
     1
 10
0.0
 20
0.0
 30
0.0
  3
*D4
  1

  0
LINE
  5
4F3
330
4F1
100
AcDbEntity
  8
03-DIMMENTION
370
    15
100
AcDbLine
 10
137.5
 20
109.8
 30
0.0
 11
137.5
 21
120.0
 31
0.0
  0
LINE
  5
4F4
330
4F1
100
AcDbEntity
  8
03-DIMMENTION
370
    15
100
AcDbLine
 10
159.4999999999999
 20
109.8
 30
0.0
 11
159.4999999999999
 21
120.0
 31
0.0
  0
LINE
  5
4F5
330
4F1
100
AcDbEntity
  8
03-DIMMENTION
370
    15
100
AcDbLine
 10
139.5
 20
119.5
 30
0.0
 11
157.5
 21
119.5
 31
0.0
  0
INSERT
  5
4F6
330
4F1
100
AcDbEntity
  8
03-DIMMENTION
370
    15
100
AcDbBlockReference
  2
_Open30
 10
137.5
 20
119.5
 30
0.0
 41
2.0
 42
2.0
 43
2.0
 50
180.0
  0
INSERT
  5
4F7
330
4F1
100
AcDbEntity
  8
03-DIMMENTION
370
    15
100
AcDbBlockReference
  2
_Open30
 10
159.4999999999999
 20
119.5
 30
0.0
 41
2.0
 42
2.0
 43
2.0
  0
MTEXT
  5
4F8
330
4F1
100
AcDbEntity
  8
03-DIMMENTION
100
AcDbMText
 10
148.5
 20
121.25
 30
0.0
 40
2.5
 41
0.0
 71
     5
 72
     1
  1
\A1;22.0
 73
     1
 44
1.0
1001
ACAD
1000
MTEXTBEGIN
1070
    73
1070
     1
1070
    44
1040
1.0
1070
    74
1070
     0
1000
MTEXTEND
  0
POINT
  5
4F9
330
4F1
100
AcDbEntity
  8
Defpoints
 62
     0
100
AcDbPoint
 10
137.5
 20
109.5
 30
0.0
  0
POINT
  5
4FA
330
4F1
100
AcDbEntity
  8
Defpoints
 62
     0
100
AcDbPoint
 10
159.4999999999999
 20
109.5
 30
0.0
  0
POINT
  5
4FB
330
4F1
100
AcDbEntity
  8
Defpoints
 62
     0
100
AcDbPoint
 10
159.4999999999999
 20
119.5
 30
0.0
  0
ENDBLK
  5
4FC
330
4F1
100
AcDbEntity
  8
0
100
AcDbBlockEnd
  0
BLOCK
  5
4FF
330
4FE
100
AcDbEntity
  8
0
100
AcDbBlockBegin
  2
*D5
 70
     1
 10
0.0
 20
0.0
 30
0.0
  3
*D5
  1

  0
LINE
  5
500
330
4FE
100
AcDbEntity
  8
03-DIMMENTION
370
    15
100
AcDbLine
 10
139.5
 20
103.0
 30
0.0
 11
139.5
 21
89.99999999999998
 31
0.0
  0
LINE
  5
501
330
4FE
100
AcDbEntity
  8
03-DIMMENTION
370
    15
100
AcDbLine
 10
157.5
 20
102.9999999999999
 30
0.0
 11
157.5
 21
89.99999999999998
 31
0.0
  0
LINE
  5
502
330
4FE
100
AcDbEntity
  8
03-DIMMENTION
370
    15
100
AcDbLine
 10
141.5
 20
90.49999999999998
 30
0.0
 11
155.5
 21
90.49999999999998
 31
0.0
  0
INSERT
  5
503
330
4FE
100
AcDbEntity
  8
03-DIMMENTION
370
    15
100
AcDbBlockReference
  2
_Open30
 10
139.5
 20
90.49999999999998
 30
0.0
 41
2.0
 42
2.0
 43
2.0
 50
180.0
  0
INSERT
  5
504
330
4FE
100
AcDbEntity
  8
03-DIMMENTION
370
    15
100
AcDbBlockReference
  2
_Open30
 10
157.5
 20
90.49999999999998
 30
0.0
 41
2.0
 42
2.0
 43
2.0
  0
MTEXT
  5
505
330
4FE
100
AcDbEntity
  8
03-DIMMENTION
100
AcDbMText
 10
148.5
 20
92.24999999999999
 30
0.0
 40
2.5
 41
0.0
 71
     5
 72
     1
  1
\A1;18.0
 73
     1
 44
1.0
1001
ACAD
1000
MTEXTBEGIN
1070
    73
1070
     1
1070
    44
1040
1.0
1070
    74
1070
     0
1000
MTEXTEND
  0
POINT
  5
506
330
4FE
100
AcDbEntity
  8
Defpoints
 62
     0
100
AcDbPoint
 10
139.5
 20
103.3
 30
0.0
  0
POINT
  5
507
330
4FE
100
AcDbEntity
  8
Defpoints
 62
     0
100
AcDbPoint
 10
157.5
 20
103.2999999999999
 30
0.0
  0
POINT
  5
508
330
4FE
100
AcDbEntity
  8
Defpoints
 62
     0
100
AcDbPoint
 10
157.5
 20
90.49999999999998
 30
0.0
  0
ENDBLK
  5
509
330
4FE
100
AcDbEntity
  8
0
100
AcDbBlockEnd
  0
BLOCK
  5
50C
330
50B
100
AcDbEntity
  8
0
100
AcDbBlockBegin
  2
*D6
 70
     1
 10
0.0
 20
0.0
 30
0.0
  3
*D6
  1

  0
LINE
  5
50D
330
50B
100
AcDbEntity
  8
03-DIMMENTION
370
    15
100
AcDbLine
 10
157.8
 20
146.0000000000003
 30
0.0
 11
177.0
 21
146.0000000000003
 31
0.0
  0
LINE
  5
50E
330
50B
100
AcDbEntity
  8
03-DIMMENTION
370
    15
100
AcDbLine
 10
164.8
 20
155.0
 30
0.0
 11
177.0
 21
155.0
 31
0.0
  0
LINE
  5
50F
330
50B
100
AcDbEntity
  8
03-DIMMENTION
370
    15
100
AcDbLine
 10
176.5
 20
148.0000000000003
 30
0.0
 11
176.5
 21
153.0
 31
0.0
  0
INSERT
  5
510
330
50B
100
AcDbEntity
  8
03-DIMMENTION
370
    15
100
AcDbBlockReference
  2
_Open30
 10
176.5
 20
146.0000000000003
 30
0.0
 41
2.0
 42
2.0
 43
2.0
 50
270.0
  0
INSERT
  5
511
330
50B
100
AcDbEntity
  8
03-DIMMENTION
370
    15
100
AcDbBlockReference
  2
_Open30
 10
176.5
 20
155.0
 30
0.0
 41
2.0
 42
2.0
 43
2.0
 50
90.0
  0
MTEXT
  5
512
330
50B
100
AcDbEntity
  8
03-DIMMENTION
100
AcDbMText
 10
174.75
 20
150.5000000000001
 30
0.0
 40
2.5
 41
0.0
 71
     5
 72
     1
  1
\A1;9.0
 11
0.0000000000000001
 21
1.0
 31
0.0
 73
     1
 44
1.0
1001
ACAD
1000
MTEXTBEGIN
1070
    73
1070
     1
1070
    44
1040
1.0
1070
    74
1070
     0
1000
MTEXTEND
  0
POINT
  5
513
330
50B
100
AcDbEntity
  8
Defpoints
 62
     0
100
AcDbPoint
 10
157.5
 20
146.0000000000003
 30
0.0
  0
POINT
  5
514
330
50B
100
AcDbEntity
  8
Defpoints
 62
     0
100
AcDbPoint
 10
164.5
 20
155.0
 30
0.0
  0
POINT
  5
515
330
50B
100
AcDbEntity
  8
Defpoints
 62
     0
100
AcDbPoint
 10
176.5
 20
155.0
 30
0.0
  0
ENDBLK
  5
516
330
50B
100
AcDbEntity
  8
0
100
AcDbBlockEnd
  0
BLOCK
  5
519
330
518
100
AcDbEntity
  8
0
100
AcDbBlockBegin
  2
*D7
 70
     1
 10
0.0
 20
0.0
 30
0.0
  3
*D7
  1

  0
LINE
  5
51A
330
518
100
AcDbEntity
  8
03-DIMMENTION
370
    15
100
AcDbLine
 10
164.8
 20
55.0
 30
0.0
 11
170.0
 21
55.0
 31
0.0
  0
LINE
  5
51B
330
518
100
AcDbEntity
  8
03-DIMMENTION
370
    15
100
AcDbLine
 10
159.8
 20
59.00000000000108
 30
0.0
 11
170.0
 21
59.00000000000108
 31
0.0
  0
LINE
  5
51C
330
518
100
AcDbEntity
  8
03-DIMMENTION
370
    15
100
AcDbLine
 10
169.5
 20
53.0
 30
0.0
 11
169.5
 21
51.0
 31
0.0
  0
LINE
  5
51D
330
518
100
AcDbEntity
  8
03-DIMMENTION
370
    15
100
AcDbLine
 10
169.5
 20
61.00000000000108
 30
0.0
 11
169.5
 21
68.64467005076249
 31
0.0
  0
LINE
  5
51E
330
518
100
AcDbEntity
  8
03-DIMMENTION
370
    15
100
AcDbLine
 10
169.5
 20
55.0
 30
0.0
 11
169.5
 21
59.00000000000108
 31
0.0
  0
INSERT
  5
51F
330
518
100
AcDbEntity
  8
03-DIMMENTION
370
    15
100
AcDbBlockReference
  2
_Open30
 10
169.5
 20
55.0
 30
0.0
 41
2.0
 42
2.0
 43
2.0
 50
90.0
  0
INSERT
  5
520
330
518
100
AcDbEntity
  8
03-DIMMENTION
370
    15
100
AcDbBlockReference
  2
_Open30
 10
169.5
 20
59.00000000000108
 30
0.0
 41
2.0
 42
2.0
 43
2.0
 50
270.0
  0
MTEXT
  5
521
330
518
100
AcDbEntity
  8
03-DIMMENTION
100
AcDbMText
 10
167.75
 20
65.82233502538182
 30
0.0
 40
2.5
 41
0.0
 71
     5
 72
     1
  1
\A1;4.0
 11
0.0000000000000001
 21
1.0
 31
0.0
 73
     1
 44
1.0
1001
ACAD
1000
MTEXTBEGIN
1070
    73
1070
     1
1070
    44
1040
1.0
1070
    74
1070
     0
1000
MTEXTEND
  0
POINT
  5
522
330
518
100
AcDbEntity
  8
Defpoints
 62
     0
100
AcDbPoint
 10
164.5
 20
55.0
 30
0.0
  0
POINT
  5
523
330
518
100
AcDbEntity
  8
Defpoints
 62
     0
100
AcDbPoint
 10
159.5
 20
59.00000000000108
 30
0.0
  0
POINT
  5
524
330
518
100
AcDbEntity
  8
Defpoints
 62
     0
100
AcDbPoint
 10
169.5
 20
59.00000000000108
 30
0.0
  0
ENDBLK
  5
525
330
518
100
AcDbEntity
  8
0
100
AcDbBlockEnd
  0
BLOCK
  5
52C
330
52B
100
AcDbEntity
  8
0
100
AcDbBlockBegin
  2
*D8
 70
     1
 10
0.0
 20
0.0
 30
0.0
  3
*D8
  1

  0
LINE
  5
52D
330
52B
100
AcDbEntity
  8
03-DIMMENTION
370
    15
100
AcDbLine
 10
141.8935364087733
 20
149.9700211825961
 30
0.0
 11
143.4377534466916
 21
151.2410025907225
 31
0.0
  0
LINE
  5
52E
330
52B
100
AcDbEntity
  8
03-DIMMENTION
370
    15
100
AcDbLine
 10
137.1064635912266
 20
146.0299788174044
 30
0.0
 11
127.5197760918659
 21
138.1395713953813
 31
0.0
  0
LINE
  5
52F
330
52B
100
AcDbEntity
  8
03-DIMMENTION
370
    15
100
AcDbLine
 10
140.349319370855
 20
148.6990397744698
 30
0.0
 11
138.6506806291449
 21
147.3009602255307
 31
0.0
  0
INSERT
  5
530
330
52B
100
AcDbEntity
  8
03-DIMMENTION
370
    15
100
AcDbBlockReference
  2
_Open30
 10
140.349319370855
 20
148.6990397744698
 30
0.0
 41
2.0
 42
2.0
 43
2.0
 50
219.4563885780324
  0
INSERT
  5
531
330
52B
100
AcDbEntity
  8
03-DIMMENTION
370
    15
100
AcDbBlockReference
  2
_Open30
 10
138.6506806291449
 20
147.3009602255307
 30
0.0
 41
2.0
 42
2.0
 43
2.0
 50
39.45638857803245
  0
MTEXT
  5
532
330
52B
100
AcDbEntity
  8
03-DIMMENTION
100
AcDbMText
 10
130.4289025904765
 20
142.8004743105082
 30
0.0
 40
2.5
 41
0.0
 71
     5
 72
     1
  1
\A1;2-%%c2.2
 11
0.7721085189591438
 21
0.635490704063181
 31
0.0
 73
     1
 44
1.0
1001
ACAD
1000
MTEXTBEGIN
1070
    73
1070
     1
1070
    44
1040
1.0
1070
    74
1070
     0
1000
MTEXTEND
  0
POINT
  5
533
330
52B
100
AcDbEntity
  8
Defpoints
 62
     0
100
AcDbPoint
 10
138.6506806291449
 20
147.3009602255307
 30
0.0
  0
POINT
  5
534
330
52B
100
AcDbEntity
  8
Defpoints
 62
     0
100
AcDbPoint
 10
140.349319370855
 20
148.6990397744698
 30
0.0
  0
ENDBLK
  5
535
330
52B
100
AcDbEntity
  8
0
100
AcDbBlockEnd
  0
ENDSEC
  0
SECTION
  2
ENTITIES
  0
LWPOLYLINE
  5
3F
330
2
100
AcDbEntity
  8
TITLE
100
AcDbPolyline
 90
        4
 70
     1
 43
0.0
 10
0.0
 20
0.0
 10
297.0
 20
0.0
 10
297.0
 20
210.0
 10
0.0
 20
210.0
  0
LINE
  5
41
330
2
100
AcDbEntity
  8
TITLE
100
AcDbLine
 10
173.9999749999998
 20
16.59998823931611
 30
0.0
 11
101.9999749999998
 21
16.59998331623919
 31
0.0
  0
LINE
  5
42
330
2
100
AcDbEntity
  8
TITLE
100
AcDbLine
 10
123.9999749999998
 20
10.60000199999988
 30
0.0
 11
123.9999749999998
 21
20.59998578356989
 31
0.0
  0
LINE
  5
43
330
2
100
AcDbEntity
  8
TITLE
100
AcDbLine
 10
173.9999749999998
 20
20.59998983712988
 30
0.0
 11
173.9999749999998
 21
10.60000399999988
 31
0.0
  0
LINE
  5
44
330
2
100
AcDbEntity
  8
TITLE
100
AcDbLine
 10
245.9999749999998
 20
20.59998983712988
 30
0.0
 11
245.9999749999998
 21
10.60000399999988
 31
0.0
  0
LINE
  5
45
330
2
100
AcDbEntity
  8
TITLE
100
AcDbLine
 10
145.9999749999998
 20
10.59999999999988
 30
0.0
 11
145.9999749999998
 21
20.59998756713989
 31
0.0
  0
TEXT
  5
46
330
2
100
AcDbEntity
  8
TITLE
100
AcDbText
 10
107.0952985010282
 20
17.09998475213987
 30
0.0
 40
3.0
  1
尺  度
 72
     1
 11
112.9430142370688
 21
17.09998475213987
 31
0.0
100
AcDbText
  0
TEXT
  5
47
330
2
100
AcDbEntity
  8
TITLE
100
AcDbText
 10
129.2317649410221
 20
17.09998625640988
 30
0.0
 40
3.0
  1
単  位
 72
     1
 11
135.0794806770627
 21
17.09998625640988
 31
0.0
100
AcDbText
  0
TEXT
  5
48
330
2
100
AcDbEntity
  8
TITLE
100
AcDbText
 10
154.2317649410222
 20
17.09998796580988
 30
0.0
 40
3.0
  1
日  付
 72
     1
 11
160.0794806770628
 21
17.09998796580988
 31
0.0
100
AcDbText
  0
LINE
  5
49
330
2
100
AcDbEntity
  8
TITLE
100
AcDbLine
 10
245.9999749999998
 20
20.59999567426554
 30
0.0
 11
101.9999749999998
 21
20.59998399999988
 31
0.0
  0
LINE
  5
4A
330
2
100
AcDbEntity
  8
TITLE
100
AcDbLine
 10
196.9999749999998
 20
20.59999170176988
 30
0.0
 11
196.9999749999998
 21
30.60000699999989
 31
0.0
  0
LINE
  5
4B
330
2
100
AcDbEntity
  8
TITLE
100
AcDbLine
 10
245.9999749999998
 20
20.59999567426988
 30
0.0
 11
245.9999749999998
 21
30.60001099999988
 31
0.0
  0
LINE
  5
4C
330
2
100
AcDbEntity
  8
TITLE
100
AcDbLine
 10
101.9999749999998
 20
30.59999899999989
 30
0.0
 11
101.9999749999998
 21
10.39999999999988
 31
0.0
  0
LINE
  5
4D
330
2
100
AcDbEntity
  8
TITLE
100
AcDbLine
 10
286.3999999999998
 20
30.59999899999989
 30
0.0
 11
101.9999749999998
 21
30.59999899999989
 31
0.0
  0
LINE
  5
4E
330
2
100
AcDbEntity
  8
TITLE
100
AcDbLine
 10
245.9999749999998
 20
26.59999567426554
 30
0.0
 11
101.9999749999998
 21
26.59998399999989
 31
0.0
  0
ELLIPSE
  5
4F
330
2
100
AcDbEntity
  8
TITLE
  6
Continuous
100
AcDbEllipse
 10
54.02637022461731
 20
200.1504202828182
 30
0.0
 11
0.8689064294734993
 21
1.231830042267542
 31
0.0
210
0.0
220
0.0
230
1.0
 40
0.8395560122375155
 41
0.0
 42
6.283185307179586
  0
ELLIPSE
  5
50
330
2
100
AcDbEntity
  8
TITLE
  6
Continuous
100
AcDbEllipse
 10
53.99236059616292
 20
200.1022055606854
 30
0.0
 11
1.551775802911215
 21
2.191120744445877
 31
0.0
210
0.0
220
0.0
230
1.0
 40
0.8609347890889097
 41
0.0
 42
6.283185307179586
  0
LWPOLYLINE
  5
51
330
2
100
AcDbEntity
  8
TITLE
  6
Continuous
100
AcDbPolyline
 90
       14
 70
     0
 43
0.0
 10
65.52358003411621
 20
200.5284462054794
 42
0.4292409730472437
 10
64.53560329263531
 20
201.4400950885267
 10
62.42165845494461
 20
201.4400950885267
 10
62.57050081596857
 20
202.3331492546704
 10
64.88930812455226
 20
202.3331492546704
 42
-0.3930573527614118
 10
66.42199976947992
 20
200.4751359896762
 42
-0.3356983166534925
 10
64.16076393638237
 20
197.8678784239519
 10
61.71661569219958
 20
197.8678784239519
 10
62.27955573301713
 20
200.8233137291804
 10
63.43758481000097
 20
200.8233137291804
 10
63.10172939062546
 20
198.9761089226149
 42
0.4679280380114158
 10
63.34769686815045
 20
198.681387563065
 10
63.87089438499407
 20
198.681387563065
 42
0.3336014498526429
 10
65.52400035279588
 20
200.5351113815891
  0
LWPOLYLINE
  5
52
330
2
100
AcDbEntity
  8
TITLE
100
AcDbPolyline
 90
       13
 70
     1
 43
0.0
 10
59.71898451413631
 20
200.1503584978288
 42
0.7303512939853354
 10
60.19159524859393
 20
200.2094559304776
 10
60.58854727180754
 20
202.3331492546704
 10
61.76361854304926
 20
202.3331492546704
 10
60.91756722775521
 20
197.8678784239519
 10
59.67061007844112
 20
197.8678784239519
 10
58.63617157546484
 20
200.065976136825
 42
0.728588184045619
 10
58.16414796791208
 20
200.0050458582092
 10
57.76837622082739
 20
197.8678784239519
 10
56.59330494958566
 20
197.8678784239519
 10
56.687310651285
 20
198.1498955290498
 10
57.45664466978993
 20
202.3331492546704
 10
58.70843323782077
 20
202.3331492546704
  0
LWPOLYLINE
  5
53
330
2
100
AcDbEntity
  8
TITLE
  6
Continuous
100
AcDbPolyline
 90
        4
 70
     1
 43
0.0
 10
47.61576043729885
 20
197.8678784239519
 10
46.44068916605712
 20
197.8678784239519
 10
47.28674048135117
 20
202.3331492546704
 10
48.46181175259291
 20
202.3331492546704
  0
LWPOLYLINE
  5
54
330
2
100
AcDbEntity
  8
TITLE
  6
Continuous
100
AcDbPolyline
 90
        7
 70
     1
 43
0.0
 10
49.58988017298494
 20
197.8678784239519
 10
51.37598850527237
 20
197.8678784239519
 10
49.68388587468431
 20
200.265023817285
 10
52.03402841716776
 20
202.3331492546704
 10
50.43593148827899
 20
202.3331492546704
 10
48.77891076368584
 20
200.8885670845123
 10
48.53796242673269
 20
199.3826399785551
  0
ELLIPSE
  5
55
330
2
100
AcDbEntity
  8
TITLE
  6
Continuous
100
AcDbEllipse
 10
69.36781549993267
 20
200.0836071732723
 30
0.0
 11
1.551775802911215
 21
2.191120744445877
 31
0.0
210
0.0
220
0.0
230
1.0
 40
0.8609347890889097
 41
0.0
 42
6.283185307179586
  0
ELLIPSE
  5
56
330
2
100
AcDbEntity
  8
TITLE
  6
Continuous
100
AcDbEllipse
 10
69.40182512838706
 20
200.1318218954051
 30
0.0
 11
0.8689064294735002
 21
1.231830042267543
 31
0.0
210
0.0
220
0.0
230
1.0
 40
0.8395560122375151
 41
0.0
 42
6.283185307179586
  0
LWPOLYLINE
  5
57
330
2
100
AcDbEntity
  8
TITLE
100
AcDbPolyline
 90
        6
 70
     0
 43
0.0
 10
45.40001800000005
 20
200.0
 10
10.0
 20
200.0
 10
10.0
 20
10.0
 10
287.0
 20
10.0
 10
287.0
 20
200.0
 10
72.78867726088922
 20
200.0
  0
LWPOLYLINE
  5
58
330
2
100
AcDbEntity
  8
TITLE
100
AcDbPolyline
 90
        6
 70
     0
 43
0.0
 10
45.40001800000005
 20
199.7
 10
10.29999999999995
 20
199.7
 10
10.3
 20
10.29999999999987
 10
286.7
 20
10.3
 10
286.7
 20
199.7
 10
72.78867726088922
 20
199.7
  0
LWPOLYLINE
  5
59
330
2
100
AcDbEntity
  8
TITLE
100
AcDbPolyline
 90
        6
 70
     0
 43
0.0
 10
45.40001800000005
 20
199.3999999999999
 10
10.59999999999991
 20
199.3999999999999
 10
10.6
 20
10.59999999999976
 10
286.3999999999998
 20
10.6
 10
286.4
 20
199.4
 10
72.78867726088922
 20
199.3999999999999
  0
MTEXT
  5
5A
330
2
100
AcDbEntity
  8
TITLE
100
AcDbMText
 10
250.0209577232791
 20
21.7159378167452
 30
0.0
 40
3.0
 41
40.40002499999999
 71
     1
 72
     5
  1
＊禁転載・再配布＊
 73
     1
 44
1.0
1001
ACAD
1000
MTEXTBEGIN
1070
    73
1070
     1
1070
    44
1040
1.0
1070
    74
1070
     0
1000
MTEXTEND
  0
MTEXT
  5
5B
330
2
100
AcDbEntity
  8
TITLE
100
AcDbMText
 10
149.499975162143
 20
23.5999878508849
 30
0.0
 40
4.0
 41
94.99999967571365
 71
     5
 72
     5
  1
ＫＲＧ－４　寸法図
 73
     1
 44
1.0
1001
ACAD
1000
MTEXTBEGIN
1070
    73
1070
     1
1070
    44
1040
1.0
1070
    74
1070
     0
1000
MTEXTEND
  0
MTEXT
  5
5C
330
2
100
AcDbEntity
  8
TITLE
100
AcDbMText
 10
112.9999749999998
 20
13.59999265811953
 30
0.0
 40
3.0
 41
22.00000000000003
 71
     5
 72
     5
  1
1 : 1
 73
     1
 44
1.0
1001
ACAD
1000
MTEXTBEGIN
1070
    73
1070
     1
1070
    44
1040
1.0
1070
    74
1070
     0
1000
MTEXTEND
  0
MTEXT
  5
5D
330
2
100
AcDbEntity
  8
TITLE
100
AcDbMText
 10
134.9999749999998
 20
13.59999265811953
 30
0.0
 40
3.0
 41
22.00000000000003
 71
     5
 72
     5
  1
mm
 73
     1
 44
1.0
1001
ACAD
1000
MTEXTBEGIN
1070
    73
1070
     1
1070
    44
1040
1.0
1070
    74
1070
     0
1000
MTEXTEND
  0
MTEXT
  5
5E
330
2
100
AcDbEntity
  8
TITLE
100
AcDbMText
 10
159.0406344098061
 20
13.59999265811953
 30
0.0
 40
3.0
 41
28.0
 71
     5
 72
     5
  1
09,3,2
 73
     1
 44
1.0
1001
ACAD
1000
MTEXTBEGIN
1070
    73
1070
     1
1070
    44
1040
1.0
1070
    74
1070
     0
1000
MTEXTEND
  0
MTEXT
  5
5F
330
2
100
AcDbEntity
  8
TITLE
100
AcDbMText
 10
149.4999749999998
 20
28.59999535088613
 30
0.0
 40
3.0
 41
95.00000000000003
 71
     5
 72
     5
  1
名称
 73
     1
 44
1.0
1001
ACAD
1000
MTEXTBEGIN
1070
    73
1070
     1
1070
    44
1040
1.0
1070
    74
1070
     0
1000
MTEXTEND
  0
MTEXT
  5
60
330
2
100
AcDbEntity
  8
TITLE
100
AcDbMText
 10
221.4999749999998
 20
28.59999733713271
 30
0.0
 40
3.0
 41
48.99999999999997
 71
     5
 72
     5
  1
図面用途
 73
     1
 44
1.0
1001
ACAD
1000
MTEXTBEGIN
1070
    73
1070
     1
1070
    44
1040
1.0
1070
    74
1070
     0
1000
MTEXTEND
  0
MTEXT
  5
61
330
2
100
AcDbEntity
  8
TITLE
100
AcDbMText
 10
221.4999749999998
 20
23.78849386493437
 30
0.0
 40
4.0
 41
48.99999999999997
 71
     5
 72
     5
  1
参考図
 73
     1
 44
1.0
1001
ACAD
1000
MTEXTBEGIN
1070
    73
1070
     1
1070
    44
1040
1.0
1070
    74
1070
     0
1000
MTEXTEND
  0
MTEXT
  5
62
330
2
100
AcDbEntity
  8
TITLE
100
AcDbMText
 10
209.9999749999998
 20
15.59999691856488
 30
0.0
 40
5.0
 41
71.99999999999997
 71
     5
 72
     5
  1
近藤科学株式会社
 73
     1
 44
1.0
1001
ACAD
1000
MTEXTBEGIN
1070
    73
1070
     1
1070
    44
1040
1.0
1070
    74
1070
     0
1000
MTEXTEND
  0
LINE
  5
63
330
2
100
AcDbEntity
  8
TITLE
100
AcDbLine
 10
148.5
 20
205.0
 30
0.0
 11
148.5
 21
200.0
 31
0.0
  0
LINE
  5
64
330
2
100
AcDbEntity
  8
TITLE
100
AcDbLine
 10
148.5
 20
5.0
 30
0.0
 11
148.5
 21
10.0
 31
0.0
  0
LINE
  5
65
330
2
100
AcDbEntity
  8
TITLE
100
AcDbLine
 10
292.0
 20
105.0
 30
0.0
 11
287.0
 21
105.0
 31
0.0
  0
LINE
  5
66
330
2
100
AcDbEntity
  8
TITLE
100
AcDbLine
 10
5.0
 20
105.0
 30
0.0
 11
10.0
 21
105.0
 31
0.0
  0
LINE
  5
67
330
2
100
AcDbEntity
  8
Visible (ISO)
100
AcDbLine
 10
157.5
 20
103.2999999999999
 30
0.0
 11
157.5
 21
101.5
 31
0.0
  0
LINE
  5
69
330
2
100
AcDbEntity
  8
Visible (ISO)
100
AcDbLine
 10
157.5
 20
108.5
 30
0.0
 11
157.5
 21
106.7
 31
0.0
  0
LINE
  5
6A
330
2
100
AcDbEntity
  8
Visible (ISO)
100
AcDbLine
 10
139.5
 20
101.5
 30
0.0
 11
139.5
 21
103.2999999999999
 31
0.0
  0
LINE
  5
6B
330
2
100
AcDbEntity
  8
Visible (ISO)
100
AcDbLine
 10
139.5
 20
106.7
 30
0.0
 11
139.5
 21
108.5
 31
0.0
  0
LINE
  5
6C
330
2
100
AcDbEntity
  8
Visible (ISO)
100
AcDbLine
 10
157.5
 20
101.5
 30
0.0
 11
139.5
 21
101.5
 31
0.0
  0
LINE
  5
6D
330
2
100
AcDbEntity
  8
Visible (ISO)
100
AcDbLine
 10
139.5
 20
108.5
 30
0.0
 11
157.5
 21
108.5
 31
0.0
  0
LINE
  5
6E
330
2
100
AcDbEntity
  8
Visible (ISO)
100
AcDbLine
 10
150.65
 20
107.65
 30
0.0
 11
153.85
 21
107.65
 31
0.0
  0
LINE
  5
6F
330
2
100
AcDbEntity
  8
Visible (ISO)
100
AcDbLine
 10
153.85
 20
102.3499999999999
 30
0.0
 11
150.65
 21
102.3499999999999
 31
0.0
  0
LINE
  5
70
330
2
100
AcDbEntity
  8
Visible (ISO)
100
AcDbLine
 10
148.85
 20
102.0
 30
0.0
 11
148.85
 21
108.0
 31
0.0
  0
LINE
  5
71
330
2
100
AcDbEntity
  8
Visible (ISO)
100
AcDbLine
 10
153.85
 20
102.0
 30
0.0
 11
148.85
 21
102.0
 31
0.0
  0
LINE
  5
72
330
2
100
AcDbEntity
  8
Visible (ISO)
100
AcDbLine
 10
148.85
 20
108.0
 30
0.0
 11
153.85
 21
108.0
 31
0.0
  0
LINE
  5
73
330
2
100
AcDbEntity
  8
Visible (ISO)
100
AcDbLine
 10
153.85
 20
108.0
 30
0.0
 11
153.85
 21
107.65
 31
0.0
  0
LINE
  5
74
330
2
100
AcDbEntity
  8
Visible (ISO)
100
AcDbLine
 10
153.85
 20
106.85
 30
0.0
 11
153.85
 21
103.15
 31
0.0
  0
LINE
  5
75
330
2
100
AcDbEntity
  8
Visible (ISO)
100
AcDbLine
 10
153.85
 20
102.3499999999999
 30
0.0
 11
153.85
 21
102.0
 31
0.0
  0
LINE
  5
76
330
2
100
AcDbEntity
  8
Visible (ISO)
100
AcDbLine
 10
153.85
 20
102.0
 30
0.0
 11
154.85
 21
102.0
 31
0.0
  0
LINE
  5
77
330
2
100
AcDbEntity
  8
Visible (ISO)
100
AcDbLine
 10
154.85
 20
108.0
 30
0.0
 11
153.85
 21
108.0
 31
0.0
  0
LINE
  5
78
330
2
100
AcDbEntity
  8
Visible (ISO)
100
AcDbLine
 10
153.85
 20
107.2
 30
0.0
 11
154.85
 21
107.2
 31
0.0
  0
LINE
  5
79
330
2
100
AcDbEntity
  8
Visible (ISO)
100
AcDbLine
 10
154.85
 20
107.2
 30
0.0
 11
154.85
 21
108.0
 31
0.0
  0
LINE
  5
7A
330
2
100
AcDbEntity
  8
Visible (ISO)
100
AcDbLine
 10
154.85
 20
102.7999999999999
 30
0.0
 11
153.85
 21
102.7999999999999
 31
0.0
  0
LINE
  5
7B
330
2
100
AcDbEntity
  8
Visible (ISO)
100
AcDbLine
 10
154.85
 20
102.0
 30
0.0
 11
154.85
 21
102.7999999999999
 31
0.0
  0
LINE
  5
7C
330
2
100
AcDbEntity
  8
Visible (ISO)
100
AcDbLine
 10
152.05
 20
106.85
 30
0.0
 11
152.05
 21
107.65
 31
0.0
  0
LINE
  5
7D
330
2
100
AcDbEntity
  8
Visible (ISO)
100
AcDbLine
 10
153.85
 20
107.65
 30
0.0
 11
153.85
 21
106.85
 31
0.0
  0
LINE
  5
7E
330
2
100
AcDbEntity
  8
Visible (ISO)
100
AcDbLine
 10
150.65
 20
106.85
 30
0.0
 11
150.65
 21
107.65
 31
0.0
  0
LINE
  5
7F
330
2
100
AcDbEntity
  8
Visible (ISO)
100
AcDbLine
 10
153.85
 20
106.85
 30
0.0
 11
150.65
 21
106.85
 31
0.0
  0
LINE
  5
80
330
2
100
AcDbEntity
  8
Visible (ISO)
100
AcDbLine
 10
152.05
 20
102.3499999999999
 30
0.0
 11
152.05
 21
103.15
 31
0.0
  0
LINE
  5
81
330
2
100
AcDbEntity
  8
Visible (ISO)
100
AcDbLine
 10
153.85
 20
103.15
 30
0.0
 11
153.85
 21
102.3499999999999
 31
0.0
  0
LINE
  5
82
330
2
100
AcDbEntity
  8
Visible (ISO)
100
AcDbLine
 10
150.65
 20
103.15
 30
0.0
 11
153.85
 21
103.15
 31
0.0
  0
LINE
  5
83
330
2
100
AcDbEntity
  8
Visible (ISO)
100
AcDbLine
 10
150.65
 20
102.3499999999999
 30
0.0
 11
150.65
 21
103.15
 31
0.0
  0
CIRCLE
  5
84
330
2
100
AcDbEntity
  8
Visible (ISO)
100
AcDbCircle
 10
157.5
 20
105.0
 30
0.0
 40
1.700000000000007
  0
LINE
  5
85
330
2
100
AcDbEntity
  8
Visible (ISO)
100
AcDbLine
 10
157.35
 20
105.15
 30
0.0
 11
157.35
 21
105.8999999999999
 31
0.0
  0
LINE
  5
86
330
2
100
AcDbEntity
  8
Visible (ISO)
100
AcDbLine
 10
157.35
 20
105.8999999999999
 30
0.0
 11
157.65
 21
105.8999999999999
 31
0.0
  0
LINE
  5
87
330
2
100
AcDbEntity
  8
Visible (ISO)
100
AcDbLine
 10
157.65
 20
105.8999999999999
 30
0.0
 11
157.65
 21
105.15
 31
0.0
  0
LINE
  5
88
330
2
100
AcDbEntity
  8
Visible (ISO)
100
AcDbLine
 10
157.65
 20
105.15
 30
0.0
 11
158.4
 21
105.15
 31
0.0
  0
LINE
  5
89
330
2
100
AcDbEntity
  8
Visible (ISO)
100
AcDbLine
 10
158.4
 20
105.15
 30
0.0
 11
158.4
 21
104.8499999999999
 31
0.0
  0
LINE
  5
8A
330
2
100
AcDbEntity
  8
Visible (ISO)
100
AcDbLine
 10
158.4
 20
104.8499999999999
 30
0.0
 11
157.65
 21
104.8499999999999
 31
0.0
  0
LINE
  5
8B
330
2
100
AcDbEntity
  8
Visible (ISO)
100
AcDbLine
 10
157.65
 20
104.8499999999999
 30
0.0
 11
157.65
 21
104.0999999999999
 31
0.0
  0
LINE
  5
8C
330
2
100
AcDbEntity
  8
Visible (ISO)
100
AcDbLine
 10
157.65
 20
104.0999999999999
 30
0.0
 11
157.35
 21
104.0999999999999
 31
0.0
  0
LINE
  5
8D
330
2
100
AcDbEntity
  8
Visible (ISO)
100
AcDbLine
 10
157.35
 20
104.0999999999999
 30
0.0
 11
157.35
 21
104.8499999999999
 31
0.0
  0
LINE
  5
8E
330
2
100
AcDbEntity
  8
Visible (ISO)
100
AcDbLine
 10
157.35
 20
104.8499999999999
 30
0.0
 11
156.6
 21
104.8499999999999
 31
0.0
  0
LINE
  5
8F
330
2
100
AcDbEntity
  8
Visible (ISO)
100
AcDbLine
 10
156.6
 20
104.8499999999999
 30
0.0
 11
156.6
 21
105.15
 31
0.0
  0
LINE
  5
90
330
2
100
AcDbEntity
  8
Visible (ISO)
100
AcDbLine
 10
156.6
 20
105.15
 30
0.0
 11
157.35
 21
105.15
 31
0.0
  0
ARC
  5
91
330
2
100
AcDbEntity
  8
Visible (ISO)
100
AcDbCircle
 10
157.5
 20
105.0000000000004
 30
0.0
 40
3.000000000000422
100
AcDbArc
 50
270.0
 51
271.9102131717082
  0
ARC
  5
92
330
2
100
AcDbEntity
  8
Visible (ISO)
100
AcDbCircle
 10
157.5
 20
104.9999999999994
 30
0.0
 40
1.999999999999472
100
AcDbArc
 50
270.0
 51
272.8659839826028
  0
ARC
  5
93
330
2
100
AcDbEntity
  8
Visible (ISO)
100
AcDbCircle
 10
157.5
 20
105.0000000000001
 30
0.0
 40
1.999999999999871
100
AcDbArc
 50
87.13401601739724
 51
90.0
  0
ARC
  5
94
330
2
100
AcDbEntity
  8
Visible (ISO)
100
AcDbCircle
 10
157.5
 20
104.9999999999994
 30
0.0
 40
3.000000000000589
100
AcDbArc
 50
88.08978682829183
 51
90.0
  0
ARC
  5
95
330
2
100
AcDbEntity
  8
Visible (ISO)
100
AcDbCircle
 10
139.5
 20
105.0000000000038
 30
0.0
 40
3.000000000003884
100
AcDbArc
 50
268.0897868282918
 51
270.0
  0
ARC
  5
96
330
2
100
AcDbEntity
  8
Visible (ISO)
100
AcDbCircle
 10
139.5
 20
104.9999999999995
 30
0.0
 40
3.000000000000421
100
AcDbArc
 50
90.0
 51
91.91021317170816
  0
ARC
  5
97
330
2
100
AcDbEntity
  8
Visible (ISO)
100
AcDbCircle
 10
139.5
 20
105.0000000000001
 30
0.0
 40
1.999999999999872
100
AcDbArc
 50
90.0
 51
92.86598398260274
  0
ARC
  5
98
330
2
100
AcDbEntity
  8
Visible (ISO)
100
AcDbCircle
 10
139.5
 20
104.9999999999995
 30
0.0
 40
1.99999999999956
100
AcDbArc
 50
267.1340160173973
 51
270.0
  0
LINE
  5
99
330
2
100
AcDbEntity
  8
Visible (ISO)
100
AcDbLine
 10
159.5
 20
108.6
 30
0.0
 11
157.5
 21
108.6
 31
0.0
  0
LINE
  5
9A
330
2
100
AcDbEntity
  8
Visible (ISO)
100
AcDbLine
 10
139.5
 20
108.6
 30
0.0
 11
137.5
 21
108.6
 31
0.0
  0
LINE
  5
9B
330
2
100
AcDbEntity
  8
Visible (ISO)
100
AcDbLine
 10
159.5
 20
108.5999999999999
 30
0.0
 11
159.5
 21
109.5
 31
0.0
  0
LINE
  5
9C
330
2
100
AcDbEntity
  8
Visible (ISO)
100
AcDbLine
 10
157.5
 20
109.5
 30
0.0
 11
159.5
 21
109.5
 31
0.0
  0
LINE
  5
9D
330
2
100
AcDbEntity
  8
Visible Narrow (ISO)
100
AcDbLine
 10
157.5
 20
109.5
 30
0.0
 11
157.5
 21
108.5999999999999
 31
0.0
  0
LINE
  5
9F
330
2
100
AcDbEntity
  8
Visible Narrow (ISO)
100
AcDbLine
 10
139.5
 20
108.5999999999999
 30
0.0
 11
139.5
 21
109.5
 31
0.0
  0
LINE
  5
A0
330
2
100
AcDbEntity
  8
Visible (ISO)
100
AcDbLine
 10
137.5
 20
109.5
 30
0.0
 11
139.5
 21
109.5
 31
0.0
  0
LINE
  5
A1
330
2
100
AcDbEntity
  8
Visible (ISO)
100
AcDbLine
 10
137.5
 20
109.5
 30
0.0
 11
137.5
 21
108.5999999999999
 31
0.0
  0
LINE
  5
A2
330
2
100
AcDbEntity
  8
Visible (ISO)
100
AcDbLine
 10
157.5
 20
108.5999999999999
 30
0.0
 11
139.5
 21
108.5999999999999
 31
0.0
  0
LINE
  5
A3
330
2
100
AcDbEntity
  8
Visible (ISO)
100
AcDbLine
 10
139.5
 20
109.5
 30
0.0
 11
157.5
 21
109.5
 31
0.0
  0
ARC
  5
A4
330
2
100
AcDbEntity
  8
Visible (ISO)
100
AcDbCircle
 10
141.5000000000001
 20
108.5
 30
0.0
 40
0.4999999999998927
100
AcDbArc
 50
359.9999999999968
 51
11.53695903281815
  0
ARC
  5
A5
330
2
100
AcDbEntity
  8
Visible (ISO)
100
AcDbCircle
 10
141.4999999999999
 20
108.5
 30
0.0
 40
0.4999999999998927
100
AcDbArc
 50
168.4630409671818
 51
180.0
  0
ARC
  5
A6
330
2
100
AcDbEntity
  8
Visible (ISO)
100
AcDbCircle
 10
155.4999999999999
 20
108.5
 30
0.0
 40
0.5000000000000915
100
AcDbArc
 50
0.0
 51
11.53695903281513
  0
ARC
  5
A7
330
2
100
AcDbEntity
  8
Visible (ISO)
100
AcDbCircle
 10
155.4999999999999
 20
108.5
 30
0.0
 40
0.4999999999998739
100
AcDbArc
 50
168.4630409671818
 51
180.0
  0
ARC
  5
A8
330
2
100
AcDbEntity
  8
Visible (ISO)
100
AcDbCircle
 10
155.5
 20
101.5
 30
0.0
 40
0.5000000000000038
100
AcDbArc
 50
180.0
 51
191.5369590328149
  0
ARC
  5
A9
330
2
100
AcDbEntity
  8
Visible (ISO)
100
AcDbCircle
 10
155.5
 20
101.5
 30
0.0
 40
0.4999999999999816
100
AcDbArc
 50
348.4630409671849
 51
0.0
  0
ARC
  5
AA
330
2
100
AcDbEntity
  8
Visible (ISO)
100
AcDbCircle
 10
141.4999999999999
 20
101.5
 30
0.0
 40
0.4999999999999594
100
AcDbArc
 50
180.0
 51
191.5369590328181
  0
ARC
  5
AB
330
2
100
AcDbEntity
  8
Visible (ISO)
100
AcDbCircle
 10
141.5
 20
101.5
 30
0.0
 40
0.499999999999965
100
AcDbArc
 50
348.4630409671819
 51
0.0
  0
LINE
  5
AC
330
2
100
AcDbEntity
  8
Visible (ISO)
100
AcDbLine
 10
157.6
 20
101.3999999999999
 30
0.0
 11
139.4
 21
101.3999999999999
 31
0.0
  0
LINE
  5
AD
330
2
100
AcDbEntity
  8
Visible (ISO)
100
AcDbLine
 10
138.5
 20
108.5999999999999
 30
0.0
 11
138.5
 21
106.7320508075688
 31
0.0
  0
LINE
  5
AE
330
2
100
AcDbEntity
  8
Visible (ISO)
100
AcDbLine
 10
138.5
 20
103.2679491924311
 30
0.0
 11
138.5
 21
101.2489721510659
 31
0.0
  0
LINE
  5
AF
330
2
100
AcDbEntity
  8
Visible (ISO)
100
AcDbLine
 10
139.2489721510659
 20
100.5
 30
0.0
 11
157.7510278489341
 21
100.5
 31
0.0
  0
LINE
  5
B0
330
2
100
AcDbEntity
  8
Visible (ISO)
100
AcDbLine
 10
158.5
 20
101.2489721510659
 30
0.0
 11
158.5
 21
103.2679491924311
 31
0.0
  0
LINE
  5
B1
330
2
100
AcDbEntity
  8
Visible (ISO)
100
AcDbLine
 10
158.5
 20
106.7320508075688
 30
0.0
 11
158.5
 21
108.5999999999999
 31
0.0
  0
LINE
  5
B2
330
2
100
AcDbEntity
  8
Visible (ISO)
100
AcDbLine
 10
157.6
 20
108.6
 30
0.0
 11
157.6
 21
106.6970562748477
 31
0.0
  0
LINE
  5
B3
330
2
100
AcDbEntity
  8
Visible (ISO)
100
AcDbLine
 10
157.6
 20
103.3029437251522
 30
0.0
 11
157.6
 21
101.3999999999999
 31
0.0
  0
LINE
  5
B4
330
2
100
AcDbEntity
  8
Visible (ISO)
100
AcDbLine
 10
139.4
 20
101.3999999999999
 30
0.0
 11
139.4
 21
103.3029437251522
 31
0.0
  0
LINE
  5
B5
330
2
100
AcDbEntity
  8
Visible (ISO)
100
AcDbLine
 10
139.4
 20
106.6970562748477
 30
0.0
 11
139.4
 21
108.5999999999999
 31
0.0
  0
ELLIPSE
  5
B6
330
2
100
AcDbEntity
  8
Visible (ISO)
100
AcDbEllipse
 10
139.2510292594984
 20
101.2510292594984
 30
0.0
 11
-0.5317846825763008
 21
-0.5317846825762995
 31
0.0
210
0.0
220
0.0
230
0.9999999999999998
 40
0.9972646886342372
 41
5.499156671652532
 42
7.067213942706641
  0
ELLIPSE
  5
B7
330
2
100
AcDbEntity
  8
Visible (ISO)
100
AcDbEllipse
 10
157.7489707405016
 20
101.2510292594984
 30
0.0
 11
0.5317846825762995
 21
-0.5317846825763008
 31
0.0
210
0.0
220
0.0
230
0.9999999999999998
 40
0.9972646886342372
 41
5.499156671652537
 42
7.067213942706641
  0
ARC
  5
B8
330
2
100
AcDbEntity
  8
Visible (ISO)
100
AcDbCircle
 10
139.5
 20
105.0
 30
0.0
 40
1.999999999999999
100
AcDbArc
 50
119.9999999999999
 51
239.9999999999999
  0
ARC
  5
B9
330
2
100
AcDbEntity
  8
Visible (ISO)
100
AcDbCircle
 10
157.5
 20
105.0
 30
0.0
 40
1.999999999999999
100
AcDbArc
 50
299.9999999999999
 51
59.99999999999986
  0
LINE
  5
BA
330
2
100
AcDbEntity
  8
Visible (ISO)
100
AcDbLine
 10
138.3741669750802
 20
106.95
 30
0.0
 11
138.5
 21
106.95
 31
0.0
  0
LINE
  5
BB
330
2
100
AcDbEntity
  8
Visible (ISO)
100
AcDbLine
 10
137.2483339501605
 20
105.0
 30
0.0
 11
137.5890456021874
 21
105.5901298920415
 31
0.0
  0
LINE
  5
BC
330
2
100
AcDbEntity
  8
Visible (ISO)
100
AcDbLine
 10
138.0334553230532
 20
106.3598701079585
 30
0.0
 11
138.3741669750802
 21
106.95
 31
0.0
  0
LINE
  5
BD
330
2
100
AcDbEntity
  8
Visible (ISO)
100
AcDbLine
 10
138.3741669750802
 20
103.0499999999999
 30
0.0
 11
138.0334553230532
 21
103.6401298920414
 31
0.0
  0
LINE
  5
BE
330
2
100
AcDbEntity
  8
Visible (ISO)
100
AcDbLine
 10
137.5890456021874
 20
104.4098701079585
 30
0.0
 11
137.2483339501605
 21
105.0
 31
0.0
  0
LINE
  5
BF
330
2
100
AcDbEntity
  8
Visible (ISO)
100
AcDbLine
 10
138.5
 20
103.0499999999999
 30
0.0
 11
138.3741669750802
 21
103.0499999999999
 31
0.0
  0
LINE
  5
C0
330
2
100
AcDbEntity
  8
Visible (ISO)
100
AcDbLine
 10
159.7516660498395
 20
105.0
 30
0.0
 11
159.4109543978125
 21
104.4098701079585
 31
0.0
  0
LINE
  5
C1
330
2
100
AcDbEntity
  8
Visible (ISO)
100
AcDbLine
 10
158.9665446769468
 20
103.6401298920414
 30
0.0
 11
158.6258330249197
 21
103.0499999999999
 31
0.0
  0
LINE
  5
C2
330
2
100
AcDbEntity
  8
Visible (ISO)
100
AcDbLine
 10
158.6258330249197
 20
106.95
 30
0.0
 11
158.9665446769468
 21
106.3598701079585
 31
0.0
  0
LINE
  5
C3
330
2
100
AcDbEntity
  8
Visible (ISO)
100
AcDbLine
 10
159.4109543978125
 20
105.5901298920414
 30
0.0
 11
159.7516660498395
 21
105.0
 31
0.0
  0
LINE
  5
C4
330
2
100
AcDbEntity
  8
Visible (ISO)
100
AcDbLine
 10
158.5
 20
106.95
 30
0.0
 11
158.6258330249197
 21
106.95
 31
0.0
  0
LINE
  5
C5
330
2
100
AcDbEntity
  8
Visible (ISO)
100
AcDbLine
 10
158.6258330249197
 20
103.0499999999999
 30
0.0
 11
158.5
 21
103.0499999999999
 31
0.0
  0
LINE
  5
C6
330
2
100
AcDbEntity
  8
Visible (ISO)
100
AcDbLine
 10
149.55
 20
61.60000000000059
 30
0.0
 11
149.65
 21
61.70000000000055
 31
0.0
  0
LINE
  5
C7
330
2
100
AcDbEntity
  8
Visible (ISO)
100
AcDbLine
 10
149.55
 20
61.60000000000059
 30
0.0
 11
149.55
 21
61.30000000000058
 31
0.0
  0
LINE
  5
C8
330
2
100
AcDbEntity
  8
Visible (ISO)
100
AcDbLine
 10
149.55
 20
61.30000000000058
 30
0.0
 11
149.65
 21
61.20000000000056
 31
0.0
  0
LINE
  5
C9
330
2
100
AcDbEntity
  8
Visible (ISO)
100
AcDbLine
 10
149.65
 20
61.20000000000056
 30
0.0
 11
149.65
 21
61.70000000000055
 31
0.0
  0
LINE
  5
CA
330
2
100
AcDbEntity
  8
Visible (ISO)
100
AcDbLine
 10
150.6232050807569
 20
61.70000000000055
 30
0.0
 11
149.65
 21
61.70000000000055
 31
0.0
  0
LINE
  5
CB
330
2
100
AcDbEntity
  8
Visible (ISO)
100
AcDbLine
 10
150.65
 20
61.20000000000056
 30
0.0
 11
149.65
 21
61.20000000000056
 31
0.0
  0
ARC
  5
CC
330
2
100
AcDbEntity
  8
Visible (ISO)
100
AcDbCircle
 10
150.45
 20
61.10000000000019
 30
0.0
 40
0.2000000000000003
100
AcDbArc
 50
270.0
 51
0.0
  0
ARC
  5
CD
330
2
100
AcDbEntity
  8
Visible (ISO)
100
AcDbCircle
 10
150.45
 20
61.60000000000019
 30
0.0
 40
0.2000000000000003
100
AcDbArc
 50
0.0
 51
90.0
  0
LINE
  5
CE
330
2
100
AcDbEntity
  8
Visible (ISO)
100
AcDbLine
 10
150.45
 20
60.90000000000014
 30
0.0
 11
148.85
 21
60.90000000000014
 31
0.0
  0
LINE
  5
CF
330
2
100
AcDbEntity
  8
Visible (ISO)
100
AcDbLine
 10
148.85
 20
61.80000000000018
 30
0.0
 11
150.45
 21
61.80000000000018
 31
0.0
  0
LINE
  5
D0
330
2
100
AcDbEntity
  8
Visible (ISO)
100
AcDbLine
 10
150.65
 20
61.60000000000019
 30
0.0
 11
150.65
 21
61.10000000000019
 31
0.0
  0
LINE
  5
D1
330
2
100
AcDbEntity
  8
Visible (ISO)
100
AcDbLine
 10
148.85
 20
59.00000000000017
 30
0.0
 11
148.85
 21
60.90000000000014
 31
0.0
  0
LINE
  5
D2
330
2
100
AcDbEntity
  8
Visible (ISO)
100
AcDbLine
 10
148.85
 20
61.80000000000018
 30
0.0
 11
148.85
 21
62.70000000000016
 31
0.0
  0
LINE
  5
D3
330
2
100
AcDbEntity
  8
Visible (ISO)
100
AcDbLine
 10
153.85
 20
61.00000000000017
 30
0.0
 11
153.85
 21
62.70000000000016
 31
0.0
  0
LINE
  5
D4
330
2
100
AcDbEntity
  8
Visible (ISO)
100
AcDbLine
 10
153.85
 20
62.70000000000016
 30
0.0
 11
148.85
 21
62.70000000000016
 31
0.0
  0
LINE
  5
D5
330
2
100
AcDbEntity
  8
Visible (ISO)
100
AcDbLine
 10
154.85
 20
59.00000000000017
 30
0.0
 11
154.85
 21
60.00000000000017
 31
0.0
  0
LINE
  5
D6
330
2
100
AcDbEntity
  8
Visible (ISO)
100
AcDbLine
 10
153.85
 20
61.00000000000017
 30
0.0
 11
154.85
 21
60.00000000000017
 31
0.0
  0
LINE
  5
D7
330
2
100
AcDbEntity
  8
Visible (ISO)
100
AcDbLine
 10
156.1
 20
59.90000000000105
 30
0.0
 11
158.9
 21
59.90000000000105
 31
0.0
  0
ARC
  5
D8
330
2
100
AcDbEntity
  8
Visible (ISO)
100
AcDbCircle
 10
156.1
 20
59.60000000000104
 30
0.0
 40
0.3
100
AcDbArc
 50
90.0
 51
180.0
  0
ARC
  5
D9
330
2
100
AcDbEntity
  8
Visible (ISO)
100
AcDbCircle
 10
158.9
 20
59.60000000000104
 30
0.0
 40
0.3
100
AcDbArc
 50
0.0
 51
90.0
  0
LINE
  5
DA
330
2
100
AcDbEntity
  8
Visible (ISO)
100
AcDbLine
 10
159.2
 20
59.60000000000104
 30
0.0
 11
159.2
 21
59.00000000000108
 31
0.0
  0
LINE
  5
DB
330
2
100
AcDbEntity
  8
Visible (ISO)
100
AcDbLine
 10
155.8
 20
59.60000000000104
 30
0.0
 11
155.8
 21
59.00000000000108
 31
0.0
  0
LINE
  5
DC
330
2
100
AcDbEntity
  8
Visible (ISO)
100
AcDbLine
 10
138.1
 20
59.90000000000105
 30
0.0
 11
140.9
 21
59.90000000000105
 31
0.0
  0
ARC
  5
DD
330
2
100
AcDbEntity
  8
Visible (ISO)
100
AcDbCircle
 10
138.1
 20
59.60000000000104
 30
0.0
 40
0.3
100
AcDbArc
 50
90.0
 51
180.0
  0
ARC
  5
DE
330
2
100
AcDbEntity
  8
Visible (ISO)
100
AcDbCircle
 10
140.9
 20
59.60000000000104
 30
0.0
 40
0.3
100
AcDbArc
 50
0.0
 51
90.0
  0
LINE
  5
DF
330
2
100
AcDbEntity
  8
Visible (ISO)
100
AcDbLine
 10
141.2
 20
59.60000000000104
 30
0.0
 11
141.2
 21
59.00000000000108
 31
0.0
  0
LINE
  5
E0
330
2
100
AcDbEntity
  8
Visible (ISO)
100
AcDbLine
 10
137.8
 20
59.60000000000104
 30
0.0
 11
137.8
 21
59.00000000000108
 31
0.0
  0
CIRCLE
  5
E1
330
2
100
AcDbEntity
  8
Visible (ISO)
100
AcDbCircle
 10
139.5
 20
62.0000000000021
 30
0.0
 40
1.1
  0
CIRCLE
  5
E2
330
2
100
AcDbEntity
  8
Visible (ISO)
100
AcDbCircle
 10
157.5
 20
62.0000000000021
 30
0.0
 40
1.1
  0
LINE
  5
E3
330
2
100
AcDbEntity
  8
Visible (ISO)
100
AcDbLine
 10
159.5
 20
62.0000000000021
 30
0.0
 11
159.5
 21
59.0000000000021
 31
0.0
  0
LINE
  5
E4
330
2
100
AcDbEntity
  8
Visible (ISO)
100
AcDbLine
 10
157.5
 20
64.0000000000021
 30
0.0
 11
139.5
 21
64.0000000000021
 31
0.0
  0
LINE
  5
E5
330
2
100
AcDbEntity
  8
Visible (ISO)
100
AcDbLine
 10
137.5
 20
59.0000000000021
 30
0.0
 11
137.5
 21
62.0000000000021
 31
0.0
  0
ARC
  5
E6
330
2
100
AcDbEntity
  8
Visible (ISO)
100
AcDbCircle
 10
157.5
 20
62.0000000000021
 30
0.0
 40
2.0
100
AcDbArc
 50
0.0
 51
90.0
  0
ARC
  5
E7
330
2
100
AcDbEntity
  8
Visible (ISO)
100
AcDbCircle
 10
139.5
 20
62.0000000000021
 30
0.0
 40
1.999999999999998
100
AcDbArc
 50
90.0
 51
180.0
  0
ELLIPSE
  5
E8
330
2
100
AcDbEntity
  8
Visible Narrow (ISO)
100
AcDbEllipse
 10
157.5786454578316
 20
55.75
 30
0.0
 11
0.748972151065932
 21
-0.039251967182208
 31
0.0
210
0.0
220
0.0
230
1.0
 40
0.0522644276890114
 41
4.715128036120352
 42
6.283185307169311
  0
LINE
  5
E9
330
2
100
AcDbEntity
  8
Visible Narrow (ISO)
100
AcDbLine
 10
157.5786454578316
 20
55.0
 30
0.0
 11
157.5786454578316
 21
55.71074803281755
 31
0.0
  0
ARC
  5
EA
330
2
100
AcDbEntity
  8
Visible (ISO)
100
AcDbCircle
 10
157.5786454578316
 20
55.75
 30
0.0
 40
0.7500000000000007
100
AcDbArc
 50
270.0
 51
357.0000000000009
  0
ELLIPSE
  5
EB
330
2
100
AcDbEntity
  8
Visible Narrow (ISO)
100
AcDbEllipse
 10
139.4213545421683
 20
55.75
 30
0.0
 11
-0.7489721510659312
 21
-0.039251967182207
 31
0.0
210
0.0
220
0.0
230
0.9999999999999998
 40
0.0522644276890095
 41
0.0
 42
1.568057271054091
  0
ARC
  5
EC
330
2
100
AcDbEntity
  8
Visible (ISO)
100
AcDbCircle
 10
139.4213545421683
 20
55.75
 30
0.0
 40
0.7500000000000006
100
AcDbArc
 50
182.9999999999989
 51
270.0
  0
LINE
  5
ED
330
2
100
AcDbEntity
  8
Visible Narrow (ISO)
100
AcDbLine
 10
139.4213545421683
 20
55.71074803281755
 30
0.0
 11
139.4213545421683
 21
55.0
 31
0.0
  0
LINE
  5
EE
330
2
100
AcDbEntity
  8
Visible (ISO)
100
AcDbLine
 10
138.5
 20
58.99999999999995
 30
0.0
 11
139.2489721510659
 21
58.99999999999971
 31
0.0
  0
LINE
  5
EF
330
2
100
AcDbEntity
  8
Visible (ISO)
100
AcDbLine
 10
138.5
 20
58.99999999999995
 30
0.0
 11
138.6723823911024
 21
55.71074803281778
 31
0.0
  0
LINE
  5
F0
330
2
100
AcDbEntity
  8
Visible Narrow (ISO)
100
AcDbLine
 10
139.4213545421683
 20
55.71074803281755
 30
0.0
 11
139.2489721510659
 21
58.99999999999971
 31
0.0
  0
LINE
  5
F1
330
2
100
AcDbEntity
  8
Visible Narrow (ISO)
100
AcDbLine
 10
157.5786454578316
 20
55.71074803281755
 30
0.0
 11
139.4213545421683
 21
55.71074803281755
 31
0.0
  0
LINE
  5
F2
330
2
100
AcDbEntity
  8
Visible (ISO)
100
AcDbLine
 10
139.4213545421683
 20
55.0
 30
0.0
 11
157.5786454578316
 21
55.0
 31
0.0
  0
LINE
  5
F3
330
2
100
AcDbEntity
  8
Visible (ISO)
100
AcDbLine
 10
157.7510278489341
 20
58.99999999999971
 30
0.0
 11
158.5
 21
58.99999999999995
 31
0.0
  0
LINE
  5
F4
330
2
100
AcDbEntity
  8
Visible Narrow (ISO)
100
AcDbLine
 10
157.7510278489341
 20
58.99999999999971
 30
0.0
 11
157.5786454578316
 21
55.71074803281755
 31
0.0
  0
LINE
  5
F5
330
2
100
AcDbEntity
  8
Visible (ISO)
100
AcDbLine
 10
158.3276176088976
 20
55.71074803281778
 30
0.0
 11
158.5
 21
58.99999999999995
 31
0.0
  0
LINE
  5
F6
330
2
100
AcDbEntity
  8
Visible (ISO)
100
AcDbLine
 10
139.2489721510659
 20
58.99999999999971
 30
0.0
 11
157.7510278489341
 21
58.99999999999971
 31
0.0
  0
LINE
  5
F7
330
2
100
AcDbEntity
  8
Visible (ISO)
100
AcDbLine
 10
137.5
 20
59.00000000000108
 30
0.0
 11
138.5
 21
59.00000000000057
 31
0.0
  0
LINE
  5
F8
330
2
100
AcDbEntity
  8
Visible (ISO)
100
AcDbLine
 10
158.5
 20
59.00000000000057
 30
0.0
 11
159.5
 21
59.00000000000108
 31
0.0
  0
LINE
  5
F9
330
2
100
AcDbEntity
  8
Visible (ISO)
100
AcDbLine
 10
159.5
 20
56.80000000000103
 30
0.0
 11
159.5
 21
59.00000000000108
 31
0.0
  0
LINE
  5
FA
330
2
100
AcDbEntity
  8
Visible (ISO)
100
AcDbLine
 10
137.5
 20
56.80000000000103
 30
0.0
 11
137.5
 21
59.00000000000108
 31
0.0
  0
LINE
  5
FB
330
2
100
AcDbEntity
  8
Visible (ISO)
100
AcDbLine
 10
138.0334553230532
 20
56.80000000000063
 30
0.0
 11
137.5890456021874
 21
56.80000000000086
 31
0.0
  0
LINE
  5
FC
330
2
100
AcDbEntity
  8
Visible (ISO)
100
AcDbLine
 10
159.4109543978125
 20
56.80000000000086
 30
0.0
 11
158.9665446769468
 21
56.80000000000063
 31
0.0
  0
POLYLINE
  5
FD
330
2
100
AcDbEntity
  8
Visible (ISO)
100
AcDb2dPolyline
 66
     1
 10
0.0
 20
0.0
 30
0.0
 70
   128
  0
VERTEX
  5
FE
330
FD
100
AcDbEntity
  8
Visible (ISO)
100
AcDbVertex
100
AcDb2dVertex
 10
138.3741669803858
 20
55.50000004768418
 30
0.0
  0
VERTEX
  5
FF
330
FD
100
AcDbEntity
  8
Visible (ISO)
100
AcDbVertex
100
AcDb2dVertex
 10
138.3767713931886
 20
55.4735892295842
 30
0.0
  0
VERTEX
  5
100
330
FD
100
AcDbEntity
  8
Visible (ISO)
100
AcDbVertex
100
AcDb2dVertex
 10
138.3839254984283
 20
55.44697858691262
 30
0.0
  0
VERTEX
  5
101
330
FD
100
AcDbEntity
  8
Visible (ISO)
100
AcDbVertex
100
AcDb2dVertex
 10
138.3946406699752
 20
55.42256273627327
 30
0.0
  0
VERTEX
  5
102
330
FD
100
AcDbEntity
  8
Visible (ISO)
100
AcDbVertex
100
AcDb2dVertex
 10
138.4087874213392
 20
55.40042765736626
 30
0.0
  0
VERTEX
  5
103
330
FD
100
AcDbEntity
  8
Visible (ISO)
100
AcDbVertex
100
AcDb2dVertex
 10
138.4262319184398
 20
55.37926204800652
 30
0.0
  0
VERTEX
  5
104
330
FD
100
AcDbEntity
  8
Visible (ISO)
100
AcDbVertex
100
AcDb2dVertex
 10
138.4458172080201
 20
55.35973705649422
 30
0.0
  0
VERTEX
  5
105
330
FD
100
AcDbEntity
  8
Visible (ISO)
100
AcDbVertex
100
AcDb2dVertex
 10
138.4663855667687
 20
55.34252621531533
 30
0.0
  0
VERTEX
  5
106
330
FD
100
AcDbEntity
  8
Visible (ISO)
100
AcDbVertex
100
AcDb2dVertex
 10
138.4875665762281
 20
55.32763429284142
 30
0.0
  0
VERTEX
  5
107
330
FD
100
AcDbEntity
  8
Visible (ISO)
100
AcDbVertex
100
AcDb2dVertex
 10
138.5104895686007
 20
55.31377874612855
 30
0.0
  0
VERTEX
  5
108
330
FD
100
AcDbEntity
  8
Visible (ISO)
100
AcDbVertex
100
AcDb2dVertex
 10
138.5347787838416
 20
55.30094065070199
 30
0.0
  0
VERTEX
  5
109
330
FD
100
AcDbEntity
  8
Visible (ISO)
100
AcDbVertex
100
AcDb2dVertex
 10
138.5599776586742
 20
55.28916932940529
 30
0.0
  0
VERTEX
  5
10A
330
FD
100
AcDbEntity
  8
Visible (ISO)
100
AcDbVertex
100
AcDb2dVertex
 10
138.585629720459
 20
55.27851410508202
 30
0.0
  0
VERTEX
  5
10B
330
FD
100
AcDbEntity
  8
Visible (ISO)
100
AcDbVertex
100
AcDb2dVertex
 10
138.6112783817232
 20
55.26902430057572
 30
0.0
  0
VERTEX
  5
10C
330
FD
100
AcDbEntity
  8
Visible (ISO)
100
AcDbVertex
100
AcDb2dVertex
 10
138.6364670288809
 20
55.26074938774155
 30
0.0
  0
VERTEX
  5
10D
330
FD
100
AcDbEntity
  8
Visible (ISO)
100
AcDbVertex
100
AcDb2dVertex
 10
138.6610866671125
 20
55.25358222723053
 30
0.0
  0
VERTEX
  5
10E
330
FD
100
AcDbEntity
  8
Visible (ISO)
100
AcDbVertex
100
AcDb2dVertex
 10
138.6860298992642
 20
55.24702094793366
 30
0.0
  0
VERTEX
  5
10F
330
FD
100
AcDbEntity
  8
Visible (ISO)
100
AcDbVertex
100
AcDb2dVertex
 10
138.7113531384582
 20
55.2410028159623
 30
0.0
  0
VERTEX
  5
110
330
FD
100
AcDbEntity
  8
Visible (ISO)
100
AcDbVertex
100
AcDb2dVertex
 10
138.7370293019111
 20
55.23550503253983
 30
0.0
  0
VERTEX
  5
111
330
FD
100
AcDbEntity
  8
Visible (ISO)
100
AcDbVertex
100
AcDb2dVertex
 10
138.7630315042441
 20
55.2305045008664
 30
0.0
  0
VERTEX
  5
112
330
FD
100
AcDbEntity
  8
Visible (ISO)
100
AcDbVertex
100
AcDb2dVertex
 10
138.7893327533109
 20
55.22597827315377
 30
0.0
  0
VERTEX
  5
113
330
FD
100
AcDbEntity
  8
Visible (ISO)
100
AcDbVertex
100
AcDb2dVertex
 10
138.8159061898456
 20
55.2219034016137
 30
0.0
  0
VERTEX
  5
114
330
FD
100
AcDbEntity
  8
Visible (ISO)
100
AcDbVertex
100
AcDb2dVertex
 10
138.8427247633266
 20
55.21825693845795
 30
0.0
  0
VERTEX
  5
115
330
FD
100
AcDbEntity
  8
Visible (ISO)
100
AcDbVertex
100
AcDb2dVertex
 10
138.8697616467503
 20
55.2150160849099
 30
0.0
  0
VERTEX
  5
116
330
FD
100
AcDbEntity
  8
Visible (ISO)
100
AcDbVertex
100
AcDb2dVertex
 10
138.8969897573333
 20
55.21215759515809
 30
0.0
  0
SEQEND
  5
117
330
FD
100
AcDbEntity
  8
Visible (ISO)
  0
POLYLINE
  5
118
330
2
100
AcDbEntity
  8
Visible (ISO)
100
AcDb2dPolyline
 66
     1
 10
0.0
 20
0.0
 30
0.0
 70
   128
  0
VERTEX
  5
119
330
118
100
AcDbEntity
  8
Visible (ISO)
100
AcDbVertex
100
AcDb2dVertex
 10
137.8515629037798
 20
55.20000003576353
 30
0.0
  0
VERTEX
  5
11A
330
118
100
AcDbEntity
  8
Visible (ISO)
100
AcDbVertex
100
AcDb2dVertex
 10
137.8747841651117
 20
55.19989185333327
 30
0.0
  0
VERTEX
  5
11B
330
118
100
AcDbEntity
  8
Visible (ISO)
100
AcDbVertex
100
AcDb2dVertex
 10
137.8984972047271
 20
55.1996564149864
 30
0.0
  0
VERTEX
  5
11C
330
118
100
AcDbEntity
  8
Visible (ISO)
100
AcDbVertex
100
AcDb2dVertex
 10
137.9226235755907
 20
55.1994273841388
 30
0.0
  0
VERTEX
  5
11D
330
118
100
AcDbEntity
  8
Visible (ISO)
100
AcDbVertex
100
AcDb2dVertex
 10
137.9470847116013
 20
55.19933827519486
 30
0.0
  0
VERTEX
  5
11E
330
118
100
AcDbEntity
  8
Visible (ISO)
100
AcDbVertex
100
AcDb2dVertex
 10
137.9718023247168
 20
55.19952304959367
 30
0.0
  0
VERTEX
  5
11F
330
118
100
AcDbEntity
  8
Visible (ISO)
100
AcDbVertex
100
AcDb2dVertex
 10
137.9966979133601
 20
55.2001150727279
 30
0.0
  0
VERTEX
  5
120
330
118
100
AcDbEntity
  8
Visible (ISO)
100
AcDbVertex
100
AcDb2dVertex
 10
138.0216929982335
 20
55.20124800801347
 30
0.0
  0
VERTEX
  5
121
330
118
100
AcDbEntity
  8
Visible (ISO)
100
AcDbVertex
100
AcDb2dVertex
 10
138.0467092690152
 20
55.20305566787783
 30
0.0
  0
VERTEX
  5
122
330
118
100
AcDbEntity
  8
Visible (ISO)
100
AcDbVertex
100
AcDb2dVertex
 10
138.0716681073783
 20
55.20567171573702
 30
0.0
  0
VERTEX
  5
123
330
118
100
AcDbEntity
  8
Visible (ISO)
100
AcDbVertex
100
AcDb2dVertex
 10
138.0964911507748
 20
55.20922966599528
 30
0.0
  0
VERTEX
  5
124
330
118
100
AcDbEntity
  8
Visible (ISO)
100
AcDbVertex
100
AcDb2dVertex
 10
138.1210999398713
 20
55.2138631820685
 30
0.0
  0
VERTEX
  5
125
330
118
100
AcDbEntity
  8
Visible (ISO)
100
AcDbVertex
100
AcDb2dVertex
 10
138.1454160376144
 20
55.21970607638417
 30
0.0
  0
VERTEX
  5
126
330
118
100
AcDbEntity
  8
Visible (ISO)
100
AcDbVertex
100
AcDb2dVertex
 10
138.1693610491942
 20
55.22689171433507
 30
0.0
  0
VERTEX
  5
127
330
118
100
AcDbEntity
  8
Visible (ISO)
100
AcDbVertex
100
AcDb2dVertex
 10
138.1928565052955
 20
55.23555405736027
 30
0.0
  0
VERTEX
  5
128
330
118
100
AcDbEntity
  8
Visible (ISO)
100
AcDbVertex
100
AcDb2dVertex
 10
138.2158238882096
 20
55.24582647085248
 30
0.0
  0
VERTEX
  5
129
330
118
100
AcDbEntity
  8
Visible (ISO)
100
AcDbVertex
100
AcDb2dVertex
 10
138.2381848515202
 20
55.25784291625081
 30
0.0
  0
VERTEX
  5
12A
330
118
100
AcDbEntity
  8
Visible (ISO)
100
AcDbVertex
100
AcDb2dVertex
 10
138.2608100480705
 20
55.27273841500335
 30
0.0
  0
VERTEX
  5
12B
330
118
100
AcDbEntity
  8
Visible (ISO)
100
AcDbVertex
100
AcDb2dVertex
 10
138.2838781155583
 20
55.29150002002769
 30
0.0
  0
VERTEX
  5
12C
330
118
100
AcDbEntity
  8
Visible (ISO)
100
AcDbVertex
100
AcDb2dVertex
 10
138.3060609520133
 20
55.31384118199401
 30
0.0
  0
VERTEX
  5
12D
330
118
100
AcDbEntity
  8
Visible (ISO)
100
AcDbVertex
100
AcDb2dVertex
 10
138.3260313131235
 20
55.33947788476996
 30
0.0
  0
VERTEX
  5
12E
330
118
100
AcDbEntity
  8
Visible (ISO)
100
AcDbVertex
100
AcDb2dVertex
 10
138.3443407285029
 20
55.3712727904325
 30
0.0
  0
VERTEX
  5
12F
330
118
100
AcDbEntity
  8
Visible (ISO)
100
AcDbVertex
100
AcDb2dVertex
 10
138.3599298513111
 20
55.40924378037499
 30
0.0
  0
VERTEX
  5
130
330
118
100
AcDbEntity
  8
Visible (ISO)
100
AcDbVertex
100
AcDb2dVertex
 10
138.3701653045267
 20
55.45222632885026
 30
0.0
  0
VERTEX
  5
131
330
118
100
AcDbEntity
  8
Visible (ISO)
100
AcDbVertex
100
AcDb2dVertex
 10
138.3741669803858
 20
55.50000004768418
 30
0.0
  0
SEQEND
  5
132
330
118
100
AcDbEntity
  8
Visible (ISO)
  0
LINE
  5
133
330
2
100
AcDbEntity
  8
Visible (ISO)
100
AcDbLine
 10
137.8515628989653
 20
55.20000000000078
 30
0.0
 11
138.911452590809
 21
55.2000000000005
 31
0.0
  0
POLYLINE
  5
134
330
2
100
AcDbEntity
  8
Visible (ISO)
100
AcDb2dPolyline
 66
     1
 10
0.0
 20
0.0
 30
0.0
 70
   128
  0
VERTEX
  5
135
330
134
100
AcDbEntity
  8
Visible (ISO)
100
AcDbVertex
100
AcDb2dVertex
 10
137.2483340147562
 20
55.50000004768481
 30
0.0
  0
VERTEX
  5
136
330
134
100
AcDbEntity
  8
Visible (ISO)
100
AcDbVertex
100
AcDb2dVertex
 10
137.2523356926317
 20
55.45222632885082
 30
0.0
  0
VERTEX
  5
137
330
134
100
AcDbEntity
  8
Visible (ISO)
100
AcDbVertex
100
AcDb2dVertex
 10
137.2625710803651
 20
55.40924378037556
 30
0.0
  0
VERTEX
  5
138
330
134
100
AcDbEntity
  8
Visible (ISO)
100
AcDbVertex
100
AcDb2dVertex
 10
137.2781601043711
 20
55.37127279043301
 30
0.0
  0
VERTEX
  5
139
330
134
100
AcDbEntity
  8
Visible (ISO)
100
AcDbVertex
100
AcDb2dVertex
 10
137.2964696094291
 20
55.33947788477047
 30
0.0
  0
VERTEX
  5
13A
330
134
100
AcDbEntity
  8
Visible (ISO)
100
AcDbVertex
100
AcDb2dVertex
 10
137.3164399413518
 20
55.31384118199452
 30
0.0
  0
VERTEX
  5
13B
330
134
100
AcDbEntity
  8
Visible (ISO)
100
AcDbVertex
100
AcDb2dVertex
 10
137.3386228261998
 20
55.29150002002819
 30
0.0
  0
VERTEX
  5
13C
330
134
100
AcDbEntity
  8
Visible (ISO)
100
AcDbVertex
100
AcDb2dVertex
 10
137.3616909198004
 20
55.27273841500385
 30
0.0
  0
VERTEX
  5
13D
330
134
100
AcDbEntity
  8
Visible (ISO)
100
AcDbVertex
100
AcDb2dVertex
 10
137.3843161063689
 20
55.25784291625121
 30
0.0
  0
VERTEX
  5
13E
330
134
100
AcDbEntity
  8
Visible (ISO)
100
AcDbVertex
100
AcDb2dVertex
 10
137.4066769567625
 20
55.24582647085288
 30
0.0
  0
VERTEX
  5
13F
330
134
100
AcDbEntity
  8
Visible (ISO)
100
AcDbVertex
100
AcDb2dVertex
 10
137.4296443558077
 20
55.23555405736067
 30
0.0
  0
VERTEX
  5
140
330
134
100
AcDbEntity
  8
Visible (ISO)
100
AcDbVertex
100
AcDb2dVertex
 10
137.4531398764329
 20
55.22689171433547
 30
0.0
  0
VERTEX
  5
141
330
134
100
AcDbEntity
  8
Visible (ISO)
100
AcDbVertex
100
AcDb2dVertex
 10
137.4770848880128
 20
55.21970607638451
 30
0.0
  0
VERTEX
  5
142
330
134
100
AcDbEntity
  8
Visible (ISO)
100
AcDbVertex
100
AcDb2dVertex
 10
137.5014008889699
 20
55.21386318206879
 30
0.0
  0
VERTEX
  5
143
330
134
100
AcDbEntity
  8
Visible (ISO)
100
AcDbVertex
100
AcDb2dVertex
 10
137.5260097103284
 20
55.20922966599556
 30
0.0
  0
VERTEX
  5
144
330
134
100
AcDbEntity
  8
Visible (ISO)
100
AcDbVertex
100
AcDb2dVertex
 10
137.5508327959688
 20
55.20567171573731
 30
0.0
  0
VERTEX
  5
145
330
134
100
AcDbEntity
  8
Visible (ISO)
100
AcDbVertex
100
AcDb2dVertex
 10
137.5757916988557
 20
55.20305566787811
 30
0.0
  0
VERTEX
  5
146
330
134
100
AcDbEntity
  8
Visible (ISO)
100
AcDbVertex
100
AcDb2dVertex
 10
137.6008078628697
 20
55.20124800801363
 30
0.0
  0
VERTEX
  5
147
330
134
100
AcDbEntity
  8
Visible (ISO)
100
AcDbVertex
100
AcDb2dVertex
 10
137.625802989987
 20
55.20011507272807
 30
0.0
  0
VERTEX
  5
148
330
134
100
AcDbEntity
  8
Visible (ISO)
100
AcDbVertex
100
AcDb2dVertex
 10
137.6506986331722
 20
55.19952304959383
 30
0.0
  0
VERTEX
  5
149
330
134
100
AcDbEntity
  8
Visible (ISO)
100
AcDbVertex
100
AcDb2dVertex
 10
137.6754161817638
 20
55.19933827519503
 30
0.0
  0
VERTEX
  5
14A
330
134
100
AcDbEntity
  8
Visible (ISO)
100
AcDbVertex
100
AcDb2dVertex
 10
137.6998773922802
 20
55.19942738413892
 30
0.0
  0
VERTEX
  5
14B
330
134
100
AcDbEntity
  8
Visible (ISO)
100
AcDbVertex
100
AcDb2dVertex
 10
137.7240037631439
 20
55.19965641498647
 30
0.0
  0
VERTEX
  5
14C
330
134
100
AcDbEntity
  8
Visible (ISO)
100
AcDbVertex
100
AcDb2dVertex
 10
137.7477167282535
 20
55.19989185333333
 30
0.0
  0
VERTEX
  5
14D
330
134
100
AcDbEntity
  8
Visible (ISO)
100
AcDbVertex
100
AcDb2dVertex
 10
137.7709380640911
 20
55.2000000357636
 30
0.0
  0
SEQEND
  5
14E
330
134
100
AcDbEntity
  8
Visible (ISO)
  0
LINE
  5
14F
330
2
100
AcDbEntity
  8
Visible (ISO)
100
AcDbLine
 10
137.5483339501604
 20
55.20000000000107
 30
0.0
 11
137.7709380262753
 21
55.20000000000078
 31
0.0
  0
ARC
  5
150
330
2
100
AcDbEntity
  8
Visible (ISO)
100
AcDbCircle
 10
137.5483339501604
 20
55.50000000000108
 30
0.0
 40
0.3
100
AcDbArc
 50
180.0
 51
270.0
  0
LINE
  5
151
330
2
100
AcDbEntity
  8
Visible (ISO)
100
AcDbLine
 10
137.2483339501605
 20
56.80000000000109
 30
0.0
 11
137.2483339501605
 21
55.50000000000108
 31
0.0
  0
LINE
  5
152
330
2
100
AcDbEntity
  8
Visible (ISO)
100
AcDbLine
 10
137.7709380262753
 20
55.20000000000078
 30
0.0
 11
137.8515628989653
 21
55.20000000000078
 31
0.0
  0
LINE
  5
153
330
2
100
AcDbEntity
  8
Visible (ISO)
100
AcDbLine
 10
138.3741669750802
 20
56.80000000000046
 30
0.0
 11
138.3741669750802
 21
55.50000000000051
 31
0.0
  0
LINE
  5
154
330
2
100
AcDbEntity
  8
Visible (ISO)
100
AcDbLine
 10
138.3741669750802
 20
56.80000000000046
 30
0.0
 11
138.0334553230532
 21
56.80000000000063
 31
0.0
  0
LINE
  5
155
330
2
100
AcDbEntity
  8
Visible (ISO)
100
AcDbLine
 10
137.5890456021874
 20
56.80000000000092
 30
0.0
 11
137.2483339501605
 21
56.80000000000109
 31
0.0
  0
LINE
  5
156
330
2
100
AcDbEntity
  8
Visible (ISO)
100
AcDbLine
 10
138.6152971144227
 20
56.80000000000046
 30
0.0
 11
138.3741669750802
 21
56.80000000000046
 31
0.0
  0
POLYLINE
  5
157
330
2
100
AcDbEntity
  8
Visible (ISO)
100
AcDb2dPolyline
 66
     1
 10
0.0
 20
0.0
 30
0.0
 70
   128
  0
VERTEX
  5
158
330
157
100
AcDbEntity
  8
Visible (ISO)
100
AcDbVertex
100
AcDb2dVertex
 10
158.6258329656295
 20
55.50000004768418
 30
0.0
  0
VERTEX
  5
159
330
157
100
AcDbEntity
  8
Visible (ISO)
100
AcDbVertex
100
AcDb2dVertex
 10
158.6298346352152
 20
55.45222632885026
 30
0.0
  0
VERTEX
  5
15A
330
157
100
AcDbEntity
  8
Visible (ISO)
100
AcDbVertex
100
AcDb2dVertex
 10
158.6400700565748
 20
55.40924378037499
 30
0.0
  0
VERTEX
  5
15B
330
157
100
AcDbEntity
  8
Visible (ISO)
100
AcDbVertex
100
AcDb2dVertex
 10
158.655659204381
 20
55.3712727904325
 30
0.0
  0
VERTEX
  5
15C
330
157
100
AcDbEntity
  8
Visible (ISO)
100
AcDbVertex
100
AcDb2dVertex
 10
158.6739686336689
 20
55.33947788476996
 30
0.0
  0
VERTEX
  5
15D
330
157
100
AcDbEntity
  8
Visible (ISO)
100
AcDbVertex
100
AcDb2dVertex
 10
158.6939389463834
 20
55.31384118199401
 30
0.0
  0
VERTEX
  5
15E
330
157
100
AcDbEntity
  8
Visible (ISO)
100
AcDbVertex
100
AcDb2dVertex
 10
158.716121820765
 20
55.29150002002769
 30
0.0
  0
VERTEX
  5
15F
330
157
100
AcDbEntity
  8
Visible (ISO)
100
AcDbVertex
100
AcDb2dVertex
 10
158.7391898986273
 20
55.27273841500335
 30
0.0
  0
VERTEX
  5
160
330
157
100
AcDbEntity
  8
Visible (ISO)
100
AcDbVertex
100
AcDb2dVertex
 10
158.7618150767259
 20
55.25784291625081
 30
0.0
  0
VERTEX
  5
161
330
157
100
AcDbEntity
  8
Visible (ISO)
100
AcDbVertex
100
AcDb2dVertex
 10
158.7841760199837
 20
55.24582647085248
 30
0.0
  0
VERTEX
  5
162
330
157
100
AcDbEntity
  8
Visible (ISO)
100
AcDbVertex
100
AcDb2dVertex
 10
158.8071434405021
 20
55.23555405736027
 30
0.0
  0
VERTEX
  5
163
330
157
100
AcDbEntity
  8
Visible (ISO)
100
AcDbVertex
100
AcDb2dVertex
 10
158.8306388836674
 20
55.22689171433507
 30
0.0
  0
VERTEX
  5
164
330
157
100
AcDbEntity
  8
Visible (ISO)
100
AcDbVertex
100
AcDb2dVertex
 10
158.8545838576131
 20
55.21970607638417
 30
0.0
  0
VERTEX
  5
165
330
157
100
AcDbEntity
  8
Visible (ISO)
100
AcDbVertex
100
AcDb2dVertex
 10
158.8789000008576
 20
55.2138631820685
 30
0.0
  0
VERTEX
  5
166
330
157
100
AcDbEntity
  8
Visible (ISO)
100
AcDbVertex
100
AcDb2dVertex
 10
158.9035088029079
 20
55.20922966599528
 30
0.0
  0
VERTEX
  5
167
330
157
100
AcDbEntity
  8
Visible (ISO)
100
AcDbVertex
100
AcDb2dVertex
 10
158.9283318464033
 20
55.20567171573702
 30
0.0
  0
VERTEX
  5
168
330
157
100
AcDbEntity
  8
Visible (ISO)
100
AcDbVertex
100
AcDb2dVertex
 10
158.9532906953566
 20
55.20305566787783
 30
0.0
  0
VERTEX
  5
169
330
157
100
AcDbEntity
  8
Visible (ISO)
100
AcDbVertex
100
AcDb2dVertex
 10
158.978306895154
 20
55.20124800801347
 30
0.0
  0
VERTEX
  5
16A
330
157
100
AcDbEntity
  8
Visible (ISO)
100
AcDbVertex
100
AcDb2dVertex
 10
159.0033020098083
 20
55.2001150727279
 30
0.0
  0
VERTEX
  5
16B
330
157
100
AcDbEntity
  8
Visible (ISO)
100
AcDbVertex
100
AcDb2dVertex
 10
159.0281976033322
 20
55.19952304959367
 30
0.0
  0
VERTEX
  5
16C
330
157
100
AcDbEntity
  8
Visible (ISO)
100
AcDbVertex
100
AcDb2dVertex
 10
159.0529152024858
 20
55.19933827519486
 30
0.0
  0
VERTEX
  5
16D
330
157
100
AcDbEntity
  8
Visible (ISO)
100
AcDbVertex
100
AcDb2dVertex
 10
159.0773763992213
 20
55.1994273841388
 30
0.0
  0
VERTEX
  5
16E
330
157
100
AcDbEntity
  8
Visible (ISO)
100
AcDbVertex
100
AcDb2dVertex
 10
159.1015027296118
 20
55.1996564149864
 30
0.0
  0
VERTEX
  5
16F
330
157
100
AcDbEntity
  8
Visible (ISO)
100
AcDbVertex
100
AcDb2dVertex
 10
159.1252157576702
 20
55.19989185333327
 30
0.0
  0
VERTEX
  5
170
330
157
100
AcDbEntity
  8
Visible (ISO)
100
AcDbVertex
100
AcDb2dVertex
 10
159.148437038096
 20
55.20000003576353
 30
0.0
  0
SEQEND
  5
171
330
157
100
AcDbEntity
  8
Visible (ISO)
  0
POLYLINE
  5
172
330
2
100
AcDbEntity
  8
Visible (ISO)
100
AcDb2dPolyline
 66
     1
 10
0.0
 20
0.0
 30
0.0
 70
   128
  0
VERTEX
  5
173
330
172
100
AcDbEntity
  8
Visible (ISO)
100
AcDbVertex
100
AcDb2dVertex
 10
158.103010215953
 20
55.21215759515809
 30
0.0
  0
VERTEX
  5
174
330
172
100
AcDbEntity
  8
Visible (ISO)
100
AcDbVertex
100
AcDb2dVertex
 10
158.1302383365179
 20
55.2150160849099
 30
0.0
  0
VERTEX
  5
175
330
172
100
AcDbEntity
  8
Visible (ISO)
100
AcDbVertex
100
AcDb2dVertex
 10
158.1572751776978
 20
55.21825693845795
 30
0.0
  0
VERTEX
  5
176
330
172
100
AcDbEntity
  8
Visible (ISO)
100
AcDbVertex
100
AcDb2dVertex
 10
158.1840937934227
 20
55.2219034016137
 30
0.0
  0
VERTEX
  5
177
330
172
100
AcDbEntity
  8
Visible (ISO)
100
AcDbVertex
100
AcDb2dVertex
 10
158.2106672522374
 20
55.22597827315377
 30
0.0
  0
VERTEX
  5
178
330
172
100
AcDbEntity
  8
Visible (ISO)
100
AcDbVertex
100
AcDb2dVertex
 10
158.2369684790241
 20
55.2305045008664
 30
0.0
  0
VERTEX
  5
179
330
172
100
AcDbEntity
  8
Visible (ISO)
100
AcDbVertex
100
AcDb2dVertex
 10
158.2629707458811
 20
55.23550503253983
 30
0.0
  0
VERTEX
  5
17A
330
172
100
AcDbEntity
  8
Visible (ISO)
100
AcDbVertex
100
AcDb2dVertex
 10
158.2886468832212
 20
55.2410028159623
 30
0.0
  0
VERTEX
  5
17B
330
172
100
AcDbEntity
  8
Visible (ISO)
100
AcDbVertex
100
AcDb2dVertex
 10
158.3139700740221
 20
55.24702094793366
 30
0.0
  0
VERTEX
  5
17C
330
172
100
AcDbEntity
  8
Visible (ISO)
100
AcDbVertex
100
AcDb2dVertex
 10
158.3389133322867
 20
55.25358222723053
 30
0.0
  0
VERTEX
  5
17D
330
172
100
AcDbEntity
  8
Visible (ISO)
100
AcDbVertex
100
AcDb2dVertex
 10
158.3635330673043
 20
55.26074938774155
 30
0.0
  0
VERTEX
  5
17E
330
172
100
AcDbEntity
  8
Visible (ISO)
100
AcDbVertex
100
AcDb2dVertex
 10
158.3887216288161
 20
55.26902430057572
 30
0.0
  0
VERTEX
  5
17F
330
172
100
AcDbEntity
  8
Visible (ISO)
100
AcDbVertex
100
AcDb2dVertex
 10
158.4143703012203
 20
55.27851410508202
 30
0.0
  0
VERTEX
  5
180
330
172
100
AcDbEntity
  8
Visible (ISO)
100
AcDbVertex
100
AcDb2dVertex
 10
158.4400222823502
 20
55.28916932940529
 30
0.0
  0
VERTEX
  5
181
330
172
100
AcDbEntity
  8
Visible (ISO)
100
AcDbVertex
100
AcDb2dVertex
 10
158.4652212316886
 20
55.30094065070199
 30
0.0
  0
VERTEX
  5
182
330
172
100
AcDbEntity
  8
Visible (ISO)
100
AcDbVertex
100
AcDb2dVertex
 10
158.489510438864
 20
55.31377874612855
 30
0.0
  0
VERTEX
  5
183
330
172
100
AcDbEntity
  8
Visible (ISO)
100
AcDbVertex
100
AcDb2dVertex
 10
158.5124334343111
 20
55.32763429284142
 30
0.0
  0
VERTEX
  5
184
330
172
100
AcDbEntity
  8
Visible (ISO)
100
AcDbVertex
100
AcDb2dVertex
 10
158.5336144629762
 20
55.34252621531533
 30
0.0
  0
VERTEX
  5
185
330
172
100
AcDbEntity
  8
Visible (ISO)
100
AcDbVertex
100
AcDb2dVertex
 10
158.5541828055937
 20
55.35973705649422
 30
0.0
  0
VERTEX
  5
186
330
172
100
AcDbEntity
  8
Visible (ISO)
100
AcDbVertex
100
AcDb2dVertex
 10
158.5737681404924
 20
55.37926204800652
 30
0.0
  0
VERTEX
  5
187
330
172
100
AcDbEntity
  8
Visible (ISO)
100
AcDbVertex
100
AcDb2dVertex
 10
158.5912126496913
 20
55.40042765736626
 30
0.0
  0
VERTEX
  5
188
330
172
100
AcDbEntity
  8
Visible (ISO)
100
AcDbVertex
100
AcDb2dVertex
 10
158.6053592549181
 20
55.42256273627327
 30
0.0
  0
VERTEX
  5
189
330
172
100
AcDbEntity
  8
Visible (ISO)
100
AcDbVertex
100
AcDb2dVertex
 10
158.6160745282419
 20
55.44697858691262
 30
0.0
  0
VERTEX
  5
18A
330
172
100
AcDbEntity
  8
Visible (ISO)
100
AcDbVertex
100
AcDb2dVertex
 10
158.6232285912638
 20
55.4735892295842
 30
0.0
  0
VERTEX
  5
18B
330
172
100
AcDbEntity
  8
Visible (ISO)
100
AcDbVertex
100
AcDb2dVertex
 10
158.6258329656295
 20
55.50000004768418
 30
0.0
  0
SEQEND
  5
18C
330
172
100
AcDbEntity
  8
Visible (ISO)
  0
LINE
  5
18D
330
2
100
AcDbEntity
  8
Visible (ISO)
100
AcDbLine
 10
158.0885474091909
 20
55.2000000000005
 30
0.0
 11
159.1484371010347
 21
55.20000000000078
 31
0.0
  0
POLYLINE
  5
18E
330
2
100
AcDbEntity
  8
Visible (ISO)
100
AcDb2dPolyline
 66
     1
 10
0.0
 20
0.0
 30
0.0
 70
   128
  0
VERTEX
  5
18F
330
18E
100
AcDbEntity
  8
Visible (ISO)
100
AcDbVertex
100
AcDb2dVertex
 10
159.2290619127773
 20
55.2000000357636
 30
0.0
  0
VERTEX
  5
190
330
18E
100
AcDbEntity
  8
Visible (ISO)
100
AcDbVertex
100
AcDb2dVertex
 10
159.2522831932031
 20
55.19989185333333
 30
0.0
  0
VERTEX
  5
191
330
18E
100
AcDbEntity
  8
Visible (ISO)
100
AcDbVertex
100
AcDb2dVertex
 10
159.2759962212615
 20
55.19965641498647
 30
0.0
  0
VERTEX
  5
192
330
18E
100
AcDbEntity
  8
Visible (ISO)
100
AcDbVertex
100
AcDb2dVertex
 10
159.300122551652
 20
55.19942738413892
 30
0.0
  0
VERTEX
  5
193
330
18E
100
AcDbEntity
  8
Visible (ISO)
100
AcDbVertex
100
AcDb2dVertex
 10
159.3245837483875
 20
55.19933827519503
 30
0.0
  0
VERTEX
  5
194
330
18E
100
AcDbEntity
  8
Visible (ISO)
100
AcDbVertex
100
AcDb2dVertex
 10
159.3493013475411
 20
55.19952304959383
 30
0.0
  0
VERTEX
  5
195
330
18E
100
AcDbEntity
  8
Visible (ISO)
100
AcDbVertex
100
AcDb2dVertex
 10
159.374196941065
 20
55.20011507272807
 30
0.0
  0
VERTEX
  5
196
330
18E
100
AcDbEntity
  8
Visible (ISO)
100
AcDbVertex
100
AcDb2dVertex
 10
159.3991920557193
 20
55.20124800801363
 30
0.0
  0
VERTEX
  5
197
330
18E
100
AcDbEntity
  8
Visible (ISO)
100
AcDbVertex
100
AcDb2dVertex
 10
159.4242082555167
 20
55.20305566787811
 30
0.0
  0
VERTEX
  5
198
330
18E
100
AcDbEntity
  8
Visible (ISO)
100
AcDbVertex
100
AcDb2dVertex
 10
159.44916710447
 20
55.20567171573731
 30
0.0
  0
VERTEX
  5
199
330
18E
100
AcDbEntity
  8
Visible (ISO)
100
AcDbVertex
100
AcDb2dVertex
 10
159.4739901479654
 20
55.20922966599556
 30
0.0
  0
VERTEX
  5
19A
330
18E
100
AcDbEntity
  8
Visible (ISO)
100
AcDbVertex
100
AcDb2dVertex
 10
159.4985989500157
 20
55.21386318206879
 30
0.0
  0
VERTEX
  5
19B
330
18E
100
AcDbEntity
  8
Visible (ISO)
100
AcDbVertex
100
AcDb2dVertex
 10
159.5229150932603
 20
55.21970607638451
 30
0.0
  0
VERTEX
  5
19C
330
18E
100
AcDbEntity
  8
Visible (ISO)
100
AcDbVertex
100
AcDb2dVertex
 10
159.5468600672059
 20
55.22689171433547
 30
0.0
  0
VERTEX
  5
19D
330
18E
100
AcDbEntity
  8
Visible (ISO)
100
AcDbVertex
100
AcDb2dVertex
 10
159.5703555103712
 20
55.23555405736067
 30
0.0
  0
VERTEX
  5
19E
330
18E
100
AcDbEntity
  8
Visible (ISO)
100
AcDbVertex
100
AcDb2dVertex
 10
159.5933229308896
 20
55.24582647085288
 30
0.0
  0
VERTEX
  5
19F
330
18E
100
AcDbEntity
  8
Visible (ISO)
100
AcDbVertex
100
AcDb2dVertex
 10
159.6156838741474
 20
55.25784291625121
 30
0.0
  0
VERTEX
  5
1A0
330
18E
100
AcDbEntity
  8
Visible (ISO)
100
AcDbVertex
100
AcDb2dVertex
 10
159.6383090522461
 20
55.27273841500385
 30
0.0
  0
VERTEX
  5
1A1
330
18E
100
AcDbEntity
  8
Visible (ISO)
100
AcDbVertex
100
AcDb2dVertex
 10
159.6613771301083
 20
55.29150002002819
 30
0.0
  0
VERTEX
  5
1A2
330
18E
100
AcDbEntity
  8
Visible (ISO)
100
AcDbVertex
100
AcDb2dVertex
 10
159.6835600044899
 20
55.31384118199452
 30
0.0
  0
VERTEX
  5
1A3
330
18E
100
AcDbEntity
  8
Visible (ISO)
100
AcDbVertex
100
AcDb2dVertex
 10
159.7035303172044
 20
55.33947788477047
 30
0.0
  0
VERTEX
  5
1A4
330
18E
100
AcDbEntity
  8
Visible (ISO)
100
AcDbVertex
100
AcDb2dVertex
 10
159.7218397464924
 20
55.37127279043301
 30
0.0
  0
VERTEX
  5
1A5
330
18E
100
AcDbEntity
  8
Visible (ISO)
100
AcDbVertex
100
AcDb2dVertex
 10
159.7374288942985
 20
55.40924378037556
 30
0.0
  0
VERTEX
  5
1A6
330
18E
100
AcDbEntity
  8
Visible (ISO)
100
AcDbVertex
100
AcDb2dVertex
 10
159.747664315658
 20
55.45222632885082
 30
0.0
  0
VERTEX
  5
1A7
330
18E
100
AcDbEntity
  8
Visible (ISO)
100
AcDbVertex
100
AcDb2dVertex
 10
159.7516659852438
 20
55.50000004768481
 30
0.0
  0
SEQEND
  5
1A8
330
18E
100
AcDbEntity
  8
Visible (ISO)
  0
LINE
  5
1A9
330
2
100
AcDbEntity
  8
Visible (ISO)
100
AcDbLine
 10
159.2290619737246
 20
55.20000000000078
 30
0.0
 11
159.4516660498395
 21
55.20000000000107
 31
0.0
  0
ARC
  5
1AA
330
2
100
AcDbEntity
  8
Visible (ISO)
100
AcDbCircle
 10
159.4516660498395
 20
55.50000000000108
 30
0.0
 40
0.2999999999999999
100
AcDbArc
 50
270.0
 51
0.0
  0
LINE
  5
1AB
330
2
100
AcDbEntity
  8
Visible (ISO)
100
AcDbLine
 10
159.7516660498395
 20
56.80000000000109
 30
0.0
 11
159.7516660498395
 21
55.50000000000108
 31
0.0
  0
LINE
  5
1AC
330
2
100
AcDbEntity
  8
Visible (ISO)
100
AcDbLine
 10
159.7516660498395
 20
56.80000000000109
 30
0.0
 11
159.4109543978125
 21
56.80000000000092
 31
0.0
  0
LINE
  5
1AD
330
2
100
AcDbEntity
  8
Visible (ISO)
100
AcDbLine
 10
158.9665446769468
 20
56.80000000000063
 30
0.0
 11
158.6258330249197
 21
56.80000000000046
 31
0.0
  0
LINE
  5
1AE
330
2
100
AcDbEntity
  8
Visible (ISO)
100
AcDbLine
 10
158.6258330249197
 20
56.80000000000046
 30
0.0
 11
158.6258330249197
 21
55.50000000000051
 31
0.0
  0
LINE
  5
1AF
330
2
100
AcDbEntity
  8
Visible (ISO)
100
AcDbLine
 10
159.1484371010347
 20
55.20000000000078
 30
0.0
 11
159.2290619737246
 21
55.20000000000078
 31
0.0
  0
LINE
  5
1B0
330
2
100
AcDbEntity
  8
Visible (ISO)
100
AcDbLine
 10
158.6258330249197
 20
56.80000000000046
 30
0.0
 11
158.3847028855773
 21
56.80000000000046
 31
0.0
  0
LINE
  5
1B1
330
2
100
AcDbEntity
  8
Visible (ISO)
100
AcDbLine
 10
137.5
 20
153.2000000000002
 30
0.0
 11
159.5
 21
153.2000000000002
 31
0.0
  0
LINE
  5
1B2
330
2
100
AcDbEntity
  8
Visible (ISO)
100
AcDbLine
 10
138.6723823911024
 20
154.2892519671822
 30
0.0
 11
138.6152971144227
 21
153.2
 31
0.0
  0
LINE
  5
1B3
330
2
100
AcDbEntity
  8
Visible Narrow (ISO)
100
AcDbLine
 10
139.3642692654886
 20
153.2000000000002
 30
0.0
 11
139.4213545421683
 21
154.2892519671824
 31
0.0
  0
ELLIPSE
  5
1B4
330
2
100
AcDbEntity
  8
Visible Narrow (ISO)
100
AcDbEllipse
 10
139.4213545421683
 20
154.25
 30
0.0
 11
-0.748972151065932
 21
0.0392519671822075
 31
0.0
210
0.0
220
0.0
230
1.0
 40
0.0522644276890087
 41
4.715128036120029
 42
6.283185307168665
  0
LINE
  5
1B5
330
2
100
AcDbEntity
  8
Visible Narrow (ISO)
100
AcDbLine
 10
157.5786454578316
 20
154.2892519671824
 30
0.0
 11
157.6357307345114
 21
153.2000000000002
 31
0.0
  0
LINE
  5
1B6
330
2
100
AcDbEntity
  8
Visible Narrow (ISO)
100
AcDbLine
 10
139.4213545421683
 20
154.2892519671824
 30
0.0
 11
157.5786454578316
 21
154.2892519671824
 31
0.0
  0
ARC
  5
1B7
330
2
100
AcDbEntity
  8
Visible (ISO)
100
AcDbCircle
 10
157.5786454578316
 20
154.25
 30
0.0
 40
0.7500000000000006
100
AcDbArc
 50
2.999999999998873
 51
90.0
  0
LINE
  5
1B8
330
2
100
AcDbEntity
  8
Visible Narrow (ISO)
100
AcDbLine
 10
157.5786454578316
 20
154.2892519671824
 30
0.0
 11
157.5786454578316
 21
155.0
 31
0.0
  0
ELLIPSE
  5
1B9
330
2
100
AcDbEntity
  8
Visible Narrow (ISO)
100
AcDbEllipse
 10
157.5786454578316
 20
154.25
 30
0.0
 11
0.7489721510659312
 21
0.039251967182207
 31
0.0
210
0.0
220
0.0
230
0.9999999999999998
 40
0.0522644276890095
 41
0.0
 42
1.568057271054091
  0
ARC
  5
1BA
330
2
100
AcDbEntity
  8
Visible (ISO)
100
AcDbCircle
 10
139.4213545421683
 20
154.25
 30
0.0
 40
0.7500000000000007
100
AcDbArc
 50
90.0
 51
177.0000000000011
  0
LINE
  5
1BB
330
2
100
AcDbEntity
  8
Visible Narrow (ISO)
100
AcDbLine
 10
139.4213545421683
 20
155.0
 30
0.0
 11
139.4213545421683
 21
154.2892519671824
 31
0.0
  0
LINE
  5
1BC
330
2
100
AcDbEntity
  8
Visible (ISO)
100
AcDbLine
 10
157.5786454578316
 20
155.0
 30
0.0
 11
139.4213545421683
 21
155.0
 31
0.0
  0
LINE
  5
1BD
330
2
100
AcDbEntity
  8
Visible (ISO)
100
AcDbLine
 10
158.3847028855773
 20
153.2
 30
0.0
 11
158.3276176088976
 21
154.2892519671822
 31
0.0
  0
CIRCLE
  5
1BE
330
2
100
AcDbEntity
  8
Visible (ISO)
100
AcDbCircle
 10
139.5
 20
148.0000000000003
 30
0.0
 40
1.1
  0
CIRCLE
  5
1BF
330
2
100
AcDbEntity
  8
Visible (ISO)
100
AcDbCircle
 10
157.5
 20
148.0000000000003
 30
0.0
 40
1.1
  0
ARC
  5
1C0
330
2
100
AcDbEntity
  8
Visible (ISO)
100
AcDbCircle
 10
157.5
 20
148.0000000000003
 30
0.0
 40
1.999999999999998
100
AcDbArc
 50
270.0
 51
0.0
  0
ARC
  5
1C1
330
2
100
AcDbEntity
  8
Visible (ISO)
100
AcDbCircle
 10
139.5
 20
148.0000000000003
 30
0.0
 40
2.0
100
AcDbArc
 50
180.0
 51
270.0
  0
LINE
  5
1C2
330
2
100
AcDbEntity
  8
Visible (ISO)
100
AcDbLine
 10
139.5
 20
146.0000000000003
 30
0.0
 11
157.5
 21
146.0000000000003
 31
0.0
  0
LINE
  5
1C3
330
2
100
AcDbEntity
  8
Visible (ISO)
100
AcDbLine
 10
159.5
 20
148.0000000000003
 30
0.0
 11
159.5
 21
153.2000000000002
 31
0.0
  0
LINE
  5
1C4
330
2
100
AcDbEntity
  8
Visible (ISO)
100
AcDbLine
 10
137.5
 20
148.0000000000003
 30
0.0
 11
137.5
 21
153.2000000000002
 31
0.0
  0
POLYLINE
  5
1C5
330
2
100
AcDbEntity
  8
Visible (ISO)
100
AcDb2dPolyline
 66
     1
 10
0.0
 20
0.0
 30
0.0
 70
   128
  0
VERTEX
  5
1C6
330
1C5
100
AcDbEntity
  8
Visible (ISO)
100
AcDbVertex
100
AcDb2dVertex
 10
137.7709380872227
 20
154.7999999642364
 30
0.0
  0
VERTEX
  5
1C7
330
1C5
100
AcDbEntity
  8
Visible (ISO)
100
AcDbVertex
100
AcDb2dVertex
 10
137.7477168067969
 20
154.8001081466666
 30
0.0
  0
VERTEX
  5
1C8
330
1C5
100
AcDbEntity
  8
Visible (ISO)
100
AcDbVertex
100
AcDb2dVertex
 10
137.7240037787385
 20
154.8003435850135
 30
0.0
  0
VERTEX
  5
1C9
330
1C5
100
AcDbEntity
  8
Visible (ISO)
100
AcDbVertex
100
AcDb2dVertex
 10
137.6998774483479
 20
154.8005726158611
 30
0.0
  0
VERTEX
  5
1CA
330
1C5
100
AcDbEntity
  8
Visible (ISO)
100
AcDbVertex
100
AcDb2dVertex
 10
137.6754162516124
 20
154.800661724805
 30
0.0
  0
VERTEX
  5
1CB
330
1C5
100
AcDbEntity
  8
Visible (ISO)
100
AcDbVertex
100
AcDb2dVertex
 10
137.6506986524589
 20
154.8004769504061
 30
0.0
  0
VERTEX
  5
1CC
330
1C5
100
AcDbEntity
  8
Visible (ISO)
100
AcDbVertex
100
AcDb2dVertex
 10
137.6258030589349
 20
154.7998849272719
 30
0.0
  0
VERTEX
  5
1CD
330
1C5
100
AcDbEntity
  8
Visible (ISO)
100
AcDbVertex
100
AcDb2dVertex
 10
137.6008079442806
 20
154.7987519919863
 30
0.0
  0
VERTEX
  5
1CE
330
1C5
100
AcDbEntity
  8
Visible (ISO)
100
AcDbVertex
100
AcDb2dVertex
 10
137.5757917444832
 20
154.7969443321219
 30
0.0
  0
VERTEX
  5
1CF
330
1C5
100
AcDbEntity
  8
Visible (ISO)
100
AcDbVertex
100
AcDb2dVertex
 10
137.55083289553
 20
154.7943282842627
 30
0.0
  0
VERTEX
  5
1D0
330
1C5
100
AcDbEntity
  8
Visible (ISO)
100
AcDbVertex
100
AcDb2dVertex
 10
137.5260098520346
 20
154.7907703340044
 30
0.0
  0
VERTEX
  5
1D1
330
1C5
100
AcDbEntity
  8
Visible (ISO)
100
AcDbVertex
100
AcDb2dVertex
 10
137.5014010499842
 20
154.7861368179312
 30
0.0
  0
VERTEX
  5
1D2
330
1C5
100
AcDbEntity
  8
Visible (ISO)
100
AcDbVertex
100
AcDb2dVertex
 10
137.4770849067397
 20
154.7802939236155
 30
0.0
  0
VERTEX
  5
1D3
330
1C5
100
AcDbEntity
  8
Visible (ISO)
100
AcDbVertex
100
AcDb2dVertex
 10
137.4531399327941
 20
154.7731082856646
 30
0.0
  0
VERTEX
  5
1D4
330
1C5
100
AcDbEntity
  8
Visible (ISO)
100
AcDbVertex
100
AcDb2dVertex
 10
137.4296444896288
 20
154.7644459426393
 30
0.0
  0
VERTEX
  5
1D5
330
1C5
100
AcDbEntity
  8
Visible (ISO)
100
AcDbVertex
100
AcDb2dVertex
 10
137.4066770691104
 20
154.7541735291471
 30
0.0
  0
VERTEX
  5
1D6
330
1C5
100
AcDbEntity
  8
Visible (ISO)
100
AcDbVertex
100
AcDb2dVertex
 10
137.3843161258526
 20
154.7421570837488
 30
0.0
  0
VERTEX
  5
1D7
330
1C5
100
AcDbEntity
  8
Visible (ISO)
100
AcDbVertex
100
AcDb2dVertex
 10
137.3616909477539
 20
154.7272615849962
 30
0.0
  0
VERTEX
  5
1D8
330
1C5
100
AcDbEntity
  8
Visible (ISO)
100
AcDbVertex
100
AcDb2dVertex
 10
137.3386228698916
 20
154.7084999799718
 30
0.0
  0
VERTEX
  5
1D9
330
1C5
100
AcDbEntity
  8
Visible (ISO)
100
AcDbVertex
100
AcDb2dVertex
 10
137.3164399955101
 20
154.6861588180055
 30
0.0
  0
VERTEX
  5
1DA
330
1C5
100
AcDbEntity
  8
Visible (ISO)
100
AcDbVertex
100
AcDb2dVertex
 10
137.2964696827955
 20
154.6605221152295
 30
0.0
  0
VERTEX
  5
1DB
330
1C5
100
AcDbEntity
  8
Visible (ISO)
100
AcDbVertex
100
AcDb2dVertex
 10
137.2781602535076
 20
154.628727209567
 30
0.0
  0
VERTEX
  5
1DC
330
1C5
100
AcDbEntity
  8
Visible (ISO)
100
AcDbVertex
100
AcDb2dVertex
 10
137.2625711057014
 20
154.5907562196244
 30
0.0
  0
VERTEX
  5
1DD
330
1C5
100
AcDbEntity
  8
Visible (ISO)
100
AcDbVertex
100
AcDb2dVertex
 10
137.2523356843419
 20
154.5477736711491
 30
0.0
  0
VERTEX
  5
1DE
330
1C5
100
AcDbEntity
  8
Visible (ISO)
100
AcDbVertex
100
AcDb2dVertex
 10
137.2483340147562
 20
154.4999999523152
 30
0.0
  0
SEQEND
  5
1DF
330
1C5
100
AcDbEntity
  8
Visible (ISO)
  0
LINE
  5
1E0
330
2
100
AcDbEntity
  8
Visible (ISO)
100
AcDbLine
 10
137.7709380262753
 20
154.7999999999992
 30
0.0
 11
137.5483339501604
 21
154.7999999999989
 31
0.0
  0
POLYLINE
  5
1E1
330
2
100
AcDbEntity
  8
Visible (ISO)
100
AcDb2dPolyline
 66
     1
 10
0.0
 20
0.0
 30
0.0
 70
   128
  0
VERTEX
  5
1E2
330
1E1
100
AcDbEntity
  8
Visible (ISO)
100
AcDbVertex
100
AcDb2dVertex
 10
138.3741670343704
 20
154.4999999523158
 30
0.0
  0
VERTEX
  5
1E3
330
1E1
100
AcDbEntity
  8
Visible (ISO)
100
AcDbVertex
100
AcDb2dVertex
 10
138.3701653647847
 20
154.5477736711497
 30
0.0
  0
VERTEX
  5
1E4
330
1E1
100
AcDbEntity
  8
Visible (ISO)
100
AcDbVertex
100
AcDb2dVertex
 10
138.3599299434252
 20
154.590756219625
 30
0.0
  0
VERTEX
  5
1E5
330
1E1
100
AcDbEntity
  8
Visible (ISO)
100
AcDbVertex
100
AcDb2dVertex
 10
138.344340795619
 20
154.6287272095675
 30
0.0
  0
VERTEX
  5
1E6
330
1E1
100
AcDbEntity
  8
Visible (ISO)
100
AcDbVertex
100
AcDb2dVertex
 10
138.3260313663311
 20
154.66052211523
 30
0.0
  0
VERTEX
  5
1E7
330
1E1
100
AcDbEntity
  8
Visible (ISO)
100
AcDbVertex
100
AcDb2dVertex
 10
138.3060610536165
 20
154.686158818006
 30
0.0
  0
VERTEX
  5
1E8
330
1E1
100
AcDbEntity
  8
Visible (ISO)
100
AcDbVertex
100
AcDb2dVertex
 10
138.283878179235
 20
154.7084999799723
 30
0.0
  0
VERTEX
  5
1E9
330
1E1
100
AcDbEntity
  8
Visible (ISO)
100
AcDbVertex
100
AcDb2dVertex
 10
138.2608101013727
 20
154.7272615849966
 30
0.0
  0
VERTEX
  5
1EA
330
1E1
100
AcDbEntity
  8
Visible (ISO)
100
AcDbVertex
100
AcDb2dVertex
 10
138.238184923274
 20
154.7421570837492
 30
0.0
  0
VERTEX
  5
1EB
330
1E1
100
AcDbEntity
  8
Visible (ISO)
100
AcDbVertex
100
AcDb2dVertex
 10
138.2158239800162
 20
154.7541735291475
 30
0.0
  0
VERTEX
  5
1EC
330
1E1
100
AcDbEntity
  8
Visible (ISO)
100
AcDbVertex
100
AcDb2dVertex
 10
138.1928565594978
 20
154.7644459426397
 30
0.0
  0
VERTEX
  5
1ED
330
1E1
100
AcDbEntity
  8
Visible (ISO)
100
AcDbVertex
100
AcDb2dVertex
 10
138.1693611163325
 20
154.7731082856649
 30
0.0
  0
VERTEX
  5
1EE
330
1E1
100
AcDbEntity
  8
Visible (ISO)
100
AcDbVertex
100
AcDb2dVertex
 10
138.1454161423869
 20
154.7802939236158
 30
0.0
  0
VERTEX
  5
1EF
330
1E1
100
AcDbEntity
  8
Visible (ISO)
100
AcDbVertex
100
AcDb2dVertex
 10
138.1210999991424
 20
154.7861368179315
 30
0.0
  0
VERTEX
  5
1F0
330
1E1
100
AcDbEntity
  8
Visible (ISO)
100
AcDbVertex
100
AcDb2dVertex
 10
138.096491197092
 20
154.7907703340047
 30
0.0
  0
VERTEX
  5
1F1
330
1E1
100
AcDbEntity
  8
Visible (ISO)
100
AcDbVertex
100
AcDb2dVertex
 10
138.0716681535966
 20
154.794328284263
 30
0.0
  0
VERTEX
  5
1F2
330
1E1
100
AcDbEntity
  8
Visible (ISO)
100
AcDbVertex
100
AcDb2dVertex
 10
138.0467093046434
 20
154.7969443321221
 30
0.0
  0
VERTEX
  5
1F3
330
1E1
100
AcDbEntity
  8
Visible (ISO)
100
AcDbVertex
100
AcDb2dVertex
 10
138.021693104846
 20
154.7987519919866
 30
0.0
  0
VERTEX
  5
1F4
330
1E1
100
AcDbEntity
  8
Visible (ISO)
100
AcDbVertex
100
AcDb2dVertex
 10
137.9966979901917
 20
154.7998849272721
 30
0.0
  0
VERTEX
  5
1F5
330
1E1
100
AcDbEntity
  8
Visible (ISO)
100
AcDbVertex
100
AcDb2dVertex
 10
137.9718023966677
 20
154.8004769504063
 30
0.0
  0
VERTEX
  5
1F6
330
1E1
100
AcDbEntity
  8
Visible (ISO)
100
AcDbVertex
100
AcDb2dVertex
 10
137.9470847975142
 20
154.8006617248051
 30
0.0
  0
VERTEX
  5
1F7
330
1E1
100
AcDbEntity
  8
Visible (ISO)
100
AcDbVertex
100
AcDb2dVertex
 10
137.9226236007787
 20
154.8005726158612
 30
0.0
  0
VERTEX
  5
1F8
330
1E1
100
AcDbEntity
  8
Visible (ISO)
100
AcDbVertex
100
AcDb2dVertex
 10
137.8984972703881
 20
154.8003435850136
 30
0.0
  0
VERTEX
  5
1F9
330
1E1
100
AcDbEntity
  8
Visible (ISO)
100
AcDbVertex
100
AcDb2dVertex
 10
137.8747842423297
 20
154.8001081466667
 30
0.0
  0
VERTEX
  5
1FA
330
1E1
100
AcDbEntity
  8
Visible (ISO)
100
AcDbVertex
100
AcDb2dVertex
 10
137.8515629619039
 20
154.7999999642364
 30
0.0
  0
SEQEND
  5
1FB
330
1E1
100
AcDbEntity
  8
Visible (ISO)
  0
POLYLINE
  5
1FC
330
2
100
AcDbEntity
  8
Visible (ISO)
100
AcDb2dPolyline
 66
     1
 10
0.0
 20
0.0
 30
0.0
 70
   128
  0
VERTEX
  5
1FD
330
1FC
100
AcDbEntity
  8
Visible (ISO)
100
AcDbVertex
100
AcDb2dVertex
 10
138.896989784047
 20
154.7878424048419
 30
0.0
  0
VERTEX
  5
1FE
330
1FC
100
AcDbEntity
  8
Visible (ISO)
100
AcDbVertex
100
AcDb2dVertex
 10
138.8697616634821
 20
154.7849839150901
 30
0.0
  0
VERTEX
  5
1FF
330
1FC
100
AcDbEntity
  8
Visible (ISO)
100
AcDbVertex
100
AcDb2dVertex
 10
138.8427248223022
 20
154.781743061542
 30
0.0
  0
VERTEX
  5
200
330
1FC
100
AcDbEntity
  8
Visible (ISO)
100
AcDbVertex
100
AcDb2dVertex
 10
138.8159062065773
 20
154.7780965983863
 30
0.0
  0
VERTEX
  5
201
330
1FC
100
AcDbEntity
  8
Visible (ISO)
100
AcDbVertex
100
AcDb2dVertex
 10
138.7893327477626
 20
154.7740217268462
 30
0.0
  0
VERTEX
  5
202
330
1FC
100
AcDbEntity
  8
Visible (ISO)
100
AcDbVertex
100
AcDb2dVertex
 10
138.7630315209759
 20
154.7694954991336
 30
0.0
  0
VERTEX
  5
203
330
1FC
100
AcDbEntity
  8
Visible (ISO)
100
AcDbVertex
100
AcDb2dVertex
 10
138.7370292541188
 20
154.7644949674601
 30
0.0
  0
VERTEX
  5
204
330
1FC
100
AcDbEntity
  8
Visible (ISO)
100
AcDbVertex
100
AcDb2dVertex
 10
138.7113531167788
 20
154.7589971840377
 30
0.0
  0
VERTEX
  5
205
330
1FC
100
AcDbEntity
  8
Visible (ISO)
100
AcDbVertex
100
AcDb2dVertex
 10
138.6860299259778
 20
154.7529790520663
 30
0.0
  0
VERTEX
  5
206
330
1FC
100
AcDbEntity
  8
Visible (ISO)
100
AcDbVertex
100
AcDb2dVertex
 10
138.6610866677132
 20
154.7464177727694
 30
0.0
  0
VERTEX
  5
207
330
1FC
100
AcDbEntity
  8
Visible (ISO)
100
AcDbVertex
100
AcDb2dVertex
 10
138.6364669326957
 20
154.7392506122584
 30
0.0
  0
VERTEX
  5
208
330
1FC
100
AcDbEntity
  8
Visible (ISO)
100
AcDbVertex
100
AcDb2dVertex
 10
138.6112783711839
 20
154.7309756994243
 30
0.0
  0
VERTEX
  5
209
330
1FC
100
AcDbEntity
  8
Visible (ISO)
100
AcDbVertex
100
AcDb2dVertex
 10
138.5856296987797
 20
154.721485894918
 30
0.0
  0
VERTEX
  5
20A
330
1FC
100
AcDbEntity
  8
Visible (ISO)
100
AcDbVertex
100
AcDb2dVertex
 10
138.5599777176498
 20
154.7108306705947
 30
0.0
  0
VERTEX
  5
20B
330
1FC
100
AcDbEntity
  8
Visible (ISO)
100
AcDbVertex
100
AcDb2dVertex
 10
138.5347787683113
 20
154.699059349298
 30
0.0
  0
VERTEX
  5
20C
330
1FC
100
AcDbEntity
  8
Visible (ISO)
100
AcDbVertex
100
AcDb2dVertex
 10
138.510489561136
 20
154.6862212538714
 30
0.0
  0
VERTEX
  5
20D
330
1FC
100
AcDbEntity
  8
Visible (ISO)
100
AcDbVertex
100
AcDb2dVertex
 10
138.4875665656888
 20
154.6723657071586
 30
0.0
  0
VERTEX
  5
20E
330
1FC
100
AcDbEntity
  8
Visible (ISO)
100
AcDbVertex
100
AcDb2dVertex
 10
138.4663855370239
 20
154.6574737846846
 30
0.0
  0
VERTEX
  5
20F
330
1FC
100
AcDbEntity
  8
Visible (ISO)
100
AcDbVertex
100
AcDb2dVertex
 10
138.4458171944062
 20
154.6402629435057
 30
0.0
  0
VERTEX
  5
210
330
1FC
100
AcDbEntity
  8
Visible (ISO)
100
AcDbVertex
100
AcDb2dVertex
 10
138.4262318595075
 20
154.6207379519934
 30
0.0
  0
VERTEX
  5
211
330
1FC
100
AcDbEntity
  8
Visible (ISO)
100
AcDbVertex
100
AcDb2dVertex
 10
138.4087873503087
 20
154.5995723426337
 30
0.0
  0
VERTEX
  5
212
330
1FC
100
AcDbEntity
  8
Visible (ISO)
100
AcDbVertex
100
AcDb2dVertex
 10
138.3946407450818
 20
154.5774372637267
 30
0.0
  0
VERTEX
  5
213
330
1FC
100
AcDbEntity
  8
Visible (ISO)
100
AcDbVertex
100
AcDb2dVertex
 10
138.3839254717581
 20
154.5530214130874
 30
0.0
  0
VERTEX
  5
214
330
1FC
100
AcDbEntity
  8
Visible (ISO)
100
AcDbVertex
100
AcDb2dVertex
 10
138.3767714087362
 20
154.5264107704158
 30
0.0
  0
VERTEX
  5
215
330
1FC
100
AcDbEntity
  8
Visible (ISO)
100
AcDbVertex
100
AcDb2dVertex
 10
138.3741670343704
 20
154.4999999523158
 30
0.0
  0
SEQEND
  5
216
330
1FC
100
AcDbEntity
  8
Visible (ISO)
  0
LINE
  5
217
330
2
100
AcDbEntity
  8
Visible (ISO)
100
AcDbLine
 10
138.911452590809
 20
154.7999999999995
 30
0.0
 11
137.8515628989653
 21
154.7999999999992
 31
0.0
  0
ARC
  5
218
330
2
100
AcDbEntity
  8
Visible (ISO)
100
AcDbCircle
 10
137.5483339501604
 20
154.4999999999989
 30
0.0
 40
0.3
100
AcDbArc
 50
90.0
 51
180.0
  0
LINE
  5
219
330
2
100
AcDbEntity
  8
Visible (ISO)
100
AcDbLine
 10
138.3741669750802
 20
153.1999999999995
 30
0.0
 11
138.3741669750802
 21
154.4999999999995
 31
0.0
  0
LINE
  5
21A
330
2
100
AcDbEntity
  8
Visible (ISO)
100
AcDbLine
 10
137.8515628989653
 20
154.7999999999992
 30
0.0
 11
137.7709380262753
 21
154.7999999999992
 31
0.0
  0
LINE
  5
21B
330
2
100
AcDbEntity
  8
Visible (ISO)
100
AcDbLine
 10
137.2483339501605
 20
153.1999999999989
 30
0.0
 11
137.2483339501605
 21
154.4999999999989
 31
0.0
  0
LINE
  5
21C
330
2
100
AcDbEntity
  8
Visible (ISO)
100
AcDbLine
 10
137.2483339501605
 20
153.1999999999989
 30
0.0
 11
137.5
 21
153.1999999999991
 31
0.0
  0
POLYLINE
  5
21D
330
2
100
AcDbEntity
  8
Visible (ISO)
100
AcDb2dPolyline
 66
     1
 10
0.0
 20
0.0
 30
0.0
 70
   128
  0
VERTEX
  5
21E
330
21D
100
AcDbEntity
  8
Visible (ISO)
100
AcDbVertex
100
AcDb2dVertex
 10
158.6258330196142
 20
154.4999999523158
 30
0.0
  0
VERTEX
  5
21F
330
21D
100
AcDbEntity
  8
Visible (ISO)
100
AcDbVertex
100
AcDb2dVertex
 10
158.6232286068114
 20
154.5264107704158
 30
0.0
  0
VERTEX
  5
220
330
21D
100
AcDbEntity
  8
Visible (ISO)
100
AcDbVertex
100
AcDb2dVertex
 10
158.6160745015716
 20
154.5530214130874
 30
0.0
  0
VERTEX
  5
221
330
21D
100
AcDbEntity
  8
Visible (ISO)
100
AcDbVertex
100
AcDb2dVertex
 10
158.6053593300247
 20
154.5774372637267
 30
0.0
  0
VERTEX
  5
222
330
21D
100
AcDbEntity
  8
Visible (ISO)
100
AcDbVertex
100
AcDb2dVertex
 10
158.5912125786608
 20
154.5995723426337
 30
0.0
  0
VERTEX
  5
223
330
21D
100
AcDbEntity
  8
Visible (ISO)
100
AcDbVertex
100
AcDb2dVertex
 10
158.5737680815602
 20
154.6207379519934
 30
0.0
  0
VERTEX
  5
224
330
21D
100
AcDbEntity
  8
Visible (ISO)
100
AcDbVertex
100
AcDb2dVertex
 10
158.5541827919799
 20
154.6402629435057
 30
0.0
  0
VERTEX
  5
225
330
21D
100
AcDbEntity
  8
Visible (ISO)
100
AcDbVertex
100
AcDb2dVertex
 10
158.5336144332313
 20
154.6574737846846
 30
0.0
  0
VERTEX
  5
226
330
21D
100
AcDbEntity
  8
Visible (ISO)
100
AcDbVertex
100
AcDb2dVertex
 10
158.5124334237718
 20
154.6723657071586
 30
0.0
  0
VERTEX
  5
227
330
21D
100
AcDbEntity
  8
Visible (ISO)
100
AcDbVertex
100
AcDb2dVertex
 10
158.4895104313992
 20
154.6862212538714
 30
0.0
  0
VERTEX
  5
228
330
21D
100
AcDbEntity
  8
Visible (ISO)
100
AcDbVertex
100
AcDb2dVertex
 10
158.4652212161584
 20
154.699059349298
 30
0.0
  0
VERTEX
  5
229
330
21D
100
AcDbEntity
  8
Visible (ISO)
100
AcDbVertex
100
AcDb2dVertex
 10
158.4400223413257
 20
154.7108306705947
 30
0.0
  0
VERTEX
  5
22A
330
21D
100
AcDbEntity
  8
Visible (ISO)
100
AcDbVertex
100
AcDb2dVertex
 10
158.4143702795409
 20
154.721485894918
 30
0.0
  0
VERTEX
  5
22B
330
21D
100
AcDbEntity
  8
Visible (ISO)
100
AcDbVertex
100
AcDb2dVertex
 10
158.3887216182768
 20
154.7309756994243
 30
0.0
  0
VERTEX
  5
22C
330
21D
100
AcDbEntity
  8
Visible (ISO)
100
AcDbVertex
100
AcDb2dVertex
 10
158.3635329711191
 20
154.7392506122584
 30
0.0
  0
VERTEX
  5
22D
330
21D
100
AcDbEntity
  8
Visible (ISO)
100
AcDbVertex
100
AcDb2dVertex
 10
158.3389133328875
 20
154.7464177727694
 30
0.0
  0
VERTEX
  5
22E
330
21D
100
AcDbEntity
  8
Visible (ISO)
100
AcDbVertex
100
AcDb2dVertex
 10
158.3139701007358
 20
154.7529790520663
 30
0.0
  0
VERTEX
  5
22F
330
21D
100
AcDbEntity
  8
Visible (ISO)
100
AcDbVertex
100
AcDb2dVertex
 10
158.2886468615418
 20
154.7589971840377
 30
0.0
  0
VERTEX
  5
230
330
21D
100
AcDbEntity
  8
Visible (ISO)
100
AcDbVertex
100
AcDb2dVertex
 10
158.2629706980889
 20
154.7644949674601
 30
0.0
  0
VERTEX
  5
231
330
21D
100
AcDbEntity
  8
Visible (ISO)
100
AcDbVertex
100
AcDb2dVertex
 10
158.2369684957558
 20
154.7694954991336
 30
0.0
  0
VERTEX
  5
232
330
21D
100
AcDbEntity
  8
Visible (ISO)
100
AcDbVertex
100
AcDb2dVertex
 10
158.210667246689
 20
154.7740217268462
 30
0.0
  0
VERTEX
  5
233
330
21D
100
AcDbEntity
  8
Visible (ISO)
100
AcDbVertex
100
AcDb2dVertex
 10
158.1840938101544
 20
154.7780965983863
 30
0.0
  0
VERTEX
  5
234
330
21D
100
AcDbEntity
  8
Visible (ISO)
100
AcDbVertex
100
AcDb2dVertex
 10
158.1572752366733
 20
154.781743061542
 30
0.0
  0
VERTEX
  5
235
330
21D
100
AcDbEntity
  8
Visible (ISO)
100
AcDbVertex
100
AcDb2dVertex
 10
158.1302383532496
 20
154.7849839150901
 30
0.0
  0
VERTEX
  5
236
330
21D
100
AcDbEntity
  8
Visible (ISO)
100
AcDbVertex
100
AcDb2dVertex
 10
158.1030102426666
 20
154.7878424048419
 30
0.0
  0
SEQEND
  5
237
330
21D
100
AcDbEntity
  8
Visible (ISO)
  0
POLYLINE
  5
238
330
2
100
AcDbEntity
  8
Visible (ISO)
100
AcDb2dPolyline
 66
     1
 10
0.0
 20
0.0
 30
0.0
 70
   128
  0
VERTEX
  5
239
330
238
100
AcDbEntity
  8
Visible (ISO)
100
AcDbVertex
100
AcDb2dVertex
 10
159.1484370962201
 20
154.7999999642364
 30
0.0
  0
VERTEX
  5
23A
330
238
100
AcDbEntity
  8
Visible (ISO)
100
AcDbVertex
100
AcDb2dVertex
 10
159.1252158348883
 20
154.8001081466667
 30
0.0
  0
VERTEX
  5
23B
330
238
100
AcDbEntity
  8
Visible (ISO)
100
AcDbVertex
100
AcDb2dVertex
 10
159.1015027952729
 20
154.8003435850136
 30
0.0
  0
VERTEX
  5
23C
330
238
100
AcDbEntity
  8
Visible (ISO)
100
AcDbVertex
100
AcDb2dVertex
 10
159.0773764244093
 20
154.8005726158612
 30
0.0
  0
VERTEX
  5
23D
330
238
100
AcDbEntity
  8
Visible (ISO)
100
AcDbVertex
100
AcDb2dVertex
 10
159.0529152883987
 20
154.8006617248051
 30
0.0
  0
VERTEX
  5
23E
330
238
100
AcDbEntity
  8
Visible (ISO)
100
AcDbVertex
100
AcDb2dVertex
 10
159.0281976752831
 20
154.8004769504063
 30
0.0
  0
VERTEX
  5
23F
330
238
100
AcDbEntity
  8
Visible (ISO)
100
AcDbVertex
100
AcDb2dVertex
 10
159.00330208664
 20
154.7998849272721
 30
0.0
  0
VERTEX
  5
240
330
238
100
AcDbEntity
  8
Visible (ISO)
100
AcDbVertex
100
AcDb2dVertex
 10
158.9783070017665
 20
154.7987519919866
 30
0.0
  0
VERTEX
  5
241
330
238
100
AcDbEntity
  8
Visible (ISO)
100
AcDbVertex
100
AcDb2dVertex
 10
158.9532907309847
 20
154.7969443321221
 30
0.0
  0
VERTEX
  5
242
330
238
100
AcDbEntity
  8
Visible (ISO)
100
AcDbVertex
100
AcDb2dVertex
 10
158.9283318926217
 20
154.794328284263
 30
0.0
  0
VERTEX
  5
243
330
238
100
AcDbEntity
  8
Visible (ISO)
100
AcDbVertex
100
AcDb2dVertex
 10
158.9035088492252
 20
154.7907703340047
 30
0.0
  0
VERTEX
  5
244
330
238
100
AcDbEntity
  8
Visible (ISO)
100
AcDbVertex
100
AcDb2dVertex
 10
158.8789000601287
 20
154.7861368179315
 30
0.0
  0
VERTEX
  5
245
330
238
100
AcDbEntity
  8
Visible (ISO)
100
AcDbVertex
100
AcDb2dVertex
 10
158.8545839623856
 20
154.7802939236158
 30
0.0
  0
VERTEX
  5
246
330
238
100
AcDbEntity
  8
Visible (ISO)
100
AcDbVertex
100
AcDb2dVertex
 10
158.8306389508058
 20
154.7731082856649
 30
0.0
  0
VERTEX
  5
247
330
238
100
AcDbEntity
  8
Visible (ISO)
100
AcDbVertex
100
AcDb2dVertex
 10
158.8071434947045
 20
154.7644459426397
 30
0.0
  0
VERTEX
  5
248
330
238
100
AcDbEntity
  8
Visible (ISO)
100
AcDbVertex
100
AcDb2dVertex
 10
158.7841761117903
 20
154.7541735291475
 30
0.0
  0
VERTEX
  5
249
330
238
100
AcDbEntity
  8
Visible (ISO)
100
AcDbVertex
100
AcDb2dVertex
 10
158.7618151484798
 20
154.7421570837492
 30
0.0
  0
VERTEX
  5
24A
330
238
100
AcDbEntity
  8
Visible (ISO)
100
AcDbVertex
100
AcDb2dVertex
 10
158.7391899519294
 20
154.7272615849966
 30
0.0
  0
VERTEX
  5
24B
330
238
100
AcDbEntity
  8
Visible (ISO)
100
AcDbVertex
100
AcDb2dVertex
 10
158.7161218844417
 20
154.7084999799723
 30
0.0
  0
VERTEX
  5
24C
330
238
100
AcDbEntity
  8
Visible (ISO)
100
AcDbVertex
100
AcDb2dVertex
 10
158.6939390479867
 20
154.686158818006
 30
0.0
  0
VERTEX
  5
24D
330
238
100
AcDbEntity
  8
Visible (ISO)
100
AcDbVertex
100
AcDb2dVertex
 10
158.6739686868765
 20
154.66052211523
 30
0.0
  0
VERTEX
  5
24E
330
238
100
AcDbEntity
  8
Visible (ISO)
100
AcDbVertex
100
AcDb2dVertex
 10
158.6556592714971
 20
154.6287272095675
 30
0.0
  0
VERTEX
  5
24F
330
238
100
AcDbEntity
  8
Visible (ISO)
100
AcDbVertex
100
AcDb2dVertex
 10
158.6400701486889
 20
154.590756219625
 30
0.0
  0
VERTEX
  5
250
330
238
100
AcDbEntity
  8
Visible (ISO)
100
AcDbVertex
100
AcDb2dVertex
 10
158.6298346954733
 20
154.5477736711497
 30
0.0
  0
VERTEX
  5
251
330
238
100
AcDbEntity
  8
Visible (ISO)
100
AcDbVertex
100
AcDb2dVertex
 10
158.6258330196142
 20
154.4999999523158
 30
0.0
  0
SEQEND
  5
252
330
238
100
AcDbEntity
  8
Visible (ISO)
  0
LINE
  5
253
330
2
100
AcDbEntity
  8
Visible (ISO)
100
AcDbLine
 10
159.1484371010347
 20
154.7999999999992
 30
0.0
 11
158.0885474091909
 21
154.7999999999995
 31
0.0
  0
LINE
  5
254
330
2
100
AcDbEntity
  8
Visible (ISO)
100
AcDbLine
 10
159.4516660498395
 20
154.7999999999989
 30
0.0
 11
159.2290619737246
 21
154.7999999999992
 31
0.0
  0
POLYLINE
  5
255
330
2
100
AcDbEntity
  8
Visible (ISO)
100
AcDb2dPolyline
 66
     1
 10
0.0
 20
0.0
 30
0.0
 70
   128
  0
VERTEX
  5
256
330
255
100
AcDbEntity
  8
Visible (ISO)
100
AcDbVertex
100
AcDb2dVertex
 10
159.7516659852438
 20
154.4999999523152
 30
0.0
  0
VERTEX
  5
257
330
255
100
AcDbEntity
  8
Visible (ISO)
100
AcDbVertex
100
AcDb2dVertex
 10
159.7476643073683
 20
154.5477736711491
 30
0.0
  0
VERTEX
  5
258
330
255
100
AcDbEntity
  8
Visible (ISO)
100
AcDbVertex
100
AcDb2dVertex
 10
159.7374289196349
 20
154.5907562196244
 30
0.0
  0
VERTEX
  5
259
330
255
100
AcDbEntity
  8
Visible (ISO)
100
AcDbVertex
100
AcDb2dVertex
 10
159.7218398956289
 20
154.628727209567
 30
0.0
  0
VERTEX
  5
25A
330
255
100
AcDbEntity
  8
Visible (ISO)
100
AcDbVertex
100
AcDb2dVertex
 10
159.7035303905709
 20
154.6605221152295
 30
0.0
  0
VERTEX
  5
25B
330
255
100
AcDbEntity
  8
Visible (ISO)
100
AcDbVertex
100
AcDb2dVertex
 10
159.6835600586481
 20
154.6861588180055
 30
0.0
  0
VERTEX
  5
25C
330
255
100
AcDbEntity
  8
Visible (ISO)
100
AcDbVertex
100
AcDb2dVertex
 10
159.6613771738002
 20
154.7084999799718
 30
0.0
  0
VERTEX
  5
25D
330
255
100
AcDbEntity
  8
Visible (ISO)
100
AcDbVertex
100
AcDb2dVertex
 10
159.6383090801996
 20
154.7272615849962
 30
0.0
  0
VERTEX
  5
25E
330
255
100
AcDbEntity
  8
Visible (ISO)
100
AcDbVertex
100
AcDb2dVertex
 10
159.6156838936311
 20
154.7421570837488
 30
0.0
  0
VERTEX
  5
25F
330
255
100
AcDbEntity
  8
Visible (ISO)
100
AcDbVertex
100
AcDb2dVertex
 10
159.5933230432375
 20
154.7541735291471
 30
0.0
  0
VERTEX
  5
260
330
255
100
AcDbEntity
  8
Visible (ISO)
100
AcDbVertex
100
AcDb2dVertex
 10
159.5703556441922
 20
154.7644459426393
 30
0.0
  0
VERTEX
  5
261
330
255
100
AcDbEntity
  8
Visible (ISO)
100
AcDbVertex
100
AcDb2dVertex
 10
159.546860123567
 20
154.7731082856646
 30
0.0
  0
VERTEX
  5
262
330
255
100
AcDbEntity
  8
Visible (ISO)
100
AcDbVertex
100
AcDb2dVertex
 10
159.5229151119872
 20
154.7802939236155
 30
0.0
  0
VERTEX
  5
263
330
255
100
AcDbEntity
  8
Visible (ISO)
100
AcDbVertex
100
AcDb2dVertex
 10
159.4985991110301
 20
154.7861368179312
 30
0.0
  0
VERTEX
  5
264
330
255
100
AcDbEntity
  8
Visible (ISO)
100
AcDbVertex
100
AcDb2dVertex
 10
159.4739902896716
 20
154.7907703340044
 30
0.0
  0
VERTEX
  5
265
330
255
100
AcDbEntity
  8
Visible (ISO)
100
AcDbVertex
100
AcDb2dVertex
 10
159.4491672040312
 20
154.7943282842627
 30
0.0
  0
VERTEX
  5
266
330
255
100
AcDbEntity
  8
Visible (ISO)
100
AcDbVertex
100
AcDb2dVertex
 10
159.4242083011443
 20
154.7969443321219
 30
0.0
  0
VERTEX
  5
267
330
255
100
AcDbEntity
  8
Visible (ISO)
100
AcDbVertex
100
AcDb2dVertex
 10
159.3991921371303
 20
154.7987519919863
 30
0.0
  0
VERTEX
  5
268
330
255
100
AcDbEntity
  8
Visible (ISO)
100
AcDbVertex
100
AcDb2dVertex
 10
159.374197010013
 20
154.7998849272719
 30
0.0
  0
VERTEX
  5
269
330
255
100
AcDbEntity
  8
Visible (ISO)
100
AcDbVertex
100
AcDb2dVertex
 10
159.3493013668278
 20
154.8004769504061
 30
0.0
  0
VERTEX
  5
26A
330
255
100
AcDbEntity
  8
Visible (ISO)
100
AcDbVertex
100
AcDb2dVertex
 10
159.3245838182361
 20
154.800661724805
 30
0.0
  0
VERTEX
  5
26B
330
255
100
AcDbEntity
  8
Visible (ISO)
100
AcDbVertex
100
AcDb2dVertex
 10
159.3001226077198
 20
154.8005726158611
 30
0.0
  0
VERTEX
  5
26C
330
255
100
AcDbEntity
  8
Visible (ISO)
100
AcDbVertex
100
AcDb2dVertex
 10
159.2759962368561
 20
154.8003435850135
 30
0.0
  0
VERTEX
  5
26D
330
255
100
AcDbEntity
  8
Visible (ISO)
100
AcDbVertex
100
AcDb2dVertex
 10
159.2522832717464
 20
154.8001081466666
 30
0.0
  0
VERTEX
  5
26E
330
255
100
AcDbEntity
  8
Visible (ISO)
100
AcDbVertex
100
AcDb2dVertex
 10
159.2290619359088
 20
154.7999999642364
 30
0.0
  0
SEQEND
  5
26F
330
255
100
AcDbEntity
  8
Visible (ISO)
  0
ARC
  5
270
330
2
100
AcDbEntity
  8
Visible (ISO)
100
AcDbCircle
 10
159.4516660498395
 20
154.4999999999989
 30
0.0
 40
0.2999999999999999
100
AcDbArc
 50
0.0
 51
90.0
  0
LINE
  5
271
330
2
100
AcDbEntity
  8
Visible (ISO)
100
AcDbLine
 10
159.7516660498395
 20
153.1999999999989
 30
0.0
 11
159.7516660498395
 21
154.4999999999989
 31
0.0
  0
LINE
  5
272
330
2
100
AcDbEntity
  8
Visible (ISO)
100
AcDbLine
 10
159.2290619737246
 20
154.7999999999992
 30
0.0
 11
159.1484371010347
 21
154.7999999999992
 31
0.0
  0
LINE
  5
273
330
2
100
AcDbEntity
  8
Visible (ISO)
100
AcDbLine
 10
158.6258330249197
 20
153.1999999999995
 30
0.0
 11
158.6258330249197
 21
154.4999999999995
 31
0.0
  0
LINE
  5
274
330
2
100
AcDbEntity
  8
Visible (ISO)
100
AcDbLine
 10
159.5
 20
153.1999999999991
 30
0.0
 11
159.7516660498395
 21
153.1999999999989
 31
0.0
  0
LINE
  5
275
330
2
100
AcDbEntity
  8
Visible (ISO)
100
AcDbLine
 10
93.83053540470388
 20
104.8499999999827
 30
0.0
 11
93.83053540470388
 21
105.1499999999827
 31
0.0
  0
LINE
  5
276
330
2
100
AcDbEntity
  8
Visible (ISO)
100
AcDbLine
 10
93.83053540470388
 20
105.1499999999827
 30
0.0
 11
93.73053540470392
 21
105.2499999999827
 31
0.0
  0
LINE
  5
277
330
2
100
AcDbEntity
  8
Visible (ISO)
100
AcDbLine
 10
93.73053540470392
 20
105.2499999999827
 30
0.0
 11
93.73053540470392
 21
104.7499999999827
 31
0.0
  0
LINE
  5
278
330
2
100
AcDbEntity
  8
Visible (ISO)
100
AcDbLine
 10
93.83053540470388
 20
104.8499999999827
 30
0.0
 11
93.73053540470392
 21
104.7499999999827
 31
0.0
  0
LINE
  5
279
330
2
100
AcDbEntity
  8
Visible (ISO)
100
AcDbLine
 10
93.83053540470388
 20
105.1499999999827
 30
0.0
 11
94.13053540470389
 21
105.1499999999827
 31
0.0
  0
LINE
  5
27A
330
2
100
AcDbEntity
  8
Visible (ISO)
100
AcDbLine
 10
94.13053540470389
 20
105.1499999999827
 30
0.0
 11
94.23053540470391
 21
105.2499999999827
 31
0.0
  0
LINE
  5
27B
330
2
100
AcDbEntity
  8
Visible (ISO)
100
AcDbLine
 10
94.23053540470391
 20
105.2499999999827
 30
0.0
 11
93.73053540470392
 21
105.2499999999827
 31
0.0
  0
LINE
  5
27C
330
2
100
AcDbEntity
  8
Visible (ISO)
100
AcDbLine
 10
94.13053540470389
 20
105.1499999999827
 30
0.0
 11
94.13053540470389
 21
104.8499999999827
 31
0.0
  0
LINE
  5
27D
330
2
100
AcDbEntity
  8
Visible (ISO)
100
AcDbLine
 10
94.13053540470389
 20
104.8499999999827
 30
0.0
 11
94.23053540470391
 21
104.7499999999827
 31
0.0
  0
LINE
  5
27E
330
2
100
AcDbEntity
  8
Visible (ISO)
100
AcDbLine
 10
94.23053540470391
 20
104.7499999999827
 30
0.0
 11
94.23053540470391
 21
105.2499999999827
 31
0.0
  0
LINE
  5
27F
330
2
100
AcDbEntity
  8
Visible (ISO)
100
AcDbLine
 10
94.13053540470389
 20
104.8499999999827
 30
0.0
 11
93.83053540470388
 21
104.8499999999827
 31
0.0
  0
LINE
  5
280
330
2
100
AcDbEntity
  8
Visible (ISO)
100
AcDbLine
 10
93.73053540470392
 20
104.7499999999827
 30
0.0
 11
94.23053540470391
 21
104.7499999999827
 31
0.0
  0
LINE
  5
281
330
2
100
AcDbEntity
  8
Visible (ISO)
100
AcDbLine
 10
93.83053540470388
 20
106.3499999999827
 30
0.0
 11
93.83053540470388
 21
106.6499999999827
 31
0.0
  0
LINE
  5
282
330
2
100
AcDbEntity
  8
Visible (ISO)
100
AcDbLine
 10
93.83053540470388
 20
106.6499999999827
 30
0.0
 11
93.73053540470392
 21
106.7499999999827
 31
0.0
  0
LINE
  5
283
330
2
100
AcDbEntity
  8
Visible (ISO)
100
AcDbLine
 10
93.73053540470392
 20
106.7499999999827
 30
0.0
 11
93.73053540470392
 21
106.2499999999827
 31
0.0
  0
LINE
  5
284
330
2
100
AcDbEntity
  8
Visible (ISO)
100
AcDbLine
 10
93.83053540470388
 20
106.3499999999827
 30
0.0
 11
93.73053540470392
 21
106.2499999999827
 31
0.0
  0
LINE
  5
285
330
2
100
AcDbEntity
  8
Visible (ISO)
100
AcDbLine
 10
93.83053540470388
 20
106.6499999999827
 30
0.0
 11
94.13053540470389
 21
106.6499999999827
 31
0.0
  0
LINE
  5
286
330
2
100
AcDbEntity
  8
Visible (ISO)
100
AcDbLine
 10
94.13053540470389
 20
106.6499999999827
 30
0.0
 11
94.23053540470391
 21
106.7499999999827
 31
0.0
  0
LINE
  5
287
330
2
100
AcDbEntity
  8
Visible (ISO)
100
AcDbLine
 10
94.23053540470391
 20
106.7499999999827
 30
0.0
 11
93.73053540470392
 21
106.7499999999827
 31
0.0
  0
LINE
  5
288
330
2
100
AcDbEntity
  8
Visible (ISO)
100
AcDbLine
 10
94.13053540470389
 20
106.6499999999827
 30
0.0
 11
94.13053540470389
 21
106.3499999999827
 31
0.0
  0
LINE
  5
289
330
2
100
AcDbEntity
  8
Visible (ISO)
100
AcDbLine
 10
94.13053540470389
 20
106.3499999999827
 30
0.0
 11
94.23053540470391
 21
106.2499999999827
 31
0.0
  0
LINE
  5
28A
330
2
100
AcDbEntity
  8
Visible (ISO)
100
AcDbLine
 10
94.23053540470391
 20
106.2499999999827
 30
0.0
 11
94.23053540470391
 21
106.7499999999827
 31
0.0
  0
LINE
  5
28B
330
2
100
AcDbEntity
  8
Visible (ISO)
100
AcDbLine
 10
94.13053540470389
 20
106.3499999999827
 30
0.0
 11
93.83053540470388
 21
106.3499999999827
 31
0.0
  0
LINE
  5
28C
330
2
100
AcDbEntity
  8
Visible (ISO)
100
AcDbLine
 10
93.73053540470392
 20
106.2499999999827
 30
0.0
 11
94.23053540470391
 21
106.2499999999827
 31
0.0
  0
LINE
  5
28D
330
2
100
AcDbEntity
  8
Visible (ISO)
100
AcDbLine
 10
94.13053540470389
 20
103.6499999999827
 30
0.0
 11
94.13053540470389
 21
103.3499999999827
 31
0.0
  0
LINE
  5
28E
330
2
100
AcDbEntity
  8
Visible (ISO)
100
AcDbLine
 10
94.13053540470389
 20
103.3499999999827
 30
0.0
 11
94.23053540470391
 21
103.2499999999827
 31
0.0
  0
LINE
  5
28F
330
2
100
AcDbEntity
  8
Visible (ISO)
100
AcDbLine
 10
94.23053540470391
 20
103.2499999999827
 30
0.0
 11
94.23053540470391
 21
103.7499999999827
 31
0.0
  0
LINE
  5
290
330
2
100
AcDbEntity
  8
Visible (ISO)
100
AcDbLine
 10
94.13053540470389
 20
103.6499999999827
 30
0.0
 11
94.23053540470391
 21
103.7499999999827
 31
0.0
  0
LINE
  5
291
330
2
100
AcDbEntity
  8
Visible (ISO)
100
AcDbLine
 10
94.13053540470389
 20
103.3499999999827
 30
0.0
 11
93.83053540470388
 21
103.3499999999827
 31
0.0
  0
LINE
  5
292
330
2
100
AcDbEntity
  8
Visible (ISO)
100
AcDbLine
 10
93.83053540470388
 20
103.3499999999827
 30
0.0
 11
93.73053540470392
 21
103.2499999999827
 31
0.0
  0
LINE
  5
293
330
2
100
AcDbEntity
  8
Visible (ISO)
100
AcDbLine
 10
93.73053540470392
 20
103.2499999999827
 30
0.0
 11
94.23053540470391
 21
103.2499999999827
 31
0.0
  0
LINE
  5
294
330
2
100
AcDbEntity
  8
Visible (ISO)
100
AcDbLine
 10
93.83053540470388
 20
103.3499999999827
 30
0.0
 11
93.83053540470388
 21
103.6499999999827
 31
0.0
  0
LINE
  5
295
330
2
100
AcDbEntity
  8
Visible (ISO)
100
AcDbLine
 10
93.83053540470388
 20
103.6499999999827
 30
0.0
 11
93.73053540470392
 21
103.7499999999827
 31
0.0
  0
LINE
  5
296
330
2
100
AcDbEntity
  8
Visible (ISO)
100
AcDbLine
 10
93.73053540470392
 20
103.7499999999827
 30
0.0
 11
93.73053540470392
 21
103.2499999999827
 31
0.0
  0
LINE
  5
297
330
2
100
AcDbEntity
  8
Visible (ISO)
100
AcDbLine
 10
93.83053540470388
 20
103.6499999999827
 30
0.0
 11
94.13053540470389
 21
103.6499999999827
 31
0.0
  0
LINE
  5
298
330
2
100
AcDbEntity
  8
Visible (ISO)
100
AcDbLine
 10
94.23053540470391
 20
103.7499999999827
 30
0.0
 11
93.73053540470392
 21
103.7499999999827
 31
0.0
  0
LINE
  5
299
330
2
100
AcDbEntity
  8
Visible (ISO)
100
AcDbLine
 10
93.63053540470422
 20
107.9999999999827
 30
0.0
 11
93.43053540470419
 21
107.9999999999827
 31
0.0
  0
LINE
  5
29A
330
2
100
AcDbEntity
  8
Visible (ISO)
100
AcDbLine
 10
93.43053540470419
 20
107.6499999999827
 30
0.0
 11
93.63053540470422
 21
107.6499999999827
 31
0.0
  0
LINE
  5
29B
330
2
100
AcDbEntity
  8
Visible Narrow (ISO)
100
AcDbLine
 10
93.63053540470422
 20
107.6499999999827
 30
0.0
 11
93.63053540470422
 21
107.9999999999827
 31
0.0
  0
LINE
  5
29C
330
2
100
AcDbEntity
  8
Visible (ISO)
100
AcDbLine
 10
93.63053540470422
 20
102.3499999999827
 30
0.0
 11
93.43053540470419
 21
102.3499999999827
 31
0.0
  0
LINE
  5
29D
330
2
100
AcDbEntity
  8
Visible (ISO)
100
AcDbLine
 10
93.43053540470419
 20
101.9999999999827
 30
0.0
 11
93.63053540470422
 21
101.9999999999827
 31
0.0
  0
LINE
  5
29E
330
2
100
AcDbEntity
  8
Visible Narrow (ISO)
100
AcDbLine
 10
93.63053540470422
 20
101.9999999999827
 30
0.0
 11
93.63053540470422
 21
102.3499999999827
 31
0.0
  0
LINE
  5
29F
330
2
100
AcDbEntity
  8
Visible (ISO)
100
AcDbLine
 10
94.13053540470423
 20
107.6499999999827
 30
0.0
 11
94.33053540470416
 21
107.6499999999827
 31
0.0
  0
LINE
  5
2A0
330
2
100
AcDbEntity
  8
Visible (ISO)
100
AcDbLine
 10
94.33053540470416
 20
107.9999999999827
 30
0.0
 11
94.13053540470423
 21
107.9999999999827
 31
0.0
  0
LINE
  5
2A1
330
2
100
AcDbEntity
  8
Visible Narrow (ISO)
100
AcDbLine
 10
94.13053540470423
 20
107.9999999999827
 30
0.0
 11
94.13053540470423
 21
107.6499999999827
 31
0.0
  0
LINE
  5
2A2
330
2
100
AcDbEntity
  8
Visible (ISO)
100
AcDbLine
 10
94.13053540470423
 20
101.9999999999827
 30
0.0
 11
94.33053540470416
 21
101.9999999999827
 31
0.0
  0
LINE
  5
2A3
330
2
100
AcDbEntity
  8
Visible (ISO)
100
AcDbLine
 10
94.33053540470416
 20
102.3499999999827
 30
0.0
 11
94.13053540470423
 21
102.3499999999827
 31
0.0
  0
LINE
  5
2A4
330
2
100
AcDbEntity
  8
Visible Narrow (ISO)
100
AcDbLine
 10
94.13053540470423
 20
102.3499999999827
 30
0.0
 11
94.13053540470423
 21
101.9999999999827
 31
0.0
  0
LINE
  5
2A5
330
2
100
AcDbEntity
  8
Visible (ISO)
100
AcDbLine
 10
93.43053540470368
 20
107.6499999999827
 30
0.0
 11
93.43053540470368
 21
107.9999999999827
 31
0.0
  0
LINE
  5
2A6
330
2
100
AcDbEntity
  8
Visible (ISO)
100
AcDbLine
 10
93.43053540470368
 20
101.9999999999827
 30
0.0
 11
93.43053540470368
 21
102.3499999999827
 31
0.0
  0
LINE
  5
2A7
330
2
100
AcDbEntity
  8
Visible (ISO)
100
AcDbLine
 10
94.33053540470371
 20
107.9999999999827
 30
0.0
 11
94.33053540470371
 21
107.6499999999827
 31
0.0
  0
LINE
  5
2A8
330
2
100
AcDbEntity
  8
Visible (ISO)
100
AcDbLine
 10
94.33053540470371
 20
102.3499999999827
 30
0.0
 11
94.33053540470371
 21
101.9999999999827
 31
0.0
  0
LINE
  5
2A9
330
2
100
AcDbEntity
  8
Visible (ISO)
100
AcDbLine
 10
94.13053540470423
 20
101.9999999999827
 30
0.0
 11
93.63053540470422
 21
101.9999999999827
 31
0.0
  0
LINE
  5
2AA
330
2
100
AcDbEntity
  8
Visible (ISO)
100
AcDbLine
 10
93.63053540470422
 20
102.3499999999827
 30
0.0
 11
94.13053540470423
 21
102.3499999999827
 31
0.0
  0
LINE
  5
2AB
330
2
100
AcDbEntity
  8
Visible (ISO)
100
AcDbLine
 10
94.13053540470423
 20
107.6499999999827
 30
0.0
 11
93.63053540470422
 21
107.6499999999827
 31
0.0
  0
LINE
  5
2AC
330
2
100
AcDbEntity
  8
Visible (ISO)
100
AcDbLine
 10
93.63053540470422
 20
107.9999999999827
 30
0.0
 11
94.13053540470423
 21
107.9999999999827
 31
0.0
  0
LINE
  5
2AD
330
2
100
AcDbEntity
  8
Visible (ISO)
100
AcDbLine
 10
92.08053540470364
 20
107.6499999999827
 30
0.0
 11
93.43053540470368
 21
107.6499999999827
 31
0.0
  0
LINE
  5
2AE
330
2
100
AcDbEntity
  8
Visible (ISO)
100
AcDbLine
 10
94.33053540470371
 20
107.6499999999827
 30
0.0
 11
94.93053540470368
 21
107.6499999999827
 31
0.0
  0
LINE
  5
2AF
330
2
100
AcDbEntity
  8
Visible (ISO)
100
AcDbLine
 10
93.43053540470368
 20
102.3499999999827
 30
0.0
 11
92.08053540470364
 21
102.3499999999827
 31
0.0
  0
LINE
  5
2B0
330
2
100
AcDbEntity
  8
Visible (ISO)
100
AcDbLine
 10
92.08053540470364
 20
102.3499999999827
 30
0.0
 11
92.08053540470364
 21
103.2999999999827
 31
0.0
  0
LINE
  5
2B1
330
2
100
AcDbEntity
  8
Visible (ISO)
100
AcDbLine
 10
92.08053540470364
 20
106.6999999999827
 30
0.0
 11
92.08053540470364
 21
107.6499999999827
 31
0.0
  0
LINE
  5
2B2
330
2
100
AcDbEntity
  8
Visible (ISO)
100
AcDbLine
 10
94.93053540470368
 20
107.6499999999827
 30
0.0
 11
94.93053540470368
 21
102.3499999999827
 31
0.0
  0
LINE
  5
2B3
330
2
100
AcDbEntity
  8
Visible (ISO)
100
AcDbLine
 10
94.93053540470368
 20
102.3499999999827
 30
0.0
 11
94.33053540470371
 21
102.3499999999827
 31
0.0
  0
LINE
  5
2B4
330
2
100
AcDbEntity
  8
Visible (ISO)
100
AcDbLine
 10
91.5305354047037
 20
107.9999999999827
 30
0.0
 11
93.43053540470368
 21
107.9999999999827
 31
0.0
  0
LINE
  5
2B5
330
2
100
AcDbEntity
  8
Visible (ISO)
100
AcDbLine
 10
91.5305354047037
 20
101.9999999999827
 30
0.0
 11
93.43053540470368
 21
101.9999999999827
 31
0.0
  0
LINE
  5
2B6
330
2
100
AcDbEntity
  8
Visible (ISO)
100
AcDbLine
 10
94.33053540470371
 20
101.9999999999827
 30
0.0
 11
95.23053540470369
 21
101.9999999999827
 31
0.0
  0
LINE
  5
2B7
330
2
100
AcDbEntity
  8
Visible (ISO)
100
AcDbLine
 10
95.23053540470369
 20
101.9999999999827
 30
0.0
 11
95.23053540470369
 21
107.9999999999827
 31
0.0
  0
LINE
  5
2B8
330
2
100
AcDbEntity
  8
Visible (ISO)
100
AcDbLine
 10
94.33053540470371
 20
107.9999999999827
 30
0.0
 11
95.23053540470369
 21
107.9999999999827
 31
0.0
  0
LINE
  5
2B9
330
2
100
AcDbEntity
  8
Visible (ISO)
100
AcDbLine
 10
91.5305354047037
 20
107.1999999999827
 30
0.0
 11
91.83053540470366
 21
107.1999999999827
 31
0.0
  0
LINE
  5
2BA
330
2
100
AcDbEntity
  8
Visible (ISO)
100
AcDbLine
 10
91.83053540470366
 20
107.1999999999827
 30
0.0
 11
91.83053540470366
 21
106.6999999999827
 31
0.0
  0
LINE
  5
2BB
330
2
100
AcDbEntity
  8
Visible (ISO)
100
AcDbLine
 10
91.83053540470366
 20
103.2999999999827
 30
0.0
 11
91.83053540470366
 21
102.7999999999827
 31
0.0
  0
LINE
  5
2BC
330
2
100
AcDbEntity
  8
Visible (ISO)
100
AcDbLine
 10
91.83053540470366
 20
102.7999999999827
 30
0.0
 11
91.5305354047037
 21
102.7999999999827
 31
0.0
  0
LINE
  5
2BD
330
2
100
AcDbEntity
  8
Visible (ISO)
100
AcDbLine
 10
92.43053540470095
 20
106.3999999999827
 30
0.0
 11
92.43053540470095
 21
103.5999999999827
 31
0.0
  0
LINE
  5
2BE
330
2
100
AcDbEntity
  8
Visible Narrow (ISO)
100
AcDbLine
 10
92.13053540470088
 20
103.2999999999827
 30
0.0
 11
92.13053540470088
 21
106.6999999999827
 31
0.0
  0
ARC
  5
2BF
330
2
100
AcDbEntity
  8
Visible (ISO)
100
AcDbCircle
 10
92.13053540470088
 20
106.3999999999827
 30
0.0
 40
0.3
100
AcDbArc
 50
0.0
 51
90.0
  0
ARC
  5
2C0
330
2
100
AcDbEntity
  8
Visible (ISO)
100
AcDbCircle
 10
92.13053540470088
 20
103.5999999999827
 30
0.0
 40
0.3
100
AcDbArc
 50
270.0
 51
0.0
  0
LINE
  5
2C1
330
2
100
AcDbEntity
  8
Visible (ISO)
100
AcDbLine
 10
92.13053540470088
 20
103.2999999999827
 30
0.0
 11
91.53053540470091
 21
103.2999999999827
 31
0.0
  0
LINE
  5
2C2
330
2
100
AcDbEntity
  8
Visible (ISO)
100
AcDbLine
 10
92.13053540470088
 20
106.6999999999827
 30
0.0
 11
91.53053540470091
 21
106.6999999999827
 31
0.0
  0
LINE
  5
2C3
330
2
100
AcDbEntity
  8
Visible (ISO)
100
AcDbLine
 10
96.53053540470091
 20
108.5999999999827
 30
0.0
 11
94.53053540470035
 21
108.5999999999827
 31
0.0
  0
LINE
  5
2C4
330
2
100
AcDbEntity
  8
Visible (ISO)
100
AcDbLine
 10
96.53053540470091
 20
108.5999999999827
 30
0.0
 11
96.53053540470091
 21
109.4999999999827
 31
0.0
  0
LINE
  5
2C5
330
2
100
AcDbEntity
  8
Visible (ISO)
100
AcDbLine
 10
94.53053540470035
 20
109.4999999999827
 30
0.0
 11
96.53053540470091
 21
109.4999999999827
 31
0.0
  0
LINE
  5
2C6
330
2
100
AcDbEntity
  8
Visible Narrow (ISO)
100
AcDbLine
 10
94.53053540470035
 20
109.4999999999827
 30
0.0
 11
94.53053540470035
 21
108.5999999999827
 31
0.0
  0
LINE
  5
2C7
330
2
100
AcDbEntity
  8
Visible (ISO)
100
AcDbLine
 10
89.3305354047003
 20
108.5999999999827
 30
0.0
 11
94.53053540470035
 21
108.5999999999827
 31
0.0
  0
LINE
  5
2C8
330
2
100
AcDbEntity
  8
Visible (ISO)
100
AcDbLine
 10
94.53053540470035
 20
109.4999999999827
 30
0.0
 11
89.3305354047003
 21
109.4999999999827
 31
0.0
  0
LINE
  5
2C9
330
2
100
AcDbEntity
  8
Visible (ISO)
100
AcDbLine
 10
89.3305354047003
 20
108.5999999999827
 30
0.0
 11
89.3305354047003
 21
109.4999999999827
 31
0.0
  0
LINE
  5
2CA
330
2
100
AcDbEntity
  8
Visible Narrow (ISO)
100
AcDbLine
 10
88.24128343751846
 20
108.5786454578144
 30
0.0
 11
89.33053540470064
 21
108.6357307344941
 31
0.0
  0
LINE
  5
2CB
330
2
100
AcDbEntity
  8
Visible Narrow (ISO)
100
AcDbLine
 10
88.24128343751846
 20
106.9999999999827
 30
0.0
 11
88.24128343751846
 21
108.5786454578144
 31
0.0
  0
LINE
  5
2CC
330
2
100
AcDbEntity
  8
Visible (ISO)
100
AcDbLine
 10
89.33053540470087
 20
109.38470288556
 30
0.0
 11
88.24128343751869
 21
109.3276176088803
 31
0.0
  0
ELLIPSE
  5
2CD
330
2
100
AcDbEntity
  8
Visible Narrow (ISO)
100
AcDbEllipse
 10
88.28053540470085
 20
108.5786454578144
 30
0.0
 11
-0.0392519671822075
 21
0.748972151065932
 31
0.0
210
0.0
220
0.0
230
1.0
 40
0.0522644276890088
 41
0.0
 42
1.568057271054091
  0
ELLIPSE
  5
2CE
330
2
100
AcDbEntity
  8
Visible Narrow (ISO)
100
AcDbEllipse
 10
88.28053540470085
 20
101.421354542151
 30
0.0
 11
-0.039251967182208
 21
-0.748972151065931
 31
0.0
210
0.0
220
0.0
230
1.0
 40
0.052264427689008
 41
4.715128036120304
 42
6.283185307169121
  0
LINE
  5
2CF
330
2
100
AcDbEntity
  8
Visible Narrow (ISO)
100
AcDbLine
 10
87.53053540470085
 20
101.421354542151
 30
0.0
 11
88.24128343751846
 21
101.421354542151
 31
0.0
  0
ARC
  5
2D0
330
2
100
AcDbEntity
  8
Visible (ISO)
100
AcDbCircle
 10
88.28053540470085
 20
101.421354542151
 30
0.0
 40
0.7499999999999996
100
AcDbArc
 50
180.0
 51
267.0000000000009
  0
LINE
  5
2D1
330
2
100
AcDbEntity
  8
Visible (ISO)
100
AcDbLine
 10
87.53053540470085
 20
102.9999999999827
 30
0.0
 11
88.24128343751846
 21
102.9999999999827
 31
0.0
  0
LINE
  5
2D2
330
2
100
AcDbEntity
  8
Visible (ISO)
100
AcDbLine
 10
87.53053540470085
 20
102.9999999999827
 30
0.0
 11
87.53053540470085
 21
101.421354542151
 31
0.0
  0
LINE
  5
2D3
330
2
100
AcDbEntity
  8
Visible Narrow (ISO)
100
AcDbLine
 10
88.24128343751846
 20
101.421354542151
 30
0.0
 11
88.24128343751846
 21
102.9999999999827
 31
0.0
  0
LINE
  5
2D4
330
2
100
AcDbEntity
  8
Visible (ISO)
100
AcDbLine
 10
91.53053540470063
 20
101.2489721510486
 30
0.0
 11
91.53053540470086
 21
100.4999999999827
 31
0.0
  0
LINE
  5
2D5
330
2
100
AcDbEntity
  8
Visible Narrow (ISO)
100
AcDbLine
 10
91.53053540470063
 20
101.2489721510486
 30
0.0
 11
88.24128343751846
 21
101.421354542151
 31
0.0
  0
LINE
  5
2D6
330
2
100
AcDbEntity
  8
Visible (ISO)
100
AcDbLine
 10
88.24128343751869
 20
100.6723823910851
 30
0.0
 11
91.53053540470086
 21
100.4999999999827
 31
0.0
  0
LINE
  5
2D7
330
2
100
AcDbEntity
  8
Visible Narrow (ISO)
100
AcDbLine
 10
88.24128343751846
 20
108.5786454578144
 30
0.0
 11
87.53053540470085
 21
108.5786454578144
 31
0.0
  0
ARC
  5
2D8
330
2
100
AcDbEntity
  8
Visible (ISO)
100
AcDbCircle
 10
88.28053540470085
 20
108.5786454578144
 30
0.0
 40
0.75
100
AcDbArc
 50
92.99999999999908
 51
180.0
  0
LINE
  5
2D9
330
2
100
AcDbEntity
  8
Visible (ISO)
100
AcDbLine
 10
88.24128343751846
 20
106.9999999999827
 30
0.0
 11
87.53053540470085
 21
106.9999999999827
 31
0.0
  0
LINE
  5
2DA
330
2
100
AcDbEntity
  8
Visible (ISO)
100
AcDbLine
 10
87.53053540470085
 20
108.5786454578144
 30
0.0
 11
87.53053540470085
 21
106.9999999999827
 31
0.0
  0
LINE
  5
2DB
330
2
100
AcDbEntity
  8
Visible (ISO)
100
AcDbLine
 10
88.24128343751846
 20
106.9999999999827
 30
0.0
 11
89.33053540470064
 21
106.9999999999827
 31
0.0
  0
LINE
  5
2DC
330
2
100
AcDbEntity
  8
Visible (ISO)
100
AcDbLine
 10
89.33053540470064
 20
102.9999999999827
 30
0.0
 11
88.24128343751846
 21
102.9999999999827
 31
0.0
  0
LINE
  5
2DD
330
2
100
AcDbEntity
  8
Visible (ISO)
100
AcDbLine
 10
87.53053540470125
 20
102.9999999999827
 30
0.0
 11
87.5305354047016
 21
104.9999999999827
 31
0.0
  0
LINE
  5
2DE
330
2
100
AcDbEntity
  8
Visible (ISO)
100
AcDbLine
 10
87.5305354047016
 20
104.9999999999827
 30
0.0
 11
87.53053540470125
 21
106.9999999999827
 31
0.0
  0
LINE
  5
2DF
330
2
100
AcDbEntity
  8
Visible (ISO)
100
AcDbLine
 10
87.5305354047016
 20
104.9999999999827
 30
0.0
 11
87.73053540470158
 21
104.9999999999827
 31
0.0
  0
LINE
  5
2E0
330
2
100
AcDbEntity
  8
Visible (ISO)
100
AcDbLine
 10
89.33053540470064
 20
106.9999999999827
 30
0.0
 11
89.33053540470064
 21
106.9499999999827
 31
0.0
  0
LINE
  5
2E1
330
2
100
AcDbEntity
  8
Visible (ISO)
100
AcDbLine
 10
89.33053540470064
 20
103.0499999999827
 30
0.0
 11
89.33053540470064
 21
102.9999999999827
 31
0.0
  0
LINE
  5
2E2
330
2
100
AcDbEntity
  8
Visible (ISO)
100
AcDbLine
 10
89.33053540470035
 20
105.5901298920241
 30
0.0
 11
89.33053540470046
 21
106.3598701079412
 31
0.0
  0
LINE
  5
2E3
330
2
100
AcDbEntity
  8
Visible (ISO)
100
AcDbLine
 10
89.33053540470046
 20
103.6401298920242
 30
0.0
 11
89.33053540470035
 21
104.4098701079412
 31
0.0
  0
ELLIPSE
  5
2E4
330
2
100
AcDbEntity
  8
Visible (ISO)
100
AcDbEllipse
 10
72.44939871697266
 20
104.9999999999827
 30
0.0
 11
38.16227337545584
 21
-0.0000000000000117
 31
0.0
210
0.0
220
0.0
230
1.0
 40
0.052407779283042
 41
1.047197551196597
 42
1.112577428741074
  0
ELLIPSE
  5
2E5
330
2
100
AcDbEntity
  8
Visible (ISO)
100
AcDbEllipse
 10
72.44939871697266
 20
104.9999999999827
 30
0.0
 11
38.16227337545584
 21
-0.0000000000000117
 31
0.0
210
0.0
220
0.0
230
1.0
 40
0.052407779283042
 41
5.170607878438511
 42
5.235987755982987
  0
LINE
  5
2E6
330
2
100
AcDbEntity
  8
Visible (ISO)
100
AcDbLine
 10
91.53053540470063
 20
106.7320508075515
 30
0.0
 11
91.53053540470063
 21
103.2679491924138
 31
0.0
  0
LINE
  5
2E7
330
2
100
AcDbEntity
  8
Visible (ISO)
100
AcDbLine
 10
91.53053540470063
 20
108.5999999999827
 30
0.0
 11
91.53053540470063
 21
106.7320508075515
 31
0.0
  0
LINE
  5
2E8
330
2
100
AcDbEntity
  8
Visible (ISO)
100
AcDbLine
 10
91.53053540470063
 20
103.2679491924138
 30
0.0
 11
91.53053540470063
 21
101.2489721510486
 31
0.0
  0
LINE
  5
2E9
330
2
100
AcDbEntity
  8
Visible (ISO)
100
AcDbLine
 10
88.0305354523843
 20
103.0500000091722
 30
0.0
 11
87.72987367989498
 21
103.0499999584764
 31
0.0
  0
POLYLINE
  5
2EA
330
2
100
AcDbEntity
  8
Visible (ISO)
100
AcDb2dPolyline
 66
     1
 10
0.0
 20
0.0
 30
0.0
 70
   128
  0
VERTEX
  5
2EB
330
2EA
100
AcDbEntity
  8
Visible (ISO)
100
AcDbVertex
100
AcDb2dVertex
 10
87.73053544046319
 20
103.9551768925943
 30
0.0
  0
VERTEX
  5
2EC
330
2EA
100
AcDbEntity
  8
Visible (ISO)
100
AcDbVertex
100
AcDb2dVertex
 10
87.73042725803293
 20
103.9149563585642
 30
0.0
  0
VERTEX
  5
2ED
330
2EA
100
AcDbEntity
  8
Visible (ISO)
100
AcDbVertex
100
AcDb2dVertex
 10
87.73019181968612
 20
103.8738842577711
 30
0.0
  0
VERTEX
  5
2EE
330
2EA
100
AcDbEntity
  8
Visible (ISO)
100
AcDbVertex
100
AcDb2dVertex
 10
87.72996278883857
 20
103.8320962151213
 30
0.0
  0
VERTEX
  5
2EF
330
2EA
100
AcDbEntity
  8
Visible (ISO)
100
AcDbVertex
100
AcDb2dVertex
 10
87.72987367989463
 20
103.7897280963272
 30
0.0
  0
VERTEX
  5
2F0
330
2EA
100
AcDbEntity
  8
Visible (ISO)
100
AcDbVertex
100
AcDb2dVertex
 10
87.73005845429343
 20
103.7469159506912
 30
0.0
  0
VERTEX
  5
2F1
330
2EA
100
AcDbEntity
  8
Visible (ISO)
100
AcDbVertex
100
AcDb2dVertex
 10
87.73065047742766
 20
103.7037956066729
 30
0.0
  0
VERTEX
  5
2F2
330
2EA
100
AcDbEntity
  8
Visible (ISO)
100
AcDbVertex
100
AcDb2dVertex
 10
87.73178341271323
 20
103.6605027078048
 30
0.0
  0
VERTEX
  5
2F3
330
2EA
100
AcDbEntity
  8
Visible (ISO)
100
AcDbVertex
100
AcDb2dVertex
 10
87.73359107257766
 20
103.6171734883163
 30
0.0
  0
VERTEX
  5
2F4
330
2EA
100
AcDbEntity
  8
Visible (ISO)
100
AcDbVertex
100
AcDb2dVertex
 10
87.73620712043685
 20
103.5739434999452
 30
0.0
  0
VERTEX
  5
2F5
330
2EA
100
AcDbEntity
  8
Visible (ISO)
100
AcDbVertex
100
AcDb2dVertex
 10
87.73976507069511
 20
103.5309486629458
 30
0.0
  0
VERTEX
  5
2F6
330
2EA
100
AcDbEntity
  8
Visible (ISO)
100
AcDbVertex
100
AcDb2dVertex
 10
87.74439858676833
 20
103.4883249534521
 30
0.0
  0
VERTEX
  5
2F7
330
2EA
100
AcDbEntity
  8
Visible (ISO)
100
AcDbVertex
100
AcDb2dVertex
 10
87.75024148108405
 20
103.4462081626708
 30
0.0
  0
VERTEX
  5
2F8
330
2EA
100
AcDbEntity
  8
Visible (ISO)
100
AcDbVertex
100
AcDb2dVertex
 10
87.75742711903502
 20
103.4047342294829
 30
0.0
  0
VERTEX
  5
2F9
330
2EA
100
AcDbEntity
  8
Visible (ISO)
100
AcDbVertex
100
AcDb2dVertex
 10
87.76608946206023
 20
103.3640389637217
 30
0.0
  0
VERTEX
  5
2FA
330
2EA
100
AcDbEntity
  8
Visible (ISO)
100
AcDbVertex
100
AcDb2dVertex
 10
87.77636187555243
 20
103.3242582031598
 30
0.0
  0
VERTEX
  5
2FB
330
2EA
100
AcDbEntity
  8
Visible (ISO)
100
AcDbVertex
100
AcDb2dVertex
 10
87.78837832095076
 20
103.2855278587387
 30
0.0
  0
VERTEX
  5
2FC
330
2EA
100
AcDbEntity
  8
Visible (ISO)
100
AcDbVertex
100
AcDb2dVertex
 10
87.80327381970336
 20
103.2463400621523
 30
0.0
  0
VERTEX
  5
2FD
330
2EA
100
AcDbEntity
  8
Visible (ISO)
100
AcDbVertex
100
AcDb2dVertex
 10
87.82203542472775
 20
103.2063848562037
 30
0.0
  0
VERTEX
  5
2FE
330
2EA
100
AcDbEntity
  8
Visible (ISO)
100
AcDbVertex
100
AcDb2dVertex
 10
87.84437658669407
 20
103.167962969598
 30
0.0
  0
VERTEX
  5
2FF
330
2EA
100
AcDbEntity
  8
Visible (ISO)
100
AcDbVertex
100
AcDb2dVertex
 10
87.87001328947003
 20
103.1333734314239
 30
0.0
  0
VERTEX
  5
300
330
2EA
100
AcDbEntity
  8
Visible (ISO)
100
AcDbVertex
100
AcDb2dVertex
 10
87.90180819513256
 20
103.1016604916378
 30
0.0
  0
VERTEX
  5
301
330
2EA
100
AcDbEntity
  8
Visible (ISO)
100
AcDbVertex
100
AcDb2dVertex
 10
87.93977918507511
 20
103.0746593100234
 30
0.0
  0
VERTEX
  5
302
330
2EA
100
AcDbEntity
  8
Visible (ISO)
100
AcDbVertex
100
AcDb2dVertex
 10
87.98276173355038
 20
103.0569311508476
 30
0.0
  0
VERTEX
  5
303
330
2EA
100
AcDbEntity
  8
Visible (ISO)
100
AcDbVertex
100
AcDb2dVertex
 10
88.0305354523843
 20
103.0500000091722
 30
0.0
  0
SEQEND
  5
304
330
2EA
100
AcDbEntity
  8
Visible (ISO)
  0
LINE
  5
305
330
2
100
AcDbEntity
  8
Visible (ISO)
100
AcDbLine
 10
87.73053540470044
 20
103.9551768120563
 30
0.0
 11
87.7305354047009
 21
103.0499999999827
 31
0.0
  0
POLYLINE
  5
306
330
2
100
AcDbEntity
  8
Visible (ISO)
100
AcDb2dPolyline
 66
     1
 10
0.0
 20
0.0
 30
0.0
 70
   128
  0
VERTEX
  5
307
330
306
100
AcDbEntity
  8
Visible (ISO)
100
AcDbVertex
100
AcDb2dVertex
 10
88.03053545238396
 20
104.9999999688147
 30
0.0
  0
VERTEX
  5
308
330
306
100
AcDbEntity
  8
Visible (ISO)
100
AcDbVertex
100
AcDb2dVertex
 10
87.98276173355004
 20
104.993068825975
 30
0.0
  0
VERTEX
  5
309
330
306
100
AcDbEntity
  8
Visible (ISO)
100
AcDbVertex
100
AcDb2dVertex
 10
87.93977918507478
 20
104.9753406185734
 30
0.0
  0
VERTEX
  5
30A
330
306
100
AcDbEntity
  8
Visible (ISO)
100
AcDbVertex
100
AcDb2dVertex
 10
87.90180819513222
 20
104.9483394940025
 30
0.0
  0
VERTEX
  5
30B
330
306
100
AcDbEntity
  8
Visible (ISO)
100
AcDbVertex
100
AcDb2dVertex
 10
87.87001328946969
 20
104.9166265884724
 30
0.0
  0
VERTEX
  5
30C
330
306
100
AcDbEntity
  8
Visible (ISO)
100
AcDbVertex
100
AcDb2dVertex
 10
87.84437658669373
 20
104.8820369811178
 30
0.0
  0
VERTEX
  5
30D
330
306
100
AcDbEntity
  8
Visible (ISO)
100
AcDbVertex
100
AcDb2dVertex
 10
87.82203542472741
 20
104.8436150665724
 30
0.0
  0
VERTEX
  5
30E
330
306
100
AcDbEntity
  8
Visible (ISO)
100
AcDbVertex
100
AcDb2dVertex
 10
87.80327381970307
 20
104.8036600176114
 30
0.0
  0
VERTEX
  5
30F
330
306
100
AcDbEntity
  8
Visible (ISO)
100
AcDbVertex
100
AcDb2dVertex
 10
87.78837832095053
 20
104.7644720547241
 30
0.0
  0
VERTEX
  5
310
330
306
100
AcDbEntity
  8
Visible (ISO)
100
AcDbVertex
100
AcDb2dVertex
 10
87.7763618755522
 20
104.7257417754957
 30
0.0
  0
VERTEX
  5
311
330
306
100
AcDbEntity
  8
Visible (ISO)
100
AcDbVertex
100
AcDb2dVertex
 10
87.76608946206
 20
104.6859610056206
 30
0.0
  0
VERTEX
  5
312
330
306
100
AcDbEntity
  8
Visible (ISO)
100
AcDbVertex
100
AcDb2dVertex
 10
87.75742711903479
 20
104.6452657026064
 30
0.0
  0
VERTEX
  5
313
330
306
100
AcDbEntity
  8
Visible (ISO)
100
AcDbVertex
100
AcDb2dVertex
 10
87.75024148108389
 20
104.6037917694185
 30
0.0
  0
VERTEX
  5
314
330
306
100
AcDbEntity
  8
Visible (ISO)
100
AcDbVertex
100
AcDb2dVertex
 10
87.74439858676823
 20
104.5616750345166
 30
0.0
  0
VERTEX
  5
315
330
306
100
AcDbEntity
  8
Visible (ISO)
100
AcDbVertex
100
AcDb2dVertex
 10
87.739765070695
 20
104.5190513063965
 30
0.0
  0
VERTEX
  5
316
330
306
100
AcDbEntity
  8
Visible (ISO)
100
AcDbVertex
100
AcDb2dVertex
 10
87.73620712043674
 20
104.4760566170714
 30
0.0
  0
VERTEX
  5
317
330
306
100
AcDbEntity
  8
Visible (ISO)
100
AcDbVertex
100
AcDb2dVertex
 10
87.73359107257755
 20
104.4328265914473
 30
0.0
  0
VERTEX
  5
318
330
306
100
AcDbEntity
  8
Visible (ISO)
100
AcDbVertex
100
AcDb2dVertex
 10
87.73178341271313
 20
104.3894972615375
 30
0.0
  0
VERTEX
  5
319
330
306
100
AcDbEntity
  8
Visible (ISO)
100
AcDbVertex
100
AcDb2dVertex
 10
87.73065047742756
 20
104.3462045103437
 30
0.0
  0
VERTEX
  5
31A
330
306
100
AcDbEntity
  8
Visible (ISO)
100
AcDbVertex
100
AcDb2dVertex
 10
87.73005845429333
 20
104.3030839627717
 30
0.0
  0
VERTEX
  5
31B
330
306
100
AcDbEntity
  8
Visible (ISO)
100
AcDbVertex
100
AcDb2dVertex
 10
87.72987367989452
 20
104.2602718543886
 30
0.0
  0
VERTEX
  5
31C
330
306
100
AcDbEntity
  8
Visible (ISO)
100
AcDbVertex
100
AcDb2dVertex
 10
87.72996278883846
 20
104.2179038646423
 30
0.0
  0
VERTEX
  5
31D
330
306
100
AcDbEntity
  8
Visible (ISO)
100
AcDbVertex
100
AcDb2dVertex
 10
87.73019181968601
 20
104.1761158219925
 30
0.0
  0
VERTEX
  5
31E
330
306
100
AcDbEntity
  8
Visible (ISO)
100
AcDbVertex
100
AcDb2dVertex
 10
87.73042725803287
 20
104.1350435921516
 30
0.0
  0
VERTEX
  5
31F
330
306
100
AcDbEntity
  8
Visible (ISO)
100
AcDbVertex
100
AcDb2dVertex
 10
87.73053544046319
 20
104.0948231871693
 30
0.0
  0
SEQEND
  5
320
330
306
100
AcDbEntity
  8
Visible (ISO)
  0
POLYLINE
  5
321
330
2
100
AcDbEntity
  8
Visible (ISO)
100
AcDb2dPolyline
 66
     1
 10
0.0
 20
0.0
 30
0.0
 70
   128
  0
VERTEX
  5
322
330
321
100
AcDbEntity
  8
Visible (ISO)
100
AcDbVertex
100
AcDb2dVertex
 10
87.73053544046319
 20
105.905176774569
 30
0.0
  0
VERTEX
  5
323
330
321
100
AcDbEntity
  8
Visible (ISO)
100
AcDbVertex
100
AcDb2dVertex
 10
87.73042725803287
 20
105.8649563370547
 30
0.0
  0
VERTEX
  5
324
330
321
100
AcDbEntity
  8
Visible (ISO)
100
AcDbVertex
100
AcDb2dVertex
 10
87.73019181968601
 20
105.8238841676563
 30
0.0
  0
VERTEX
  5
325
330
321
100
AcDbEntity
  8
Visible (ISO)
100
AcDbVertex
100
AcDb2dVertex
 10
87.72996278883846
 20
105.7820961376196
 30
0.0
  0
VERTEX
  5
326
330
321
100
AcDbEntity
  8
Visible (ISO)
100
AcDbVertex
100
AcDb2dVertex
 10
87.72987367989452
 20
105.7397281020598
 30
0.0
  0
VERTEX
  5
327
330
321
100
AcDbEntity
  8
Visible (ISO)
100
AcDbVertex
100
AcDb2dVertex
 10
87.73005845429333
 20
105.6969159644848
 30
0.0
  0
VERTEX
  5
328
330
321
100
AcDbEntity
  8
Visible (ISO)
100
AcDbVertex
100
AcDb2dVertex
 10
87.73065047742756
 20
105.6537955316166
 30
0.0
  0
VERTEX
  5
329
330
321
100
AcDbEntity
  8
Visible (ISO)
100
AcDbVertex
100
AcDb2dVertex
 10
87.73178341271313
 20
105.6105027230944
 30
0.0
  0
VERTEX
  5
32A
330
321
100
AcDbEntity
  8
Visible (ISO)
100
AcDbVertex
100
AcDb2dVertex
 10
87.73359107257755
 20
105.567173394033
 30
0.0
  0
VERTEX
  5
32B
330
321
100
AcDbEntity
  8
Visible (ISO)
100
AcDbVertex
100
AcDb2dVertex
 10
87.73620712043674
 20
105.5239433995475
 30
0.0
  0
VERTEX
  5
32C
330
321
100
AcDbEntity
  8
Visible (ISO)
100
AcDbVertex
100
AcDb2dVertex
 10
87.739765070695
 20
105.480948627015
 30
0.0
  0
VERTEX
  5
32D
330
321
100
AcDbEntity
  8
Visible (ISO)
100
AcDbVertex
100
AcDb2dVertex
 10
87.74439858676823
 20
105.4383249315504
 30
0.0
  0
VERTEX
  5
32E
330
321
100
AcDbEntity
  8
Visible (ISO)
100
AcDbVertex
100
AcDb2dVertex
 10
87.75024148108389
 20
105.3962081360068
 30
0.0
  0
VERTEX
  5
32F
330
321
100
AcDbEntity
  8
Visible (ISO)
100
AcDbVertex
100
AcDb2dVertex
 10
87.75742711903479
 20
105.3547342245471
 30
0.0
  0
VERTEX
  5
330
330
321
100
AcDbEntity
  8
Visible (ISO)
100
AcDbVertex
100
AcDb2dVertex
 10
87.76608946206
 20
105.3140389232384
 30
0.0
  0
VERTEX
  5
331
330
321
100
AcDbEntity
  8
Visible (ISO)
100
AcDbVertex
100
AcDb2dVertex
 10
87.7763618755522
 20
105.2742581839818
 30
0.0
  0
VERTEX
  5
332
330
321
100
AcDbEntity
  8
Visible (ISO)
100
AcDbVertex
100
AcDb2dVertex
 10
87.78837832095053
 20
105.2355278941541
 30
0.0
  0
VERTEX
  5
333
330
321
100
AcDbEntity
  8
Visible (ISO)
100
AcDbVertex
100
AcDb2dVertex
 10
87.80327381970307
 20
105.1963399361568
 30
0.0
  0
VERTEX
  5
334
330
321
100
AcDbEntity
  8
Visible (ISO)
100
AcDbVertex
100
AcDb2dVertex
 10
87.82203542472741
 20
105.1563848532664
 30
0.0
  0
VERTEX
  5
335
330
321
100
AcDbEntity
  8
Visible (ISO)
100
AcDbVertex
100
AcDb2dVertex
 10
87.84437658669373
 20
105.1179629877797
 30
0.0
  0
VERTEX
  5
336
330
321
100
AcDbEntity
  8
Visible (ISO)
100
AcDbVertex
100
AcDb2dVertex
 10
87.87001328946969
 20
105.083373391515
 30
0.0
  0
VERTEX
  5
337
330
321
100
AcDbEntity
  8
Visible (ISO)
100
AcDbVertex
100
AcDb2dVertex
 10
87.90180819513222
 20
105.0516605297308
 30
0.0
  0
VERTEX
  5
338
330
321
100
AcDbEntity
  8
Visible (ISO)
100
AcDbVertex
100
AcDb2dVertex
 10
87.93977918507478
 20
105.0246593336838
 30
0.0
  0
VERTEX
  5
339
330
321
100
AcDbEntity
  8
Visible (ISO)
100
AcDbVertex
100
AcDb2dVertex
 10
87.98276173355004
 20
105.0069310638522
 30
0.0
  0
VERTEX
  5
33A
330
321
100
AcDbEntity
  8
Visible (ISO)
100
AcDbVertex
100
AcDb2dVertex
 10
88.03053545238396
 20
104.9999999688147
 30
0.0
  0
SEQEND
  5
33B
330
321
100
AcDbEntity
  8
Visible (ISO)
  0
LINE
  5
33C
330
2
100
AcDbEntity
  8
Visible (ISO)
100
AcDbLine
 10
87.73053540470039
 20
105.9051768120563
 30
0.0
 11
87.73053540470039
 21
104.0948231879091
 31
0.0
  0
POLYLINE
  5
33D
330
2
100
AcDbEntity
  8
Visible (ISO)
100
AcDb2dPolyline
 66
     1
 10
0.0
 20
0.0
 30
0.0
 70
   128
  0
VERTEX
  5
33E
330
33D
100
AcDbEntity
  8
Visible (ISO)
100
AcDbVertex
100
AcDb2dVertex
 10
88.0305354523843
 20
106.9499999596252
 30
0.0
  0
VERTEX
  5
33F
330
33D
100
AcDbEntity
  8
Visible (ISO)
100
AcDbVertex
100
AcDb2dVertex
 10
87.98276173355038
 20
106.9430688645876
 30
0.0
  0
VERTEX
  5
340
330
33D
100
AcDbEntity
  8
Visible (ISO)
100
AcDbVertex
100
AcDb2dVertex
 10
87.93977918507511
 20
106.925340594756
 30
0.0
  0
VERTEX
  5
341
330
33D
100
AcDbEntity
  8
Visible (ISO)
100
AcDbVertex
100
AcDb2dVertex
 10
87.90180819513256
 20
106.898339398709
 30
0.0
  0
VERTEX
  5
342
330
33D
100
AcDbEntity
  8
Visible (ISO)
100
AcDbVertex
100
AcDb2dVertex
 10
87.87001328947003
 20
106.8666265369248
 30
0.0
  0
VERTEX
  5
343
330
33D
100
AcDbEntity
  8
Visible (ISO)
100
AcDbVertex
100
AcDb2dVertex
 10
87.84437658669407
 20
106.8320369406601
 30
0.0
  0
VERTEX
  5
344
330
33D
100
AcDbEntity
  8
Visible (ISO)
100
AcDbVertex
100
AcDb2dVertex
 10
87.82203542472775
 20
106.7936150751733
 30
0.0
  0
VERTEX
  5
345
330
33D
100
AcDbEntity
  8
Visible (ISO)
100
AcDbVertex
100
AcDb2dVertex
 10
87.80327381970336
 20
106.753659992283
 30
0.0
  0
VERTEX
  5
346
330
33D
100
AcDbEntity
  8
Visible (ISO)
100
AcDbVertex
100
AcDb2dVertex
 10
87.78837832095076
 20
106.7144720342858
 30
0.0
  0
VERTEX
  5
347
330
33D
100
AcDbEntity
  8
Visible (ISO)
100
AcDbVertex
100
AcDb2dVertex
 10
87.77636187555243
 20
106.6757417444581
 30
0.0
  0
VERTEX
  5
348
330
33D
100
AcDbEntity
  8
Visible (ISO)
100
AcDbVertex
100
AcDb2dVertex
 10
87.76608946206023
 20
106.6359610052014
 30
0.0
  0
VERTEX
  5
349
330
33D
100
AcDbEntity
  8
Visible (ISO)
100
AcDbVertex
100
AcDb2dVertex
 10
87.75742711903502
 20
106.5952657038928
 30
0.0
  0
VERTEX
  5
34A
330
33D
100
AcDbEntity
  8
Visible (ISO)
100
AcDbVertex
100
AcDb2dVertex
 10
87.75024148108405
 20
106.553791792433
 30
0.0
  0
VERTEX
  5
34B
330
33D
100
AcDbEntity
  8
Visible (ISO)
100
AcDbVertex
100
AcDb2dVertex
 10
87.74439858676833
 20
106.5116749968894
 30
0.0
  0
VERTEX
  5
34C
330
33D
100
AcDbEntity
  8
Visible (ISO)
100
AcDbVertex
100
AcDb2dVertex
 10
87.73976507069511
 20
106.4690513014248
 30
0.0
  0
VERTEX
  5
34D
330
33D
100
AcDbEntity
  8
Visible (ISO)
100
AcDbVertex
100
AcDb2dVertex
 10
87.73620712043685
 20
106.4260565288923
 30
0.0
  0
VERTEX
  5
34E
330
33D
100
AcDbEntity
  8
Visible (ISO)
100
AcDbVertex
100
AcDb2dVertex
 10
87.73359107257766
 20
106.3828265344068
 30
0.0
  0
VERTEX
  5
34F
330
33D
100
AcDbEntity
  8
Visible (ISO)
100
AcDbVertex
100
AcDb2dVertex
 10
87.73178341271323
 20
106.3394972053454
 30
0.0
  0
VERTEX
  5
350
330
33D
100
AcDbEntity
  8
Visible (ISO)
100
AcDbVertex
100
AcDb2dVertex
 10
87.73065047742766
 20
106.2962043968231
 30
0.0
  0
VERTEX
  5
351
330
33D
100
AcDbEntity
  8
Visible (ISO)
100
AcDbVertex
100
AcDb2dVertex
 10
87.73005845429343
 20
106.253083963955
 30
0.0
  0
VERTEX
  5
352
330
33D
100
AcDbEntity
  8
Visible (ISO)
100
AcDbVertex
100
AcDb2dVertex
 10
87.72987367989463
 20
106.21027182638
 30
0.0
  0
VERTEX
  5
353
330
33D
100
AcDbEntity
  8
Visible (ISO)
100
AcDbVertex
100
AcDb2dVertex
 10
87.72996278883857
 20
106.1679037908202
 30
0.0
  0
VERTEX
  5
354
330
33D
100
AcDbEntity
  8
Visible (ISO)
100
AcDbVertex
100
AcDb2dVertex
 10
87.73019181968612
 20
106.1261157607835
 30
0.0
  0
VERTEX
  5
355
330
33D
100
AcDbEntity
  8
Visible (ISO)
100
AcDbVertex
100
AcDb2dVertex
 10
87.73042725803293
 20
106.085043591385
 30
0.0
  0
VERTEX
  5
356
330
33D
100
AcDbEntity
  8
Visible (ISO)
100
AcDbVertex
100
AcDb2dVertex
 10
87.73053544046319
 20
106.0448231538708
 30
0.0
  0
SEQEND
  5
357
330
33D
100
AcDbEntity
  8
Visible (ISO)
  0
LINE
  5
358
330
2
100
AcDbEntity
  8
Visible (ISO)
100
AcDbLine
 10
87.72987367989498
 20
106.9500000107062
 30
0.0
 11
88.0305354523843
 21
106.9499999596252
 31
0.0
  0
LINE
  5
359
330
2
100
AcDbEntity
  8
Visible (ISO)
100
AcDbLine
 10
87.7305354047009
 20
106.9499999999827
 30
0.0
 11
87.73053540470044
 21
106.0448231879091
 31
0.0
  0
LINE
  5
35A
330
2
100
AcDbEntity
  8
Visible (ISO)
100
AcDbLine
 10
89.33053540470059
 20
106.9499999999827
 30
0.0
 11
88.03053540470058
 21
106.9499999999827
 31
0.0
  0
LINE
  5
35B
330
2
100
AcDbEntity
  8
Visible (ISO)
100
AcDbLine
 10
87.73053540470044
 20
106.0448231879091
 30
0.0
 11
87.73053540470039
 21
105.9051768120563
 31
0.0
  0
LINE
  5
35C
330
2
100
AcDbEntity
  8
Visible (ISO)
100
AcDbLine
 10
89.33053540470025
 20
104.9999999999827
 30
0.0
 11
88.03053540470022
 21
104.9999999999827
 31
0.0
  0
LINE
  5
35D
330
2
100
AcDbEntity
  8
Visible (ISO)
100
AcDbLine
 10
89.33053540470025
 20
104.9999999999827
 30
0.0
 11
89.33053540470035
 21
105.5901298920241
 31
0.0
  0
LINE
  5
35E
330
2
100
AcDbEntity
  8
Visible (ISO)
100
AcDbLine
 10
89.33053540470046
 20
106.3598701079412
 30
0.0
 11
89.33053540470059
 21
106.9499999999827
 31
0.0
  0
LINE
  5
35F
330
2
100
AcDbEntity
  8
Visible (ISO)
100
AcDbLine
 10
87.73053540470039
 20
104.0948231879091
 30
0.0
 11
87.73053540470044
 21
103.9551768120563
 31
0.0
  0
LINE
  5
360
330
2
100
AcDbEntity
  8
Visible (ISO)
100
AcDbLine
 10
89.33053540470059
 20
103.0499999999827
 30
0.0
 11
88.03053540470058
 21
103.0499999999827
 31
0.0
  0
LINE
  5
361
330
2
100
AcDbEntity
  8
Visible (ISO)
100
AcDbLine
 10
89.33053540470059
 20
103.0499999999827
 30
0.0
 11
89.33053540470046
 21
103.6401298920242
 31
0.0
  0
LINE
  5
362
330
2
100
AcDbEntity
  8
Visible (ISO)
100
AcDbLine
 10
89.33053540470035
 20
104.4098701079412
 30
0.0
 11
89.33053540470025
 21
104.9999999999827
 31
0.0
  0
LINE
  5
363
330
2
100
AcDbEntity
  8
Visible (ISO)
100
AcDbLine
 10
190.7999999999996
 20
107.65
 30
0.0
 11
191.0999999999996
 21
107.65
 31
0.0
  0
LINE
  5
364
330
2
100
AcDbEntity
  8
Visible (ISO)
100
AcDbLine
 10
191.0999999999996
 20
102.3499999999999
 30
0.0
 11
190.7999999999996
 21
102.3499999999999
 31
0.0
  0
LINE
  5
365
330
2
100
AcDbEntity
  8
Visible (ISO)
100
AcDbLine
 10
194.4999999999999
 20
102.0
 30
0.0
 11
193.4999999999999
 21
102.0
 31
0.0
  0
LINE
  5
366
330
2
100
AcDbEntity
  8
Visible (ISO)
100
AcDbLine
 10
193.4999999999999
 20
108.0
 30
0.0
 11
194.4999999999999
 21
108.0
 31
0.0
  0
LINE
  5
367
330
2
100
AcDbEntity
  8
Visible (ISO)
100
AcDbLine
 10
194.4999999999999
 20
107.2
 30
0.0
 11
193.4999999999999
 21
107.2
 31
0.0
  0
LINE
  5
368
330
2
100
AcDbEntity
  8
Visible (ISO)
100
AcDbLine
 10
193.4999999999999
 20
102.7999999999999
 30
0.0
 11
194.4999999999999
 21
102.7999999999999
 31
0.0
  0
LINE
  5
369
330
2
100
AcDbEntity
  8
Visible (ISO)
100
AcDbLine
 10
192.4999999999996
 20
102.0
 30
0.0
 11
193.4999999999999
 21
102.0
 31
0.0
  0
LINE
  5
36A
330
2
100
AcDbEntity
  8
Visible (ISO)
100
AcDbLine
 10
193.4999999999999
 20
108.0
 30
0.0
 11
192.4999999999996
 21
108.0
 31
0.0
  0
LINE
  5
36B
330
2
100
AcDbEntity
  8
Visible (ISO)
100
AcDbLine
 10
192.4999999999996
 20
107.2
 30
0.0
 11
192.4999999999996
 21
108.0
 31
0.0
  0
LINE
  5
36C
330
2
100
AcDbEntity
  8
Visible (ISO)
100
AcDbLine
 10
192.4999999999996
 20
107.2
 30
0.0
 11
193.4999999999999
 21
107.2
 31
0.0
  0
LINE
  5
36D
330
2
100
AcDbEntity
  8
Visible (ISO)
100
AcDbLine
 10
193.4999999999999
 20
107.2
 30
0.0
 11
193.4999999999999
 21
108.0
 31
0.0
  0
LINE
  5
36E
330
2
100
AcDbEntity
  8
Visible (ISO)
100
AcDbLine
 10
193.4999999999999
 20
102.7999999999999
 30
0.0
 11
192.4999999999996
 21
102.7999999999999
 31
0.0
  0
LINE
  5
36F
330
2
100
AcDbEntity
  8
Visible (ISO)
100
AcDbLine
 10
192.4999999999996
 20
102.0
 30
0.0
 11
192.4999999999996
 21
102.7999999999999
 31
0.0
  0
LINE
  5
370
330
2
100
AcDbEntity
  8
Visible (ISO)
100
AcDbLine
 10
193.4999999999999
 20
102.0
 30
0.0
 11
193.4999999999999
 21
102.7999999999999
 31
0.0
  0
LINE
  5
371
330
2
100
AcDbEntity
  8
Visible (ISO)
100
AcDbLine
 10
192.4999999999996
 20
102.0
 30
0.0
 11
190.7999999999996
 21
102.0
 31
0.0
  0
LINE
  5
372
330
2
100
AcDbEntity
  8
Visible (ISO)
100
AcDbLine
 10
192.4999999999996
 20
108.0
 30
0.0
 11
190.7999999999996
 21
108.0
 31
0.0
  0
LINE
  5
373
330
2
100
AcDbEntity
  8
Visible (ISO)
100
AcDbLine
 10
190.7999999999996
 20
108.0
 30
0.0
 11
190.7999999999996
 21
107.65
 31
0.0
  0
LINE
  5
374
330
2
100
AcDbEntity
  8
Visible (ISO)
100
AcDbLine
 10
190.7999999999996
 20
106.85
 30
0.0
 11
190.7999999999996
 21
103.15
 31
0.0
  0
LINE
  5
375
330
2
100
AcDbEntity
  8
Visible (ISO)
100
AcDbLine
 10
190.7999999999996
 20
102.3499999999999
 30
0.0
 11
190.7999999999996
 21
102.0
 31
0.0
  0
LINE
  5
376
330
2
100
AcDbEntity
  8
Visible (ISO)
100
AcDbLine
 10
191.0999999999996
 20
107.65
 30
0.0
 11
191.0999999999996
 21
106.85
 31
0.0
  0
LINE
  5
377
330
2
100
AcDbEntity
  8
Visible (ISO)
100
AcDbLine
 10
190.7999999999986
 20
106.85
 30
0.0
 11
190.7999999999986
 21
107.65
 31
0.0
  0
LINE
  5
378
330
2
100
AcDbEntity
  8
Visible (ISO)
100
AcDbLine
 10
191.0999999999996
 20
106.85
 30
0.0
 11
190.7999999999996
 21
106.85
 31
0.0
  0
LINE
  5
379
330
2
100
AcDbEntity
  8
Visible (ISO)
100
AcDbLine
 10
191.0999999999996
 20
103.15
 30
0.0
 11
191.0999999999996
 21
102.3499999999999
 31
0.0
  0
LINE
  5
37A
330
2
100
AcDbEntity
  8
Visible (ISO)
100
AcDbLine
 10
190.7999999999996
 20
103.15
 30
0.0
 11
191.0999999999996
 21
103.15
 31
0.0
  0
LINE
  5
37B
330
2
100
AcDbEntity
  8
Visible (ISO)
100
AcDbLine
 10
190.7999999999986
 20
102.3499999999999
 30
0.0
 11
190.7999999999986
 21
103.15
 31
0.0
  0
LINE
  5
37C
330
2
100
AcDbEntity
  8
Visible (ISO)
100
AcDbLine
 10
194.1999999999996
 20
102.7999999999999
 30
0.0
 11
194.1999999999996
 21
103.2999999999999
 31
0.0
  0
LINE
  5
37D
330
2
100
AcDbEntity
  8
Visible (ISO)
100
AcDbLine
 10
194.1999999999996
 20
106.7
 30
0.0
 11
194.1999999999996
 21
107.2
 31
0.0
  0
LINE
  5
37E
330
2
100
AcDbEntity
  8
Visible (ISO)
100
AcDbLine
 10
193.6000000000007
 20
103.5999999999999
 30
0.0
 11
193.6000000000007
 21
106.4
 31
0.0
  0
ARC
  5
37F
330
2
100
AcDbEntity
  8
Visible (ISO)
100
AcDbCircle
 10
193.9000000000006
 20
103.5999999999999
 30
0.0
 40
0.3
100
AcDbArc
 50
180.0
 51
270.0
  0
ARC
  5
380
330
2
100
AcDbEntity
  8
Visible (ISO)
100
AcDbCircle
 10
193.9000000000006
 20
106.4
 30
0.0
 40
0.3
100
AcDbArc
 50
90.0
 51
180.0
  0
LINE
  5
381
330
2
100
AcDbEntity
  8
Visible (ISO)
100
AcDbLine
 10
193.9000000000006
 20
106.7
 30
0.0
 11
194.5000000000007
 21
106.7
 31
0.0
  0
LINE
  5
382
330
2
100
AcDbEntity
  8
Visible (ISO)
100
AcDbLine
 10
193.9000000000006
 20
103.2999999999999
 30
0.0
 11
194.5000000000007
 21
103.2999999999999
 31
0.0
  0
LINE
  5
383
330
2
100
AcDbEntity
  8
Visible (ISO)
100
AcDbLine
 10
191.5000000000013
 20
108.5999999999999
 30
0.0
 11
196.7000000000013
 21
108.5999999999999
 31
0.0
  0
LINE
  5
384
330
2
100
AcDbEntity
  8
Visible (ISO)
100
AcDbLine
 10
191.5000000000013
 20
109.5
 30
0.0
 11
196.7000000000013
 21
109.5
 31
0.0
  0
LINE
  5
385
330
2
100
AcDbEntity
  8
Visible (ISO)
100
AcDbLine
 10
191.5000000000012
 20
108.6
 30
0.0
 11
189.5000000000007
 21
108.6
 31
0.0
  0
LINE
  5
386
330
2
100
AcDbEntity
  8
Visible Narrow (ISO)
100
AcDbLine
 10
191.5000000000013
 20
108.5999999999999
 30
0.0
 11
191.5000000000013
 21
109.5
 31
0.0
  0
LINE
  5
387
330
2
100
AcDbEntity
  8
Visible (ISO)
100
AcDbLine
 10
189.5000000000007
 20
109.5
 30
0.0
 11
191.5000000000012
 21
109.5
 31
0.0
  0
LINE
  5
388
330
2
100
AcDbEntity
  8
Visible (ISO)
100
AcDbLine
 10
189.5000000000007
 20
109.5
 30
0.0
 11
189.5000000000007
 21
108.5999999999999
 31
0.0
  0
LINE
  5
389
330
2
100
AcDbEntity
  8
Visible (ISO)
100
AcDbLine
 10
196.7000000000013
 20
109.5
 30
0.0
 11
196.7000000000013
 21
108.5999999999999
 31
0.0
  0
LINE
  5
38A
330
2
100
AcDbEntity
  8
Visible (ISO)
100
AcDbLine
 10
197.7892519671829
 20
109.3276176088975
 30
0.0
 11
196.7000000000007
 21
109.3847028855772
 31
0.0
  0
ELLIPSE
  5
38B
330
2
100
AcDbEntity
  8
Visible Narrow (ISO)
100
AcDbEllipse
 10
197.7500000000007
 20
101.4213545421682
 30
0.0
 11
0.0392519671822096
 21
-0.748972151065932
 31
0.0
210
0.0
220
0.0
230
1.0
 40
0.0522644276890095
 41
0.0
 42
1.568057271054091
  0
ARC
  5
38C
330
2
100
AcDbEntity
  8
Visible (ISO)
100
AcDbCircle
 10
197.7500000000007
 20
101.4213545421682
 30
0.0
 40
0.7499999999999995
100
AcDbArc
 50
272.9999999999991
 51
0.0
  0
LINE
  5
38D
330
2
100
AcDbEntity
  8
Visible Narrow (ISO)
100
AcDbLine
 10
197.7892519671831
 20
101.4213545421682
 30
0.0
 11
198.5000000000006
 21
101.4213545421682
 31
0.0
  0
LINE
  5
38E
330
2
100
AcDbEntity
  8
Visible (ISO)
100
AcDbLine
 10
194.5000000000008
 20
100.5
 30
0.0
 11
194.500000000001
 21
101.2489721510659
 31
0.0
  0
LINE
  5
38F
330
2
100
AcDbEntity
  8
Visible (ISO)
100
AcDbLine
 10
194.5000000000008
 20
100.5
 30
0.0
 11
197.7892519671829
 21
100.6723823911023
 31
0.0
  0
LINE
  5
390
330
2
100
AcDbEntity
  8
Visible Narrow (ISO)
100
AcDbLine
 10
197.7892519671831
 20
101.4213545421682
 30
0.0
 11
194.5000000000009
 21
101.2489721510659
 31
0.0
  0
LINE
  5
391
330
2
100
AcDbEntity
  8
Visible (ISO)
100
AcDbLine
 10
197.7892519671831
 20
103.0
 30
0.0
 11
198.5000000000007
 21
103.0
 31
0.0
  0
LINE
  5
392
330
2
100
AcDbEntity
  8
Visible Narrow (ISO)
100
AcDbLine
 10
197.7892519671831
 20
103.0
 30
0.0
 11
197.7892519671831
 21
101.4213545421682
 31
0.0
  0
LINE
  5
393
330
2
100
AcDbEntity
  8
Visible (ISO)
100
AcDbLine
 10
198.5000000000006
 20
101.4213545421682
 30
0.0
 11
198.5000000000006
 21
103.0
 31
0.0
  0
LINE
  5
394
330
2
100
AcDbEntity
  8
Visible Narrow (ISO)
100
AcDbLine
 10
198.5000000000006
 20
108.5786454578316
 30
0.0
 11
197.7892519671831
 21
108.5786454578316
 31
0.0
  0
ARC
  5
395
330
2
100
AcDbEntity
  8
Visible (ISO)
100
AcDbCircle
 10
197.7500000000007
 20
108.5786454578316
 30
0.0
 40
0.7500000000000007
100
AcDbArc
 50
0.0
 51
87.00000000000093
  0
ELLIPSE
  5
396
330
2
100
AcDbEntity
  8
Visible Narrow (ISO)
100
AcDbEllipse
 10
197.7500000000007
 20
108.5786454578316
 30
0.0
 11
0.039251967182208
 21
0.7489721510659311
 31
0.0
210
0.0
220
0.0
230
1.0
 40
0.052264427689008
 41
4.715128036120352
 42
6.283185307169312
  0
LINE
  5
397
330
2
100
AcDbEntity
  8
Visible Narrow (ISO)
100
AcDbLine
 10
196.7000000000009
 20
108.6357307345113
 30
0.0
 11
197.7892519671831
 21
108.5786454578316
 31
0.0
  0
LINE
  5
398
330
2
100
AcDbEntity
  8
Visible (ISO)
100
AcDbLine
 10
198.5000000000007
 20
107.0
 30
0.0
 11
197.7892519671831
 21
107.0
 31
0.0
  0
LINE
  5
399
330
2
100
AcDbEntity
  8
Visible (ISO)
100
AcDbLine
 10
198.5000000000006
 20
107.0
 30
0.0
 11
198.5000000000006
 21
108.5786454578316
 31
0.0
  0
LINE
  5
39A
330
2
100
AcDbEntity
  8
Visible Narrow (ISO)
100
AcDbLine
 10
197.7892519671831
 20
108.5786454578316
 30
0.0
 11
197.7892519671831
 21
107.0
 31
0.0
  0
LINE
  5
39B
330
2
100
AcDbEntity
  8
Visible (ISO)
100
AcDbLine
 10
194.5000000000009
 20
101.2489721510659
 30
0.0
 11
194.5000000000009
 21
103.2679491924311
 31
0.0
  0
LINE
  5
39C
330
2
100
AcDbEntity
  8
Visible (ISO)
100
AcDbLine
 10
194.5000000000009
 20
106.7320508075688
 30
0.0
 11
194.5000000000009
 21
108.5999999999999
 31
0.0
  0
LINE
  5
39D
330
2
100
AcDbEntity
  8
Visible (ISO)
100
AcDbLine
 10
194.5000000000009
 20
103.2679491924311
 30
0.0
 11
194.5000000000009
 21
106.7320508075688
 31
0.0
  0
ELLIPSE
  5
39E
330
2
100
AcDbEntity
  8
Visible (ISO)
100
AcDbEllipse
 10
213.5811366877289
 20
105.0
 30
0.0
 11
38.16227337545584
 21
-0.0000000000000117
 31
0.0
210
0.0
220
0.0
230
1.0
 40
0.052407779283042
 41
2.029015224848718
 42
2.094395102393195
  0
ELLIPSE
  5
39F
330
2
100
AcDbEntity
  8
Visible (ISO)
100
AcDbEllipse
 10
213.5811366877289
 20
105.0
 30
0.0
 11
38.16227337545584
 21
-0.0000000000000117
 31
0.0
210
0.0
220
0.0
230
1.0
 40
0.052407779283042
 41
4.188790204786389
 42
4.254170082330867
  0
LINE
  5
3A0
330
2
100
AcDbEntity
  8
Visible (ISO)
100
AcDbLine
 10
198.5000000000003
 20
107.0
 30
0.0
 11
198.5
 21
105.0
 31
0.0
  0
LINE
  5
3A1
330
2
100
AcDbEntity
  8
Visible (ISO)
100
AcDbLine
 10
198.5
 20
105.0
 30
0.0
 11
198.5000000000003
 21
103.0
 31
0.0
  0
LINE
  5
3A2
330
2
100
AcDbEntity
  8
Visible (ISO)
100
AcDbLine
 10
196.7000000000009
 20
107.0
 30
0.0
 11
197.7892519671831
 21
107.0
 31
0.0
  0
LINE
  5
3A3
330
2
100
AcDbEntity
  8
Visible (ISO)
100
AcDbLine
 10
197.7892519671831
 20
103.0
 30
0.0
 11
196.7000000000009
 21
103.0
 31
0.0
  0
LINE
  5
3A4
330
2
100
AcDbEntity
  8
Visible (ISO)
100
AcDbLine
 10
198.5
 20
105.0
 30
0.0
 11
198.3
 21
105.0
 31
0.0
  0
LINE
  5
3A5
330
2
100
AcDbEntity
  8
Visible (ISO)
100
AcDbLine
 10
196.7000000000009
 20
106.95
 30
0.0
 11
196.7000000000009
 21
107.0
 31
0.0
  0
LINE
  5
3A6
330
2
100
AcDbEntity
  8
Visible (ISO)
100
AcDbLine
 10
196.7000000000009
 20
103.0
 30
0.0
 11
196.7000000000009
 21
103.0499999999999
 31
0.0
  0
LINE
  5
3A7
330
2
100
AcDbEntity
  8
Visible (ISO)
100
AcDbLine
 10
196.7000000000012
 20
104.4098701079585
 30
0.0
 11
196.7000000000011
 21
103.6401298920414
 31
0.0
  0
LINE
  5
3A8
330
2
100
AcDbEntity
  8
Visible (ISO)
100
AcDbLine
 10
196.7000000000011
 20
106.3598701079585
 30
0.0
 11
196.7000000000012
 21
105.5901298920414
 31
0.0
  0
LINE
  5
3A9
330
2
100
AcDbEntity
  8
Visible (ISO)
100
AcDbLine
 10
197.9999999523173
 20
106.9499999908105
 30
0.0
 11
198.3006617248066
 21
106.9500000415062
 31
0.0
  0
POLYLINE
  5
3AA
330
2
100
AcDbEntity
  8
Visible (ISO)
100
AcDb2dPolyline
 66
     1
 10
0.0
 20
0.0
 30
0.0
 70
   128
  0
VERTEX
  5
3AB
330
3AA
100
AcDbEntity
  8
Visible (ISO)
100
AcDbVertex
100
AcDb2dVertex
 10
198.2999999642384
 20
106.0448231073883
 30
0.0
  0
VERTEX
  5
3AC
330
3AA
100
AcDbEntity
  8
Visible (ISO)
100
AcDbVertex
100
AcDb2dVertex
 10
198.3001081466687
 20
106.0850436414185
 30
0.0
  0
VERTEX
  5
3AD
330
3AA
100
AcDbEntity
  8
Visible (ISO)
100
AcDbVertex
100
AcDb2dVertex
 10
198.3003435850155
 20
106.1261157422115
 30
0.0
  0
VERTEX
  5
3AE
330
3AA
100
AcDbEntity
  8
Visible (ISO)
100
AcDbVertex
100
AcDb2dVertex
 10
198.300572615863
 20
106.1679037848614
 30
0.0
  0
VERTEX
  5
3AF
330
3AA
100
AcDbEntity
  8
Visible (ISO)
100
AcDbVertex
100
AcDb2dVertex
 10
198.3006617248069
 20
106.2102719036555
 30
0.0
  0
VERTEX
  5
3B0
330
3AA
100
AcDbEntity
  8
Visible (ISO)
100
AcDbVertex
100
AcDb2dVertex
 10
198.3004769504081
 20
106.2530840492915
 30
0.0
  0
VERTEX
  5
3B1
330
3AA
100
AcDbEntity
  8
Visible (ISO)
100
AcDbVertex
100
AcDb2dVertex
 10
198.2998849272739
 20
106.2962043933098
 30
0.0
  0
VERTEX
  5
3B2
330
3AA
100
AcDbEntity
  8
Visible (ISO)
100
AcDbVertex
100
AcDb2dVertex
 10
198.2987519919883
 20
106.3394972921779
 30
0.0
  0
VERTEX
  5
3B3
330
3AA
100
AcDbEntity
  8
Visible (ISO)
100
AcDbVertex
100
AcDb2dVertex
 10
198.2969443321239
 20
106.3828265116663
 30
0.0
  0
VERTEX
  5
3B4
330
3AA
100
AcDbEntity
  8
Visible (ISO)
100
AcDbVertex
100
AcDb2dVertex
 10
198.2943282842647
 20
106.4260565000375
 30
0.0
  0
VERTEX
  5
3B5
330
3AA
100
AcDbEntity
  8
Visible (ISO)
100
AcDbVertex
100
AcDb2dVertex
 10
198.2907703340065
 20
106.4690513370369
 30
0.0
  0
VERTEX
  5
3B6
330
3AA
100
AcDbEntity
  8
Visible (ISO)
100
AcDbVertex
100
AcDb2dVertex
 10
198.2861368179332
 20
106.5116750465306
 30
0.0
  0
VERTEX
  5
3B7
330
3AA
100
AcDbEntity
  8
Visible (ISO)
100
AcDbVertex
100
AcDb2dVertex
 10
198.2802939236174
 20
106.5537918373119
 30
0.0
  0
VERTEX
  5
3B8
330
3AA
100
AcDbEntity
  8
Visible (ISO)
100
AcDbVertex
100
AcDb2dVertex
 10
198.2731082856665
 20
106.5952657704997
 30
0.0
  0
VERTEX
  5
3B9
330
3AA
100
AcDbEntity
  8
Visible (ISO)
100
AcDbVertex
100
AcDb2dVertex
 10
198.2644459426414
 20
106.635961036261
 30
0.0
  0
VERTEX
  5
3BA
330
3AA
100
AcDbEntity
  8
Visible (ISO)
100
AcDbVertex
100
AcDb2dVertex
 10
198.2541735291492
 20
106.6757417968229
 30
0.0
  0
VERTEX
  5
3BB
330
3AA
100
AcDbEntity
  8
Visible (ISO)
100
AcDbVertex
100
AcDb2dVertex
 10
198.2421570837508
 20
106.7144721412439
 30
0.0
  0
VERTEX
  5
3BC
330
3AA
100
AcDbEntity
  8
Visible (ISO)
100
AcDbVertex
100
AcDb2dVertex
 10
198.2272615849982
 20
106.7536599378304
 30
0.0
  0
VERTEX
  5
3BD
330
3AA
100
AcDbEntity
  8
Visible (ISO)
100
AcDbVertex
100
AcDb2dVertex
 10
198.2084999799739
 20
106.7936151437789
 30
0.0
  0
VERTEX
  5
3BE
330
3AA
100
AcDbEntity
  8
Visible (ISO)
100
AcDbVertex
100
AcDb2dVertex
 10
198.1861588180075
 20
106.8320370303847
 30
0.0
  0
VERTEX
  5
3BF
330
3AA
100
AcDbEntity
  8
Visible (ISO)
100
AcDbVertex
100
AcDb2dVertex
 10
198.1605221152316
 20
106.8666265685587
 30
0.0
  0
VERTEX
  5
3C0
330
3AA
100
AcDbEntity
  8
Visible (ISO)
100
AcDbVertex
100
AcDb2dVertex
 10
198.128727209569
 20
106.8983395083448
 30
0.0
  0
VERTEX
  5
3C1
330
3AA
100
AcDbEntity
  8
Visible (ISO)
100
AcDbVertex
100
AcDb2dVertex
 10
198.0907562196265
 20
106.9253406899592
 30
0.0
  0
VERTEX
  5
3C2
330
3AA
100
AcDbEntity
  8
Visible (ISO)
100
AcDbVertex
100
AcDb2dVertex
 10
198.0477736711512
 20
106.943068849135
 30
0.0
  0
VERTEX
  5
3C3
330
3AA
100
AcDbEntity
  8
Visible (ISO)
100
AcDbVertex
100
AcDb2dVertex
 10
197.9999999523173
 20
106.9499999908105
 30
0.0
  0
SEQEND
  5
3C4
330
3AA
100
AcDbEntity
  8
Visible (ISO)
  0
LINE
  5
3C5
330
2
100
AcDbEntity
  8
Visible (ISO)
100
AcDbLine
 10
198.3000000000012
 20
106.0448231879264
 30
0.0
 11
198.3000000000007
 21
106.95
 31
0.0
  0
POLYLINE
  5
3C6
330
2
100
AcDbEntity
  8
Visible (ISO)
100
AcDb2dPolyline
 66
     1
 10
0.0
 20
0.0
 30
0.0
 70
   128
  0
VERTEX
  5
3C7
330
3C6
100
AcDbEntity
  8
Visible (ISO)
100
AcDbVertex
100
AcDb2dVertex
 10
197.9999999523173
 20
103.0500000403575
 30
0.0
  0
VERTEX
  5
3C8
330
3C6
100
AcDbEntity
  8
Visible (ISO)
100
AcDbVertex
100
AcDb2dVertex
 10
198.0477736711512
 20
103.056931135395
 30
0.0
  0
VERTEX
  5
3C9
330
3C6
100
AcDbEntity
  8
Visible (ISO)
100
AcDbVertex
100
AcDb2dVertex
 10
198.0907562196265
 20
103.0746594052266
 30
0.0
  0
VERTEX
  5
3CA
330
3C6
100
AcDbEntity
  8
Visible (ISO)
100
AcDbVertex
100
AcDb2dVertex
 10
198.128727209569
 20
103.1016606012736
 30
0.0
  0
VERTEX
  5
3CB
330
3C6
100
AcDbEntity
  8
Visible (ISO)
100
AcDbVertex
100
AcDb2dVertex
 10
198.1605221152316
 20
103.1333734630578
 30
0.0
  0
VERTEX
  5
3CC
330
3C6
100
AcDbEntity
  8
Visible (ISO)
100
AcDbVertex
100
AcDb2dVertex
 10
198.1861588180075
 20
103.1679630593225
 30
0.0
  0
VERTEX
  5
3CD
330
3C6
100
AcDbEntity
  8
Visible (ISO)
100
AcDbVertex
100
AcDb2dVertex
 10
198.2084999799739
 20
103.2063849248093
 30
0.0
  0
VERTEX
  5
3CE
330
3C6
100
AcDbEntity
  8
Visible (ISO)
100
AcDbVertex
100
AcDb2dVertex
 10
198.2272615849982
 20
103.2463400076997
 30
0.0
  0
VERTEX
  5
3CF
330
3C6
100
AcDbEntity
  8
Visible (ISO)
100
AcDbVertex
100
AcDb2dVertex
 10
198.2421570837508
 20
103.2855279656969
 30
0.0
  0
VERTEX
  5
3D0
330
3C6
100
AcDbEntity
  8
Visible (ISO)
100
AcDbVertex
100
AcDb2dVertex
 10
198.2541735291492
 20
103.3242582555246
 30
0.0
  0
VERTEX
  5
3D1
330
3C6
100
AcDbEntity
  8
Visible (ISO)
100
AcDbVertex
100
AcDb2dVertex
 10
198.2644459426414
 20
103.3640389947812
 30
0.0
  0
VERTEX
  5
3D2
330
3C6
100
AcDbEntity
  8
Visible (ISO)
100
AcDbVertex
100
AcDb2dVertex
 10
198.2731082856665
 20
103.4047342960899
 30
0.0
  0
VERTEX
  5
3D3
330
3C6
100
AcDbEntity
  8
Visible (ISO)
100
AcDbVertex
100
AcDb2dVertex
 10
198.2802939236174
 20
103.4462082075496
 30
0.0
  0
VERTEX
  5
3D4
330
3C6
100
AcDbEntity
  8
Visible (ISO)
100
AcDbVertex
100
AcDb2dVertex
 10
198.2861368179332
 20
103.4883250030932
 30
0.0
  0
VERTEX
  5
3D5
330
3C6
100
AcDbEntity
  8
Visible (ISO)
100
AcDbVertex
100
AcDb2dVertex
 10
198.2907703340065
 20
103.5309486985578
 30
0.0
  0
VERTEX
  5
3D6
330
3C6
100
AcDbEntity
  8
Visible (ISO)
100
AcDbVertex
100
AcDb2dVertex
 10
198.2943282842647
 20
103.5739434710904
 30
0.0
  0
VERTEX
  5
3D7
330
3C6
100
AcDbEntity
  8
Visible (ISO)
100
AcDbVertex
100
AcDb2dVertex
 10
198.2969443321239
 20
103.6171734655759
 30
0.0
  0
VERTEX
  5
3D8
330
3C6
100
AcDbEntity
  8
Visible (ISO)
100
AcDbVertex
100
AcDb2dVertex
 10
198.2987519919883
 20
103.6605027946372
 30
0.0
  0
VERTEX
  5
3D9
330
3C6
100
AcDbEntity
  8
Visible (ISO)
100
AcDbVertex
100
AcDb2dVertex
 10
198.2998849272739
 20
103.7037956031595
 30
0.0
  0
VERTEX
  5
3DA
330
3C6
100
AcDbEntity
  8
Visible (ISO)
100
AcDbVertex
100
AcDb2dVertex
 10
198.3004769504081
 20
103.7469160360276
 30
0.0
  0
VERTEX
  5
3DB
330
3C6
100
AcDbEntity
  8
Visible (ISO)
100
AcDbVertex
100
AcDb2dVertex
 10
198.3006617248069
 20
103.7897281736027
 30
0.0
  0
VERTEX
  5
3DC
330
3C6
100
AcDbEntity
  8
Visible (ISO)
100
AcDbVertex
100
AcDb2dVertex
 10
198.300572615863
 20
103.8320962091625
 30
0.0
  0
VERTEX
  5
3DD
330
3C6
100
AcDbEntity
  8
Visible (ISO)
100
AcDbVertex
100
AcDb2dVertex
 10
198.3003435850155
 20
103.8738842391991
 30
0.0
  0
VERTEX
  5
3DE
330
3C6
100
AcDbEntity
  8
Visible (ISO)
100
AcDbVertex
100
AcDb2dVertex
 10
198.3001081466687
 20
103.9149564085976
 30
0.0
  0
VERTEX
  5
3DF
330
3C6
100
AcDbEntity
  8
Visible (ISO)
100
AcDbVertex
100
AcDb2dVertex
 10
198.2999999642384
 20
103.9551768461119
 30
0.0
  0
SEQEND
  5
3E0
330
3C6
100
AcDbEntity
  8
Visible (ISO)
  0
LINE
  5
3E1
330
2
100
AcDbEntity
  8
Visible (ISO)
100
AcDbLine
 10
198.3006617248066
 20
103.0499999892764
 30
0.0
 11
197.9999999523173
 21
103.0500000403575
 31
0.0
  0
LINE
  5
3E2
330
2
100
AcDbEntity
  8
Visible (ISO)
100
AcDbLine
 10
198.3000000000007
 20
103.0499999999999
 30
0.0
 11
198.3000000000012
 21
103.9551768120735
 31
0.0
  0
POLYLINE
  5
3E3
330
2
100
AcDbEntity
  8
Visible (ISO)
100
AcDb2dPolyline
 66
     1
 10
0.0
 20
0.0
 30
0.0
 70
   128
  0
VERTEX
  5
3E4
330
3E3
100
AcDbEntity
  8
Visible (ISO)
100
AcDbVertex
100
AcDb2dVertex
 10
198.2999999642384
 20
104.0948232254136
 30
0.0
  0
VERTEX
  5
3E5
330
3E3
100
AcDbEntity
  8
Visible (ISO)
100
AcDbVertex
100
AcDb2dVertex
 10
198.3001081466687
 20
104.1350436629279
 30
0.0
  0
VERTEX
  5
3E6
330
3E3
100
AcDbEntity
  8
Visible (ISO)
100
AcDbVertex
100
AcDb2dVertex
 10
198.3003435850156
 20
104.1761158323264
 30
0.0
  0
VERTEX
  5
3E7
330
3E3
100
AcDbEntity
  8
Visible (ISO)
100
AcDbVertex
100
AcDb2dVertex
 10
198.3005726158631
 20
104.217903862363
 30
0.0
  0
VERTEX
  5
3E8
330
3E3
100
AcDbEntity
  8
Visible (ISO)
100
AcDbVertex
100
AcDb2dVertex
 10
198.300661724807
 20
104.2602718979229
 30
0.0
  0
VERTEX
  5
3E9
330
3E3
100
AcDbEntity
  8
Visible (ISO)
100
AcDbVertex
100
AcDb2dVertex
 10
198.3004769504082
 20
104.3030840354979
 30
0.0
  0
VERTEX
  5
3EA
330
3E3
100
AcDbEntity
  8
Visible (ISO)
100
AcDbVertex
100
AcDb2dVertex
 10
198.299884927274
 20
104.346204468366
 30
0.0
  0
VERTEX
  5
3EB
330
3E3
100
AcDbEntity
  8
Visible (ISO)
100
AcDbVertex
100
AcDb2dVertex
 10
198.2987519919884
 20
104.3894972768883
 30
0.0
  0
VERTEX
  5
3EC
330
3E3
100
AcDbEntity
  8
Visible (ISO)
100
AcDbVertex
100
AcDb2dVertex
 10
198.296944332124
 20
104.4328266059496
 30
0.0
  0
VERTEX
  5
3ED
330
3E3
100
AcDbEntity
  8
Visible (ISO)
100
AcDbVertex
100
AcDb2dVertex
 10
198.2943282842649
 20
104.4760566004351
 30
0.0
  0
VERTEX
  5
3EE
330
3E3
100
AcDbEntity
  8
Visible (ISO)
100
AcDbVertex
100
AcDb2dVertex
 10
198.2907703340066
 20
104.5190513729677
 30
0.0
  0
VERTEX
  5
3EF
330
3E3
100
AcDbEntity
  8
Visible (ISO)
100
AcDbVertex
100
AcDb2dVertex
 10
198.2861368179334
 20
104.5616750684323
 30
0.0
  0
VERTEX
  5
3F0
330
3E3
100
AcDbEntity
  8
Visible (ISO)
100
AcDbVertex
100
AcDb2dVertex
 10
198.2802939236177
 20
104.6037918639758
 30
0.0
  0
VERTEX
  5
3F1
330
3E3
100
AcDbEntity
  8
Visible (ISO)
100
AcDbVertex
100
AcDb2dVertex
 10
198.2731082856668
 20
104.6452657754356
 30
0.0
  0
VERTEX
  5
3F2
330
3E3
100
AcDbEntity
  8
Visible (ISO)
100
AcDbVertex
100
AcDb2dVertex
 10
198.2644459426416
 20
104.6859610767442
 30
0.0
  0
VERTEX
  5
3F3
330
3E3
100
AcDbEntity
  8
Visible (ISO)
100
AcDbVertex
100
AcDb2dVertex
 10
198.2541735291494
 20
104.7257418160009
 30
0.0
  0
VERTEX
  5
3F4
330
3E3
100
AcDbEntity
  8
Visible (ISO)
100
AcDbVertex
100
AcDb2dVertex
 10
198.2421570837511
 20
104.7644721058286
 30
0.0
  0
VERTEX
  5
3F5
330
3E3
100
AcDbEntity
  8
Visible (ISO)
100
AcDbVertex
100
AcDb2dVertex
 10
198.2272615849985
 20
104.8036600638258
 30
0.0
  0
VERTEX
  5
3F6
330
3E3
100
AcDbEntity
  8
Visible (ISO)
100
AcDbVertex
100
AcDb2dVertex
 10
198.2084999799742
 20
104.8436151467162
 30
0.0
  0
VERTEX
  5
3F7
330
3E3
100
AcDbEntity
  8
Visible (ISO)
100
AcDbVertex
100
AcDb2dVertex
 10
198.1861588180079
 20
104.8820370122029
 30
0.0
  0
VERTEX
  5
3F8
330
3E3
100
AcDbEntity
  8
Visible (ISO)
100
AcDbVertex
100
AcDb2dVertex
 10
198.1605221152319
 20
104.9166266084676
 30
0.0
  0
VERTEX
  5
3F9
330
3E3
100
AcDbEntity
  8
Visible (ISO)
100
AcDbVertex
100
AcDb2dVertex
 10
198.1287272095693
 20
104.9483394702519
 30
0.0
  0
VERTEX
  5
3FA
330
3E3
100
AcDbEntity
  8
Visible (ISO)
100
AcDbVertex
100
AcDb2dVertex
 10
198.0907562196268
 20
104.9753406662989
 30
0.0
  0
VERTEX
  5
3FB
330
3E3
100
AcDbEntity
  8
Visible (ISO)
100
AcDbVertex
100
AcDb2dVertex
 10
198.0477736711515
 20
104.9930689361305
 30
0.0
  0
VERTEX
  5
3FC
330
3E3
100
AcDbEntity
  8
Visible (ISO)
100
AcDbVertex
100
AcDb2dVertex
 10
197.9999999523176
 20
105.000000031168
 30
0.0
  0
SEQEND
  5
3FD
330
3E3
100
AcDbEntity
  8
Visible (ISO)
  0
LINE
  5
3FE
330
2
100
AcDbEntity
  8
Visible (ISO)
100
AcDbLine
 10
198.3000000000012
 20
104.0948231879264
 30
0.0
 11
198.3000000000012
 21
105.9051768120736
 31
0.0
  0
POLYLINE
  5
3FF
330
2
100
AcDbEntity
  8
Visible (ISO)
100
AcDb2dPolyline
 66
     1
 10
0.0
 20
0.0
 30
0.0
 70
   128
  0
VERTEX
  5
400
330
3FF
100
AcDbEntity
  8
Visible (ISO)
100
AcDbVertex
100
AcDb2dVertex
 10
197.9999999523176
 20
105.000000031168
 30
0.0
  0
VERTEX
  5
401
330
3FF
100
AcDbEntity
  8
Visible (ISO)
100
AcDbVertex
100
AcDb2dVertex
 10
198.0477736711515
 20
105.0069311740076
 30
0.0
  0
VERTEX
  5
402
330
3FF
100
AcDbEntity
  8
Visible (ISO)
100
AcDbVertex
100
AcDb2dVertex
 10
198.0907562196268
 20
105.0246593814092
 30
0.0
  0
VERTEX
  5
403
330
3FF
100
AcDbEntity
  8
Visible (ISO)
100
AcDbVertex
100
AcDb2dVertex
 10
198.1287272095693
 20
105.0516605059801
 30
0.0
  0
VERTEX
  5
404
330
3FF
100
AcDbEntity
  8
Visible (ISO)
100
AcDbVertex
100
AcDb2dVertex
 10
198.1605221152319
 20
105.0833734115102
 30
0.0
  0
VERTEX
  5
405
330
3FF
100
AcDbEntity
  8
Visible (ISO)
100
AcDbVertex
100
AcDb2dVertex
 10
198.1861588180079
 20
105.1179630188648
 30
0.0
  0
VERTEX
  5
406
330
3FF
100
AcDbEntity
  8
Visible (ISO)
100
AcDbVertex
100
AcDb2dVertex
 10
198.2084999799742
 20
105.1563849334103
 30
0.0
  0
VERTEX
  5
407
330
3FF
100
AcDbEntity
  8
Visible (ISO)
100
AcDbVertex
100
AcDb2dVertex
 10
198.2272615849985
 20
105.1963399823713
 30
0.0
  0
VERTEX
  5
408
330
3FF
100
AcDbEntity
  8
Visible (ISO)
100
AcDbVertex
100
AcDb2dVertex
 10
198.2421570837511
 20
105.2355279452585
 30
0.0
  0
VERTEX
  5
409
330
3FF
100
AcDbEntity
  8
Visible (ISO)
100
AcDbVertex
100
AcDb2dVertex
 10
198.2541735291494
 20
105.274258224487
 30
0.0
  0
VERTEX
  5
40A
330
3FF
100
AcDbEntity
  8
Visible (ISO)
100
AcDbVertex
100
AcDb2dVertex
 10
198.2644459426416
 20
105.3140389943621
 30
0.0
  0
VERTEX
  5
40B
330
3FF
100
AcDbEntity
  8
Visible (ISO)
100
AcDbVertex
100
AcDb2dVertex
 10
198.2731082856668
 20
105.3547342973762
 30
0.0
  0
VERTEX
  5
40C
330
3FF
100
AcDbEntity
  8
Visible (ISO)
100
AcDbVertex
100
AcDb2dVertex
 10
198.2802939236177
 20
105.3962082305641
 30
0.0
  0
VERTEX
  5
40D
330
3FF
100
AcDbEntity
  8
Visible (ISO)
100
AcDbVertex
100
AcDb2dVertex
 10
198.2861368179334
 20
105.438324965466
 30
0.0
  0
VERTEX
  5
40E
330
3FF
100
AcDbEntity
  8
Visible (ISO)
100
AcDbVertex
100
AcDb2dVertex
 10
198.2907703340066
 20
105.4809486935862
 30
0.0
  0
VERTEX
  5
40F
330
3FF
100
AcDbEntity
  8
Visible (ISO)
100
AcDbVertex
100
AcDb2dVertex
 10
198.2943282842649
 20
105.5239433829113
 30
0.0
  0
VERTEX
  5
410
330
3FF
100
AcDbEntity
  8
Visible (ISO)
100
AcDbVertex
100
AcDb2dVertex
 10
198.296944332124
 20
105.5671734085354
 30
0.0
  0
VERTEX
  5
411
330
3FF
100
AcDbEntity
  8
Visible (ISO)
100
AcDbVertex
100
AcDb2dVertex
 10
198.2987519919884
 20
105.6105027384451
 30
0.0
  0
VERTEX
  5
412
330
3FF
100
AcDbEntity
  8
Visible (ISO)
100
AcDbVertex
100
AcDb2dVertex
 10
198.299884927274
 20
105.653795489639
 30
0.0
  0
VERTEX
  5
413
330
3FF
100
AcDbEntity
  8
Visible (ISO)
100
AcDbVertex
100
AcDb2dVertex
 10
198.3004769504082
 20
105.6969160372109
 30
0.0
  0
VERTEX
  5
414
330
3FF
100
AcDbEntity
  8
Visible (ISO)
100
AcDbVertex
100
AcDb2dVertex
 10
198.300661724807
 20
105.739728145594
 30
0.0
  0
VERTEX
  5
415
330
3FF
100
AcDbEntity
  8
Visible (ISO)
100
AcDbVertex
100
AcDb2dVertex
 10
198.3005726158631
 20
105.7820961353403
 30
0.0
  0
VERTEX
  5
416
330
3FF
100
AcDbEntity
  8
Visible (ISO)
100
AcDbVertex
100
AcDb2dVertex
 10
198.3003435850156
 20
105.8238841779902
 30
0.0
  0
VERTEX
  5
417
330
3FF
100
AcDbEntity
  8
Visible (ISO)
100
AcDbVertex
100
AcDb2dVertex
 10
198.3001081466687
 20
105.864956407831
 30
0.0
  0
VERTEX
  5
418
330
3FF
100
AcDbEntity
  8
Visible (ISO)
100
AcDbVertex
100
AcDb2dVertex
 10
198.2999999642384
 20
105.9051768128134
 30
0.0
  0
SEQEND
  5
419
330
3FF
100
AcDbEntity
  8
Visible (ISO)
  0
LINE
  5
41A
330
2
100
AcDbEntity
  8
Visible (ISO)
100
AcDbLine
 10
196.7000000000013
 20
105.0
 30
0.0
 11
198.0000000000013
 21
105.0
 31
0.0
  0
LINE
  5
41B
330
2
100
AcDbEntity
  8
Visible (ISO)
100
AcDbLine
 10
196.7000000000013
 20
105.0
 30
0.0
 11
196.7000000000012
 21
104.4098701079585
 31
0.0
  0
LINE
  5
41C
330
2
100
AcDbEntity
  8
Visible (ISO)
100
AcDbLine
 10
196.7000000000011
 20
103.6401298920414
 30
0.0
 11
196.700000000001
 21
103.0499999999999
 31
0.0
  0
LINE
  5
41D
330
2
100
AcDbEntity
  8
Visible (ISO)
100
AcDbLine
 10
196.700000000001
 20
103.0499999999999
 30
0.0
 11
198.000000000001
 21
103.0499999999999
 31
0.0
  0
LINE
  5
41E
330
2
100
AcDbEntity
  8
Visible (ISO)
100
AcDbLine
 10
198.3000000000012
 20
103.9551768120735
 30
0.0
 11
198.3000000000012
 21
104.0948231879264
 31
0.0
  0
LINE
  5
41F
330
2
100
AcDbEntity
  8
Visible (ISO)
100
AcDbLine
 10
198.3000000000012
 20
105.9051768120736
 30
0.0
 11
198.3000000000012
 21
106.0448231879264
 31
0.0
  0
LINE
  5
420
330
2
100
AcDbEntity
  8
Visible (ISO)
100
AcDbLine
 10
196.700000000001
 20
106.95
 30
0.0
 11
198.000000000001
 21
106.95
 31
0.0
  0
LINE
  5
421
330
2
100
AcDbEntity
  8
Visible (ISO)
100
AcDbLine
 10
196.700000000001
 20
106.95
 30
0.0
 11
196.7000000000011
 21
106.3598701079585
 31
0.0
  0
LINE
  5
422
330
2
100
AcDbEntity
  8
Visible (ISO)
100
AcDbLine
 10
196.7000000000012
 20
105.5901298920414
 30
0.0
 11
196.7000000000013
 21
105.0
 31
0.0
  0
LINE
  5
423
330
2
100
AcDbEntity
  8
Visible (ISO)
100
AcDbLine
 10
229.4341311683886
 20
108.5999999999999
 30
0.0
 11
230.5494282828113
 21
108.5999999999999
 31
0.0
  0
LINE
  5
424
330
2
100
AcDbEntity
  8
Visible (ISO)
100
AcDbLine
 10
250.3188340539658
 20
108.5999999999999
 30
0.0
 11
251.4341311683886
 21
108.5999999999999
 31
0.0
  0
LINE
  5
425
330
2
100
AcDbEntity
  8
Visible (ISO)
100
AcDbLine
 10
250.3188340539658
 20
108.5999999999999
 30
0.0
 11
250.3188340539658
 21
108.6357307345113
 31
0.0
  0
LINE
  5
426
330
2
100
AcDbEntity
  8
Visible (ISO)
100
AcDbLine
 10
251.4341311683886
 20
108.5999999999999
 30
0.0
 11
251.4341311683886
 21
109.5
 31
0.0
  0
LINE
  5
427
330
2
100
AcDbEntity
  8
Visible (ISO)
100
AcDbLine
 10
251.4341311683886
 20
109.5
 30
0.0
 11
229.4341311683886
 21
109.5
 31
0.0
  0
LINE
  5
428
330
2
100
AcDbEntity
  8
Visible (ISO)
100
AcDbLine
 10
229.4341311683886
 20
109.5
 30
0.0
 11
229.4341311683886
 21
108.5999999999999
 31
0.0
  0
LINE
  5
429
330
2
100
AcDbEntity
  8
Visible (ISO)
100
AcDbLine
 10
230.5494282828113
 20
108.6357307345113
 30
0.0
 11
230.5494282828113
 21
108.5999999999999
 31
0.0
  0
ELLIPSE
  5
42A
330
2
100
AcDbEntity
  8
Visible (ISO)
100
AcDbEllipse
 10
231.3004575423097
 20
108.6336736260788
 30
0.0
 11
-0.5317846825763004
 21
0.5317846825762997
 31
0.0
210
0.0
220
0.0
230
0.9999999999999998
 40
0.9972646886342372
 41
5.49915667165253
 42
7.067213942706639
  0
LINE
  5
42B
330
2
100
AcDbEntity
  8
Visible (ISO)
100
AcDbLine
 10
249.5698619029
 20
109.3847028855772
 30
0.0
 11
231.2984004338772
 21
109.3847028855772
 31
0.0
  0
ELLIPSE
  5
42C
330
2
100
AcDbEntity
  8
Visible (ISO)
100
AcDbEllipse
 10
249.5678047944674
 20
108.6336736260788
 30
0.0
 11
0.5317846825762997
 21
0.5317846825763004
 31
0.0
210
0.0
220
0.0
230
0.9999999999999998
 40
0.9972646886342372
 41
5.499156671652531
 42
7.067213942706639
  0
LINE
  5
42D
330
2
100
AcDbEntity
  8
Visible Narrow (ISO)
100
AcDbLine
 10
250.2617487772868
 20
108.5786454578316
 30
0.0
 11
250.3188340539658
 21
108.6357307345113
 31
0.0
  0
LINE
  5
42E
330
2
100
AcDbEntity
  8
Visible Narrow (ISO)
100
AcDbLine
 10
250.2617487772868
 20
107.0
 30
0.0
 11
250.2617487772868
 21
108.5786454578316
 31
0.0
  0
LINE
  5
42F
330
2
100
AcDbEntity
  8
Visible Narrow (ISO)
100
AcDbLine
 10
249.5698619029
 20
109.3847028855772
 30
0.0
 11
249.5127766262209
 21
109.3276176088975
 31
0.0
  0
ELLIPSE
  5
430
330
2
100
AcDbEntity
  8
Visible Narrow (ISO)
100
AcDbEllipse
 10
249.5127766262209
 20
108.5786454578316
 30
0.0
 11
-0.5303300858929477
 21
0.530330085886876
 31
0.0
210
0.0
220
0.0
230
1.0
 40
0.9972646886342687
 41
3.928360344851895
 42
5.496417615906
  0
LINE
  5
431
330
2
100
AcDbEntity
  8
Visible Narrow (ISO)
100
AcDbLine
 10
231.3554857105576
 20
109.3276176088975
 30
0.0
 11
231.2984004338772
 21
109.3847028855772
 31
0.0
  0
LINE
  5
432
330
2
100
AcDbEntity
  8
Visible Narrow (ISO)
100
AcDbLine
 10
249.5127766262209
 20
109.3276176088975
 30
0.0
 11
231.3554857105576
 21
109.3276176088975
 31
0.0
  0
ELLIPSE
  5
433
330
2
100
AcDbEntity
  8
Visible Narrow (ISO)
100
AcDbEllipse
 10
231.3554857105575
 20
101.4213545421682
 30
0.0
 11
0.5303300858869652
 21
-0.5303300858928585
 31
0.0
210
0.0
220
0.0
230
1.0
 40
0.9972646886342062
 41
3.928360344863206
 42
5.496417615917309
  0
LINE
  5
434
330
2
100
AcDbEntity
  8
Visible Narrow (ISO)
100
AcDbLine
 10
231.355485710558
 20
101.4213545421682
 30
0.0
 11
231.3554857105576
 21
100.6723823911023
 31
0.0
  0
LINE
  5
435
330
2
100
AcDbEntity
  8
Visible Narrow (ISO)
100
AcDbLine
 10
230.6065135594916
 20
101.4213545421682
 30
0.0
 11
231.355485710558
 21
101.4213545421682
 31
0.0
  0
ELLIPSE
  5
436
330
2
100
AcDbEntity
  8
Visible Narrow (ISO)
100
AcDbEllipse
 10
249.5127766262209
 20
101.4213545421682
 30
0.0
 11
0.530330085892865
 21
0.5303300858869574
 31
0.0
210
0.0
220
0.0
230
1.0
 40
0.9972646886342687
 41
3.928360344863222
 42
5.496417615917327
  0
LINE
  5
437
330
2
100
AcDbEntity
  8
Visible Narrow (ISO)
100
AcDbLine
 10
249.5127766262214
 20
101.4213545421682
 30
0.0
 11
250.2617487772868
 21
101.4213545421682
 31
0.0
  0
LINE
  5
438
330
2
100
AcDbEntity
  8
Visible Narrow (ISO)
100
AcDbLine
 10
249.5127766262209
 20
100.6723823911023
 30
0.0
 11
249.5127766262214
 21
101.4213545421682
 31
0.0
  0
LINE
  5
439
330
2
100
AcDbEntity
  8
Visible (ISO)
100
AcDbLine
 10
249.5127766262214
 20
103.0
 30
0.0
 11
250.2617487772868
 21
103.0
 31
0.0
  0
LINE
  5
43A
330
2
100
AcDbEntity
  8
Visible Narrow (ISO)
100
AcDbLine
 10
249.5127766262214
 20
103.0
 30
0.0
 11
249.5127766262214
 21
101.4213545421682
 31
0.0
  0
LINE
  5
43B
330
2
100
AcDbEntity
  8
Visible Narrow (ISO)
100
AcDbLine
 10
250.2617487772868
 20
101.4213545421682
 30
0.0
 11
250.2617487772868
 21
103.0
 31
0.0
  0
ELLIPSE
  5
43C
330
2
100
AcDbEntity
  8
Visible (ISO)
100
AcDbEllipse
 10
249.6831019088888
 20
101.2510292594984
 30
0.0
 11
0.5317846825763004
 21
-0.5317846825762997
 31
0.0
210
0.0
220
0.0
230
0.9999999999999998
 40
0.9972646886342372
 41
5.499156671652531
 42
7.067213942706639
  0
LINE
  5
43D
330
2
100
AcDbEntity
  8
Visible Narrow (ISO)
100
AcDbLine
 10
250.4341311683873
 20
101.2489721510659
 30
0.0
 11
250.2617487772868
 21
101.4213545421682
 31
0.0
  0
LINE
  5
43E
330
2
100
AcDbEntity
  8
Visible Narrow (ISO)
100
AcDbLine
 10
249.5127766262209
 20
100.6723823911023
 30
0.0
 11
249.6851590173213
 21
100.5
 31
0.0
  0
LINE
  5
43F
330
2
100
AcDbEntity
  8
Visible Narrow (ISO)
100
AcDbLine
 10
231.3554857105576
 20
100.6723823911023
 30
0.0
 11
249.5127766262209
 21
100.6723823911023
 31
0.0
  0
LINE
  5
440
330
2
100
AcDbEntity
  8
Visible Narrow (ISO)
100
AcDbLine
 10
249.5127766262214
 20
101.4213545421682
 30
0.0
 11
231.355485710558
 21
101.4213545421682
 31
0.0
  0
ELLIPSE
  5
441
330
2
100
AcDbEntity
  8
Visible (ISO)
100
AcDbEllipse
 10
231.1851604278857
 20
101.2510292594984
 30
0.0
 11
-0.5317846825762997
 21
-0.5317846825763004
 31
0.0
210
0.0
220
0.0
230
0.9999999999999998
 40
0.9972646886342372
 41
5.499156671652531
 42
7.067213942706638
  0
LINE
  5
442
330
2
100
AcDbEntity
  8
Visible Narrow (ISO)
100
AcDbLine
 10
231.1831033194532
 20
100.5
 30
0.0
 11
231.3554857105576
 21
100.6723823911023
 31
0.0
  0
LINE
  5
443
330
2
100
AcDbEntity
  8
Visible Narrow (ISO)
100
AcDbLine
 10
230.6065135594916
 20
101.4213545421682
 30
0.0
 11
230.4341311683872
 21
101.2489721510659
 31
0.0
  0
LINE
  5
444
330
2
100
AcDbEntity
  8
Visible (ISO)
100
AcDbLine
 10
230.6065135594916
 20
103.0
 30
0.0
 11
231.355485710558
 21
103.0
 31
0.0
  0
LINE
  5
445
330
2
100
AcDbEntity
  8
Visible Narrow (ISO)
100
AcDbLine
 10
230.6065135594916
 20
103.0
 30
0.0
 11
230.6065135594916
 21
101.4213545421682
 31
0.0
  0
LINE
  5
446
330
2
100
AcDbEntity
  8
Visible Narrow (ISO)
100
AcDbLine
 10
231.355485710558
 20
101.4213545421682
 30
0.0
 11
231.355485710558
 21
103.0
 31
0.0
  0
LINE
  5
447
330
2
100
AcDbEntity
  8
Visible Narrow (ISO)
100
AcDbLine
 10
231.355485710558
 20
108.5786454578316
 30
0.0
 11
230.6065135594916
 21
108.5786454578316
 31
0.0
  0
LINE
  5
448
330
2
100
AcDbEntity
  8
Visible Narrow (ISO)
100
AcDbLine
 10
231.3554857105576
 20
109.3276176088975
 30
0.0
 11
231.355485710558
 21
108.5786454578316
 31
0.0
  0
ELLIPSE
  5
449
330
2
100
AcDbEntity
  8
Visible Narrow (ISO)
100
AcDbEllipse
 10
231.3554857105575
 20
108.5786454578316
 30
0.0
 11
-0.5303300858868775
 21
-0.5303300858929449
 31
0.0
210
0.0
220
0.0
230
0.9999999999999998
 40
0.9972646886342065
 41
3.9283603448519
 42
5.496417615906006
  0
LINE
  5
44A
330
2
100
AcDbEntity
  8
Visible Narrow (ISO)
100
AcDbLine
 10
250.2617487772868
 20
108.5786454578316
 30
0.0
 11
249.5127766262214
 21
108.5786454578316
 31
0.0
  0
LINE
  5
44B
330
2
100
AcDbEntity
  8
Visible Narrow (ISO)
100
AcDbLine
 10
249.5127766262214
 20
108.5786454578316
 30
0.0
 11
249.5127766262209
 21
109.3276176088975
 31
0.0
  0
LINE
  5
44C
330
2
100
AcDbEntity
  8
Visible Narrow (ISO)
100
AcDbLine
 10
231.355485710558
 20
108.5786454578316
 30
0.0
 11
249.5127766262214
 21
108.5786454578316
 31
0.0
  0
LINE
  5
44D
330
2
100
AcDbEntity
  8
Visible (ISO)
100
AcDbLine
 10
250.2617487772868
 20
107.0
 30
0.0
 11
249.5127766262214
 21
107.0
 31
0.0
  0
LINE
  5
44E
330
2
100
AcDbEntity
  8
Visible Narrow (ISO)
100
AcDbLine
 10
249.5127766262214
 20
108.5786454578316
 30
0.0
 11
249.5127766262214
 21
107.0
 31
0.0
  0
LINE
  5
44F
330
2
100
AcDbEntity
  8
Visible Narrow (ISO)
100
AcDbLine
 10
230.5494282828113
 20
108.6357307345113
 30
0.0
 11
230.6065135594916
 21
108.5786454578316
 31
0.0
  0
LINE
  5
450
330
2
100
AcDbEntity
  8
Visible (ISO)
100
AcDbLine
 10
231.355485710558
 20
107.0
 30
0.0
 11
230.6065135594916
 21
107.0
 31
0.0
  0
LINE
  5
451
330
2
100
AcDbEntity
  8
Visible Narrow (ISO)
100
AcDbLine
 10
231.355485710558
 20
107.0
 30
0.0
 11
231.355485710558
 21
108.5786454578316
 31
0.0
  0
LINE
  5
452
330
2
100
AcDbEntity
  8
Visible Narrow (ISO)
100
AcDbLine
 10
230.6065135594916
 20
108.5786454578316
 30
0.0
 11
230.6065135594916
 21
107.0
 31
0.0
  0
LINE
  5
453
330
2
100
AcDbEntity
  8
Visible (ISO)
100
AcDbLine
 10
250.2617487772868
 20
107.0
 30
0.0
 11
250.3188340539658
 21
107.0
 31
0.0
  0
LINE
  5
454
330
2
100
AcDbEntity
  8
Visible (ISO)
100
AcDbLine
 10
250.3188340539658
 20
103.0
 30
0.0
 11
250.2617487772868
 21
103.0
 31
0.0
  0
LINE
  5
455
330
2
100
AcDbEntity
  8
Visible (ISO)
100
AcDbLine
 10
248.2794306300103
 20
107.0
 30
0.0
 11
249.5127766262214
 21
107.0
 31
0.0
  0
LINE
  5
456
330
2
100
AcDbEntity
  8
Visible (ISO)
100
AcDbLine
 10
249.5127766262214
 20
103.0
 30
0.0
 11
248.2794306300103
 21
103.0
 31
0.0
  0
LINE
  5
457
330
2
100
AcDbEntity
  8
Visible (ISO)
100
AcDbLine
 10
248.2794306300103
 20
103.0
 30
0.0
 11
247.1247300916311
 21
105.0
 31
0.0
  0
LINE
  5
458
330
2
100
AcDbEntity
  8
Visible (ISO)
100
AcDbLine
 10
247.1247300916311
 20
105.0
 30
0.0
 11
248.2794306300103
 21
107.0
 31
0.0
  0
LINE
  5
459
330
2
100
AcDbEntity
  8
Visible (ISO)
100
AcDbLine
 10
231.355485710558
 20
107.0
 30
0.0
 11
232.5888317067689
 21
107.0
 31
0.0
  0
LINE
  5
45A
330
2
100
AcDbEntity
  8
Visible (ISO)
100
AcDbLine
 10
232.5888317067689
 20
107.0
 30
0.0
 11
233.7435322451481
 21
105.0
 31
0.0
  0
LINE
  5
45B
330
2
100
AcDbEntity
  8
Visible (ISO)
100
AcDbLine
 10
233.7435322451481
 20
105.0
 30
0.0
 11
232.5888317067689
 21
103.0
 31
0.0
  0
LINE
  5
45C
330
2
100
AcDbEntity
  8
Visible (ISO)
100
AcDbLine
 10
232.5888317067689
 20
103.0
 30
0.0
 11
231.355485710558
 21
103.0
 31
0.0
  0
LINE
  5
45D
330
2
100
AcDbEntity
  8
Visible (ISO)
100
AcDbLine
 10
230.5494282828113
 20
107.0
 30
0.0
 11
230.6065135594916
 21
107.0
 31
0.0
  0
LINE
  5
45E
330
2
100
AcDbEntity
  8
Visible (ISO)
100
AcDbLine
 10
230.6065135594916
 20
103.0
 30
0.0
 11
230.5494282828113
 21
103.0
 31
0.0
  0
LINE
  5
45F
330
2
100
AcDbEntity
  8
Visible (ISO)
100
AcDbLine
 10
250.3188340539658
 20
107.0
 30
0.0
 11
250.3188340539658
 21
106.95
 31
0.0
  0
LINE
  5
460
330
2
100
AcDbEntity
  8
Visible (ISO)
100
AcDbLine
 10
250.3188340539658
 20
103.0499999999999
 30
0.0
 11
250.3188340539658
 21
103.0
 31
0.0
  0
LINE
  5
461
330
2
100
AcDbEntity
  8
Visible (ISO)
100
AcDbLine
 10
230.5494282828113
 20
106.95
 30
0.0
 11
230.5494282828113
 21
107.0
 31
0.0
  0
ARC
  5
462
330
2
100
AcDbEntity
  8
Visible (ISO)
100
AcDbCircle
 10
249.4341311683886
 20
105.0
 30
0.0
 40
1.999999999999983
100
AcDbArc
 50
17.16143185900736
 51
42.83856814098291
  0
ARC
  5
463
330
2
100
AcDbEntity
  8
Visible (ISO)
100
AcDbCircle
 10
249.4341311683885
 20
105.0
 30
0.0
 40
2.000000000000013
100
AcDbArc
 50
317.1614318590077
 51
342.838568140985
  0
LINE
  5
464
330
2
100
AcDbEntity
  8
Visible (ISO)
100
AcDbLine
 10
230.5494282828113
 20
103.0
 30
0.0
 11
230.5494282828113
 21
103.0499999999999
 31
0.0
  0
ARC
  5
465
330
2
100
AcDbEntity
  8
Visible (ISO)
100
AcDbCircle
 10
231.4341311683886
 20
105.0
 30
0.0
 40
2.000000000000033
100
AcDbArc
 50
197.1614318590073
 51
222.8385681409829
  0
ARC
  5
466
330
2
100
AcDbEntity
  8
Visible (ISO)
100
AcDbCircle
 10
231.4341311683886
 20
105.0
 30
0.0
 40
2.000000000000016
100
AcDbArc
 50
137.1614318590076
 51
162.838568140985
  0
LINE
  5
467
330
2
100
AcDbEntity
  8
Visible (ISO)
100
AcDbLine
 10
250.4341311683873
 20
108.5999999999999
 30
0.0
 11
250.4341311683873
 21
106.95
 31
0.0
  0
LINE
  5
468
330
2
100
AcDbEntity
  8
Visible (ISO)
100
AcDbLine
 10
250.4341311683873
 20
103.0499999999999
 30
0.0
 11
250.4341311683873
 21
101.2489721510659
 31
0.0
  0
LINE
  5
469
330
2
100
AcDbEntity
  8
Visible (ISO)
100
AcDbLine
 10
249.6851590173213
 20
100.5
 30
0.0
 11
231.1831033194532
 21
100.5
 31
0.0
  0
LINE
  5
46A
330
2
100
AcDbEntity
  8
Visible (ISO)
100
AcDbLine
 10
230.4341311683872
 20
101.2489721510659
 30
0.0
 11
230.4341311683872
 21
103.0499999999999
 31
0.0
  0
LINE
  5
46B
330
2
100
AcDbEntity
  8
Visible (ISO)
100
AcDbLine
 10
230.4341311683872
 20
106.95
 30
0.0
 11
230.4341311683872
 21
108.5999999999999
 31
0.0
  0
LINE
  5
46C
330
2
100
AcDbEntity
  8
Visible (ISO)
100
AcDbLine
 10
250.5599641880036
 20
103.0500000091895
 30
0.0
 11
249.5147559737387
 21
103.0500000444385
 31
0.0
  0
LINE
  5
46D
330
2
100
AcDbEntity
  8
Visible (ISO)
100
AcDbLine
 10
251.0825682646097
 20
103.9551768926116
 30
0.0
 11
250.5599641880036
 21
103.0500000091895
 31
0.0
  0
ARC
  5
46E
330
2
100
AcDbEntity
  8
Visible Narrow (ISO)
100
AcDbCircle
 10
249.4341311683895
 20
105.0
 30
0.0
 40
1.951666049839539
100
AcDbArc
 50
272.3676078471718
 51
327.6323921528313
  0
LINE
  5
46F
330
2
100
AcDbEntity
  8
Visible (ISO)
100
AcDbLine
 10
251.6857971536332
 20
104.9999999688319
 30
0.0
 11
251.1631931042983
 21
104.0948231871866
 31
0.0
  0
LINE
  5
470
330
2
100
AcDbEntity
  8
Visible (ISO)
100
AcDbLine
 10
251.1631930811668
 20
105.9051767745863
 30
0.0
 11
251.6857971536332
 21
104.9999999688319
 31
0.0
  0
ARC
  5
471
330
2
100
AcDbEntity
  8
Visible Narrow (ISO)
100
AcDbCircle
 10
249.4341311683895
 20
105.0
 30
0.0
 40
1.951666049839541
100
AcDbArc
 50
332.3676078471665
 51
27.6323921528335
  0
LINE
  5
472
330
2
100
AcDbEntity
  8
Visible (ISO)
100
AcDbLine
 10
250.5599641340189
 20
106.9499999596424
 30
0.0
 11
251.0825682064856
 21
106.044823153888
 31
0.0
  0
LINE
  5
473
330
2
100
AcDbEntity
  8
Visible (ISO)
100
AcDbLine
 10
249.5147560215309
 20
106.9499999676205
 30
0.0
 11
250.5599641340189
 21
106.9499999596424
 31
0.0
  0
ARC
  5
474
330
2
100
AcDbEntity
  8
Visible Narrow (ISO)
100
AcDbCircle
 10
249.4341311683895
 20
105.0
 30
0.0
 40
1.95166604983954
100
AcDbArc
 50
32.36760784716852
 51
87.63239215282824
  0
LINE
  5
475
330
2
100
AcDbEntity
  8
Visible (ISO)
100
AcDbLine
 10
248.3082981487752
 20
106.9499999908105
 30
0.0
 11
249.3535063630403
 21
106.9499999555614
 31
0.0
  0
LINE
  5
476
330
2
100
AcDbEntity
  8
Visible (ISO)
100
AcDbLine
 10
247.7856940721693
 20
106.0448231073883
 30
0.0
 11
248.3082981487752
 21
106.9499999908105
 31
0.0
  0
ARC
  5
477
330
2
100
AcDbEntity
  8
Visible Narrow (ISO)
100
AcDbCircle
 10
249.4341311683895
 20
105.0
 30
0.0
 40
1.95166604983954
100
AcDbArc
 50
92.36760784717175
 51
147.6323921528313
  0
LINE
  5
478
330
2
100
AcDbEntity
  8
Visible (ISO)
100
AcDbLine
 10
248.3082982027598
 20
103.0500000403575
 30
0.0
 11
247.7856941302935
 21
103.9551768461119
 31
0.0
  0
LINE
  5
479
330
2
100
AcDbEntity
  8
Visible (ISO)
100
AcDbLine
 10
249.3535063152482
 20
103.0500000323795
 30
0.0
 11
248.3082982027598
 21
103.0500000403575
 31
0.0
  0
ARC
  5
47A
330
2
100
AcDbEntity
  8
Visible Narrow (ISO)
100
AcDbCircle
 10
249.4341311683895
 20
105.0
 30
0.0
 40
1.95166604983954
100
AcDbArc
 50
212.3676078471685
 51
267.6323921528283
  0
LINE
  5
47B
330
2
100
AcDbEntity
  8
Visible (ISO)
100
AcDbLine
 10
247.7050692556122
 20
104.0948232254137
 30
0.0
 11
247.1824651831456
 21
105.000000031168
 31
0.0
  0
ARC
  5
47C
330
2
100
AcDbEntity
  8
Visible Narrow (ISO)
100
AcDbCircle
 10
249.4341311683895
 20
105.0
 30
0.0
 40
1.951666049839539
100
AcDbArc
 50
152.3676078471664
 51
207.6323921528335
  0
LINE
  5
47D
330
2
100
AcDbEntity
  8
Visible (ISO)
100
AcDbLine
 10
247.1824651831456
 20
105.000000031168
 30
0.0
 11
247.7050692324807
 21
105.9051768128134
 31
0.0
  0
LINE
  5
47E
330
2
100
AcDbEntity
  8
Visible (ISO)
100
AcDbLine
 10
247.7856940673548
 20
103.9551768120735
 30
0.0
 11
247.7050691946648
 21
104.0948231879264
 31
0.0
  0
LINE
  5
47F
330
2
100
AcDbEntity
  8
Visible (ISO)
100
AcDbLine
 10
247.7050691946648
 20
105.9051768120736
 30
0.0
 11
247.7856940673549
 21
106.0448231879264
 31
0.0
  0
LINE
  5
480
330
2
100
AcDbEntity
  8
Visible (ISO)
100
AcDbLine
 10
249.3535062956995
 20
106.95
 30
0.0
 11
249.5147560410795
 21
106.95
 31
0.0
  0
LINE
  5
481
330
2
100
AcDbEntity
  8
Visible (ISO)
100
AcDbLine
 10
251.0825682694242
 20
106.0448231879264
 30
0.0
 11
251.1631931421142
 21
105.9051768120736
 31
0.0
  0
LINE
  5
482
330
2
100
AcDbEntity
  8
Visible (ISO)
100
AcDbLine
 10
251.1631931421142
 20
104.0948231879264
 30
0.0
 11
251.0825682694242
 21
103.9551768120735
 31
0.0
  0
LINE
  5
483
330
2
100
AcDbEntity
  8
Visible (ISO)
100
AcDbLine
 10
249.5147560410795
 20
103.0499999999999
 30
0.0
 11
249.3535062956995
 21
103.0499999999999
 31
0.0
  0
LINE
  5
484
330
2
100
AcDbEntity
  8
Visible (ISO)
100
AcDbLine
 10
232.5599641880036
 20
103.0500000091895
 30
0.0
 11
231.5147559737387
 21
103.0500000444385
 31
0.0
  0
LINE
  5
485
330
2
100
AcDbEntity
  8
Visible (ISO)
100
AcDbLine
 10
233.0825682646097
 20
103.9551768926116
 30
0.0
 11
232.5599641880036
 21
103.0500000091895
 31
0.0
  0
ARC
  5
486
330
2
100
AcDbEntity
  8
Visible Narrow (ISO)
100
AcDbCircle
 10
231.4341311683895
 20
105.0
 30
0.0
 40
1.951666049839539
100
AcDbArc
 50
272.3676078471718
 51
327.6323921528313
  0
LINE
  5
487
330
2
100
AcDbEntity
  8
Visible (ISO)
100
AcDbLine
 10
233.6857971536332
 20
104.9999999688319
 30
0.0
 11
233.1631931042984
 21
104.0948231871866
 31
0.0
  0
LINE
  5
488
330
2
100
AcDbEntity
  8
Visible (ISO)
100
AcDbLine
 10
233.1631930811668
 20
105.9051767745863
 30
0.0
 11
233.6857971536332
 21
104.9999999688319
 31
0.0
  0
ARC
  5
489
330
2
100
AcDbEntity
  8
Visible Narrow (ISO)
100
AcDbCircle
 10
231.4341311683895
 20
105.0
 30
0.0
 40
1.951666049839541
100
AcDbArc
 50
332.3676078471665
 51
27.6323921528335
  0
LINE
  5
48A
330
2
100
AcDbEntity
  8
Visible (ISO)
100
AcDbLine
 10
232.5599641340189
 20
106.9499999596424
 30
0.0
 11
233.0825682064856
 21
106.044823153888
 31
0.0
  0
LINE
  5
48B
330
2
100
AcDbEntity
  8
Visible (ISO)
100
AcDbLine
 10
231.5147560215309
 20
106.9499999676205
 30
0.0
 11
232.5599641340189
 21
106.9499999596424
 31
0.0
  0
ARC
  5
48C
330
2
100
AcDbEntity
  8
Visible Narrow (ISO)
100
AcDbCircle
 10
231.4341311683895
 20
105.0
 30
0.0
 40
1.95166604983954
100
AcDbArc
 50
32.36760784716852
 51
87.63239215282824
  0
LINE
  5
48D
330
2
100
AcDbEntity
  8
Visible (ISO)
100
AcDbLine
 10
230.3082981487751
 20
106.9499999908105
 30
0.0
 11
231.3535063630403
 21
106.9499999555614
 31
0.0
  0
LINE
  5
48E
330
2
100
AcDbEntity
  8
Visible (ISO)
100
AcDbLine
 10
229.7856940721693
 20
106.0448231073883
 30
0.0
 11
230.3082981487751
 21
106.9499999908105
 31
0.0
  0
ARC
  5
48F
330
2
100
AcDbEntity
  8
Visible Narrow (ISO)
100
AcDbCircle
 10
231.4341311683895
 20
105.0
 30
0.0
 40
1.95166604983954
100
AcDbArc
 50
92.36760784717175
 51
147.6323921528313
  0
LINE
  5
490
330
2
100
AcDbEntity
  8
Visible (ISO)
100
AcDbLine
 10
230.3082982027598
 20
103.0500000403575
 30
0.0
 11
229.7856941302935
 21
103.9551768461119
 31
0.0
  0
LINE
  5
491
330
2
100
AcDbEntity
  8
Visible (ISO)
100
AcDbLine
 10
231.3535063152481
 20
103.0500000323795
 30
0.0
 11
230.3082982027598
 21
103.0500000403575
 31
0.0
  0
ARC
  5
492
330
2
100
AcDbEntity
  8
Visible Narrow (ISO)
100
AcDbCircle
 10
231.4341311683895
 20
105.0
 30
0.0
 40
1.95166604983954
100
AcDbArc
 50
212.3676078471685
 51
267.6323921528283
  0
LINE
  5
493
330
2
100
AcDbEntity
  8
Visible (ISO)
100
AcDbLine
 10
229.7050692556122
 20
104.0948232254136
 30
0.0
 11
229.1824651831456
 21
105.000000031168
 31
0.0
  0
ARC
  5
494
330
2
100
AcDbEntity
  8
Visible Narrow (ISO)
100
AcDbCircle
 10
231.4341311683895
 20
105.0
 30
0.0
 40
1.951666049839539
100
AcDbArc
 50
152.3676078471664
 51
207.6323921528335
  0
LINE
  5
495
330
2
100
AcDbEntity
  8
Visible (ISO)
100
AcDbLine
 10
229.1824651831456
 20
105.000000031168
 30
0.0
 11
229.7050692324806
 21
105.9051768128134
 31
0.0
  0
LINE
  5
496
330
2
100
AcDbEntity
  8
Visible (ISO)
100
AcDbLine
 10
229.7856940673548
 20
103.9551768120735
 30
0.0
 11
229.7050691946649
 21
104.0948231879264
 31
0.0
  0
LINE
  5
497
330
2
100
AcDbEntity
  8
Visible (ISO)
100
AcDbLine
 10
229.7050691946649
 20
105.9051768120736
 30
0.0
 11
229.7856940673549
 21
106.0448231879264
 31
0.0
  0
LINE
  5
498
330
2
100
AcDbEntity
  8
Visible (ISO)
100
AcDbLine
 10
231.3535062956995
 20
106.95
 30
0.0
 11
231.5147560410795
 21
106.95
 31
0.0
  0
LINE
  5
499
330
2
100
AcDbEntity
  8
Visible (ISO)
100
AcDbLine
 10
233.0825682694242
 20
106.0448231879264
 30
0.0
 11
233.1631931421142
 21
105.9051768120736
 31
0.0
  0
LINE
  5
49A
330
2
100
AcDbEntity
  8
Visible (ISO)
100
AcDbLine
 10
233.1631931421142
 20
104.0948231879264
 30
0.0
 11
233.0825682694242
 21
103.9551768120735
 31
0.0
  0
LINE
  5
49B
330
2
100
AcDbEntity
  8
Visible (ISO)
100
AcDbLine
 10
231.5147560410795
 20
103.0499999999999
 30
0.0
 11
231.3535062956995
 21
103.0499999999999
 31
0.0
  0
LINE
  5
49C
330
2
100
AcDbEntity
  8
02-CENTER
100
AcDbLine
 10
203.5
 20
105.0
 30
0.0
 11
185.7999999999996
 21
105.0
 31
0.0
  0
LINE
  5
49F
330
2
100
AcDbEntity
  8
02-CENTER
100
AcDbLine
 10
164.5
 20
105.0
 30
0.0
 11
132.5
 21
105.0
 31
0.0
  0
LINE
  5
4A0
330
2
100
AcDbEntity
  8
02-CENTER
100
AcDbLine
 10
100.2305354047037
 20
104.9999999999827
 30
0.0
 11
82.5305354047016
 21
104.9999999999827
 31
0.0
  0
LINE
  5
4A1
330
2
100
AcDbEntity
  8
02-CENTER
100
AcDbLine
 10
224.4341311683886
 20
105.0
 30
0.0
 11
256.4341311683886
 21
105.0
 31
0.0
  0
LINE
  5
4A2
330
2
100
AcDbEntity
  8
02-CENTER
100
AcDbLine
 10
231.4341311683895
 20
107.0
 30
0.0
 11
231.4341311683895
 21
103.0
 31
0.0
  0
LINE
  5
4A3
330
2
100
AcDbEntity
  8
02-CENTER
100
AcDbLine
 10
249.4341311683895
 20
107.0
 30
0.0
 11
249.4341311683895
 21
103.0
 31
0.0
  0
LINE
  5
4A4
330
2
100
AcDbEntity
  8
02-CENTER
100
AcDbLine
 10
164.5
 20
55.0
 30
0.0
 11
132.5
 21
55.0
 31
0.0
  0
CIRCLE
  5
4A5
330
2
100
AcDbEntity
  8
Visible (ISO)
100
AcDbCircle
 10
139.5
 20
105.0
 30
0.0
 40
1.700000000000007
  0
LINE
  5
4A6
330
2
100
AcDbEntity
  8
Visible (ISO)
100
AcDbLine
 10
139.35
 20
105.15
 30
0.0
 11
139.35
 21
105.8999999999999
 31
0.0
  0
LINE
  5
4A7
330
2
100
AcDbEntity
  8
Visible (ISO)
100
AcDbLine
 10
139.35
 20
105.8999999999999
 30
0.0
 11
139.65
 21
105.8999999999999
 31
0.0
  0
LINE
  5
4A8
330
2
100
AcDbEntity
  8
Visible (ISO)
100
AcDbLine
 10
139.65
 20
105.8999999999999
 30
0.0
 11
139.65
 21
105.15
 31
0.0
  0
LINE
  5
4A9
330
2
100
AcDbEntity
  8
Visible (ISO)
100
AcDbLine
 10
139.65
 20
105.15
 30
0.0
 11
140.3999999999999
 21
105.15
 31
0.0
  0
LINE
  5
4AA
330
2
100
AcDbEntity
  8
Visible (ISO)
100
AcDbLine
 10
140.3999999999999
 20
105.15
 30
0.0
 11
140.3999999999999
 21
104.8499999999999
 31
0.0
  0
LINE
  5
4AB
330
2
100
AcDbEntity
  8
Visible (ISO)
100
AcDbLine
 10
140.3999999999999
 20
104.8499999999999
 30
0.0
 11
139.65
 21
104.8499999999999
 31
0.0
  0
LINE
  5
4AC
330
2
100
AcDbEntity
  8
Visible (ISO)
100
AcDbLine
 10
139.65
 20
104.8499999999999
 30
0.0
 11
139.65
 21
104.0999999999999
 31
0.0
  0
LINE
  5
4AD
330
2
100
AcDbEntity
  8
Visible (ISO)
100
AcDbLine
 10
139.65
 20
104.0999999999999
 30
0.0
 11
139.35
 21
104.0999999999999
 31
0.0
  0
LINE
  5
4AE
330
2
100
AcDbEntity
  8
Visible (ISO)
100
AcDbLine
 10
139.35
 20
104.0999999999999
 30
0.0
 11
139.35
 21
104.8499999999999
 31
0.0
  0
LINE
  5
4AF
330
2
100
AcDbEntity
  8
Visible (ISO)
100
AcDbLine
 10
139.35
 20
104.8499999999999
 30
0.0
 11
138.6
 21
104.8499999999999
 31
0.0
  0
LINE
  5
4B0
330
2
100
AcDbEntity
  8
Visible (ISO)
100
AcDbLine
 10
138.6
 20
104.8499999999999
 30
0.0
 11
138.6
 21
105.15
 31
0.0
  0
LINE
  5
4B1
330
2
100
AcDbEntity
  8
Visible (ISO)
100
AcDbLine
 10
138.6
 20
105.15
 30
0.0
 11
139.35
 21
105.15
 31
0.0
  0
CIRCLE
  5
4B2
330
2
100
AcDbEntity
  8
Visible (ISO)
100
AcDbCircle
 10
231.4341311683895
 20
105.0
 30
0.0
 40
0.85
  0
CIRCLE
  5
4B3
330
2
100
AcDbEntity
  8
Visible (ISO)
100
AcDbCircle
 10
249.4341311683895
 20
105.0
 30
0.0
 40
0.85
  0
CIRCLE
  5
4B4
330
2
100
AcDbEntity
  8
Visible Narrow (ISO)
100
AcDbCircle
 10
249.4341311683895
 20
105.0
 30
0.0
 40
1.0
  0
CIRCLE
  5
4B5
330
2
100
AcDbEntity
  8
Visible Narrow (ISO)
100
AcDbCircle
 10
231.4341311683895
 20
105.0
 30
0.0
 40
1.0
  0
LINE
  5
4B6
330
2
100
AcDbEntity
  8
02-CENTER
100
AcDbLine
 10
198.5
 20
95.49999999999998
 30
0.0
 11
198.5
 21
114.5
 31
0.0
  0
LINE
  5
4B7
330
2
100
AcDbEntity
  8
02-CENTER
100
AcDbLine
 10
164.5
 20
155.0
 30
0.0
 11
132.5
 21
155.0
 31
0.0
  0
LINE
  5
4B8
330
2
100
AcDbEntity
  8
02-CENTER
100
AcDbLine
 10
87.5305354047016
 20
95.5
 30
0.0
 11
87.5305354047016
 21
114.5
 31
0.0
  0
LINE
  5
4B9
330
2
100
AcDbEntity
  8
02-CENTER
100
AcDbLine
 10
157.5
 20
149.1000000000003
 30
0.0
 11
157.5
 21
146.9000000000003
 31
0.0
  0
LINE
  5
4BA
330
2
100
AcDbEntity
  8
02-CENTER
100
AcDbLine
 10
156.4
 20
148.0000000000003
 30
0.0
 11
158.6
 21
148.0000000000003
 31
0.0
  0
LINE
  5
4BB
330
2
100
AcDbEntity
  8
02-CENTER
100
AcDbLine
 10
138.4
 20
148.0000000000003
 30
0.0
 11
140.6
 21
148.0000000000003
 31
0.0
  0
LINE
  5
4BC
330
2
100
AcDbEntity
  8
02-CENTER
100
AcDbLine
 10
139.5
 20
149.1000000000003
 30
0.0
 11
139.5
 21
146.9000000000003
 31
0.0
  0
LINE
  5
4BD
330
2
100
AcDbEntity
  8
02-CENTER
100
AcDbLine
 10
157.5
 20
63.1000000000021
 30
0.0
 11
157.5
 21
60.9000000000021
 31
0.0
  0
LINE
  5
4BE
330
2
100
AcDbEntity
  8
02-CENTER
100
AcDbLine
 10
156.4
 20
62.0000000000021
 30
0.0
 11
158.6
 21
62.0000000000021
 31
0.0
  0
LINE
  5
4BF
330
2
100
AcDbEntity
  8
02-CENTER
100
AcDbLine
 10
138.4
 20
62.0000000000021
 30
0.0
 11
140.6
 21
62.0000000000021
 31
0.0
  0
LINE
  5
4C0
330
2
100
AcDbEntity
  8
02-CENTER
100
AcDbLine
 10
139.5
 20
63.1000000000021
 30
0.0
 11
139.5
 21
60.9000000000021
 31
0.0
  0
LINE
  5
4C1
330
2
100
AcDbEntity
  8
02-CENTER
100
AcDbLine
 10
148.5
 20
50.0
 30
0.0
 11
148.5
 21
69.0000000000021
 31
0.0
  0
LINE
  5
4C2
330
2
100
AcDbEntity
  8
02-CENTER
100
AcDbLine
 10
148.5
 20
95.49999999999998
 30
0.0
 11
148.5
 21
114.5
 31
0.0
  0
LINE
  5
4C3
330
2
100
AcDbEntity
  8
02-CENTER
100
AcDbLine
 10
148.5
 20
141.0000000000002
 30
0.0
 11
148.5
 21
160.0
 31
0.0
  0
LINE
  5
4C4
330
2
100
AcDbEntity
  8
02-CENTER
100
AcDbLine
 10
240.4341311683886
 20
95.49999999999998
 30
0.0
 11
240.4341311683886
 21
114.5
 31
0.0
  0
LINE
  5
4C5
330
2
100
AcDbEntity
  8
02-CENTER
100
AcDbLine
 10
157.5
 20
106.7
 30
0.0
 11
157.5
 21
103.3
 31
0.0
  0
LINE
  5
4C6
330
2
100
AcDbEntity
  8
02-CENTER
100
AcDbLine
 10
139.5
 20
106.7
 30
0.0
 11
139.5
 21
103.3
 31
0.0
  0
DIMENSION
  5
4C7
330
2
100
AcDbEntity
  8
03-DIMMENTION
100
AcDbDimension
  2
*D1
 10
157.5
 20
136.0041454560161
 30
0.0
 11
148.5
 21
137.7541454560161
 31
0.0
 71
     5
 42
18.0
  3
Standard
100
AcDbAlignedDimension
 13
139.5
 23
146.9000000000003
 33
0.0
 14
157.5
 24
146.9000000000003
 34
0.0
100
AcDbRotatedDimension
1001
ACAD
1000
DSTYLE
1002
{
1070
    40
1040
1.0
1002
}
  0
DIMENSION
  5
4D6
330
2
100
AcDbEntity
  8
03-DIMMENTION
100
AcDbDimension
  2
*D2
 10
169.5
 20
148.0000000000003
 30
0.0
 11
167.75
 21
151.5000000000001
 31
0.0
 71
     5
 42
6.999999999999715
  3
Standard
100
AcDbAlignedDimension
 13
164.5
 23
155.0
 33
0.0
 14
158.6
 24
148.0000000000003
 34
0.0
 50
90.0
100
AcDbRotatedDimension
1001
ACAD
1000
DSTYLE
1002
{
1070
    40
1040
1.0
1002
}
  0
DIMENSION
  5
4E3
330
2
100
AcDbEntity
  8
03-DIMMENTION
100
AcDbDimension
  2
*D3
 10
169.5
 20
109.5
 30
0.0
 11
167.75
 21
105.0
 31
0.0
 71
     5
 42
9.000000000000042
  3
Standard
100
AcDbAlignedDimension
 13
157.7510278489341
 23
100.4999999999999
 33
0.0
 14
159.5
 24
109.5
 34
0.0
 50
90.0
100
AcDbRotatedDimension
1001
ACAD
1000
DSTYLE
1002
{
1070
    40
1040
1.0
1002
}
  0
DIMENSION
  5
4F0
330
2
100
AcDbEntity
  8
03-DIMMENTION
100
AcDbDimension
  2
*D4
 10
159.4999999999999
 20
119.5
 30
0.0
 11
148.5
 21
121.25
 31
0.0
 71
     5
 42
21.99999999999997
  3
Standard
100
AcDbAlignedDimension
 13
137.5
 23
109.5
 33
0.0
 14
159.4999999999999
 24
109.5
 34
0.0
100
AcDbRotatedDimension
1001
ACAD
1000
DSTYLE
1002
{
1070
    40
1040
1.0
1002
}
  0
DIMENSION
  5
4FD
330
2
100
AcDbEntity
  8
03-DIMMENTION
100
AcDbDimension
  2
*D5
 10
157.5
 20
90.49999999999998
 30
0.0
 11
148.5
 21
92.24999999999999
 31
0.0
 71
     5
 42
18.0
  3
Standard
100
AcDbAlignedDimension
 13
139.5
 23
103.3
 33
0.0
 14
157.5
 24
103.2999999999999
 34
0.0
100
AcDbRotatedDimension
1001
ACAD
1000
DSTYLE
1002
{
1070
    40
1040
1.0
1002
}
  0
DIMENSION
  5
50A
330
2
100
AcDbEntity
  8
03-DIMMENTION
100
AcDbDimension
  2
*D6
 10
176.5
 20
155.0
 30
0.0
 11
174.75
 21
150.5000000000001
 31
0.0
 71
     5
 42
8.999999999999715
  3
Standard
100
AcDbAlignedDimension
 13
157.5
 23
146.0000000000003
 33
0.0
 14
164.5
 24
155.0
 34
0.0
 50
90.0
100
AcDbRotatedDimension
1001
ACAD
1000
DSTYLE
1002
{
1070
    40
1040
1.0
1002
}
  0
DIMENSION
  5
517
330
2
100
AcDbEntity
  8
03-DIMMENTION
100
AcDbDimension
  2
*D7
 10
169.5
 20
59.00000000000108
 30
0.0
 11
167.75
 21
65.82233502538182
 31
0.0
 71
     5
 42
4.00000000000108
  3
Standard
100
AcDbAlignedDimension
 13
164.5
 23
55.0
 33
0.0
 14
159.5
 24
59.00000000000108
 34
0.0
 50
90.0
100
AcDbRotatedDimension
1001
ACAD
1000
DSTYLE
1002
{
1070
    40
1040
1.0
1002
}
  0
LEADER
  5
526
330
2
100
AcDbEntity
  8
03-DIMMENTION
100
AcDbLeader
  3
Standard
 73
     0
 74
     0
 40
2.741116751269035
 41
15.62182741116751
 76
     3
 10
231.5123983390436
 20
107.1358363001009
 30
0.0
 10
240.8123941056548
 20
122.2778791326823
 30
0.0
 10
245.563174019161
 20
122.2778791326823
 30
0.0
340
527
213
0.0
223
-1.25
233
0.0
1001
ACAD
1000
DSTYLE
1002
{
1070
    40
1040
1.0
1070
    77
1070
     0
1002
}
  0
MTEXT
  5
527
102
{ACAD_REACTORS
330
526
102
}
330
2
100
AcDbEntity
  8
03-DIMMENTION
100
AcDbMText
 10
246.063174019161
 20
123.5278791326823
 30
0.0
 40
2.5
 41
0.0
 71
     1
 72
     1
  1
2-M2ナット
 73
     1
 44
1.0
1001
ACAD
1000
MTEXTBEGIN
1070
    73
1070
     1
1070
    44
1040
1.0
1070
    74
1070
     0
1000
MTEXTEND
  0
LEADER
  5
528
330
2
100
AcDbEntity
  8
03-DIMMENTION
100
AcDbLeader
  3
Standard
 73
     0
 74
     0
 40
2.969543147208121
 41
23.99746192893401
 76
     3
 10
158.4681358714291
 20
106.5615843600235
 30
0.0
 10
167.4146113222601
 20
120.1535156673319
 30
0.0
 10
170.976817388066
 20
120.1535156673319
 30
0.0
340
529
213
0.0
223
-1.25
233
0.0
1001
ACAD
1000
DSTYLE
1002
{
1070
    40
1040
1.0
1070
    77
1070
     0
1002
}
  0
MTEXT
  5
529
102
{ACAD_REACTORS
330
528
102
}
330
2
100
AcDbEntity
  8
03-DIMMENTION
100
AcDbMText
 10
171.476817388066
 20
121.4035156673318
 30
0.0
 40
2.5
 41
0.0
 71
     1
 72
     1
  1
2-M2×4低頭ネジ
 73
     1
 44
1.0
1001
ACAD
1000
MTEXTBEGIN
1070
    73
1070
     1
1070
    44
1040
1.0
1070
    74
1070
     0
1000
MTEXTEND
  0
DIMENSION
  5
52A
330
2
100
AcDbEntity
  8
03-DIMMENTION
100
AcDbDimension
  2
*D8
 10
140.349319370855
 20
148.6990397744698
 30
0.0
 11
130.4289025904765
 21
142.8004743105082
 31
0.0
 70
     3
  1
2-%%c2.2
 71
     5
 42
2.200000000000017
  3
Standard
100
AcDbDiametricDimension
 15
138.6506806291449
 25
147.3009602255307
 35
0.0
 40
0.0
1001
ACAD
1000
DSTYLE
1002
{
1070
    40
1040
1.0
1002
}
  0
LEADER
  5
536
330
2
100
AcDbEntity
  8
03-DIMMENTION
100
AcDbLeader
  3
Standard
 73
     0
 74
     0
 40
7.28849407783418
 41
39.3020304568528
 76
     3
 10
149.7382337252966
 20
62.70000000000017
 30
0.0
 10
156.1901528706682
 20
77.18966545508203
 30
0.0
 10
158.9428502804999
 20
77.18966545508203
 30
0.0
340
537
213
0.0
223
-1.25
233
0.0
1001
ACAD
1000
DSTYLE
1002
{
1070
    40
1040
1.0
1070
    77
1070
     0
1002
}
  0
MTEXT
  5
537
102
{ACAD_REACTORS
330
536
102
}
330
2
100
AcDbEntity
  8
03-DIMMENTION
100
AcDbMText
 10
159.4428502804999
 20
78.43966545508203
 30
0.0
 40
2.5
 41
0.0
 71
     1
 72
     1
  1
日圧　1.5㎜ピッチコネクタ\P　　　S3B-ZR(LF)(SN)
 73
     1
 44
1.0
1001
ACAD
1000
MTEXTBEGIN
1070
    73
1070
     1
1070
    44
1040
1.0
1070
    74
1070
     0
1000
MTEXTEND
  0
LEADER
  5
538
330
2
100
AcDbEntity
  8
03-DIMMENTION
100
AcDbLeader
  3
Standard
 73
     0
 40
6.653976311336717
 41
17.5736040609137
 76
     3
 10
94.31664640227428
 20
106.543290784897
 30
0.0
 10
100.8997954285123
 20
120.1993495001199
 30
0.0
 10
102.8997954285123
 20
120.1993495001199
 30
0.0
340
539
213
0.0
223
-1.25
233
0.0
1001
ACAD
1000
DSTYLE
1002
{
1070
    40
1040
1.0
1070
    77
1070
     0
1002
}
  0
MTEXT
  5
539
102
{ACAD_REACTORS
330
538
102
}
330
2
100
AcDbEntity
  8
03-DIMMENTION
100
AcDbMText
 10
103.3997954285123
 20
121.4493495001198
 30
0.0
 40
2.5
 41
0.0
 71
     1
 72
     1
  1
信号出力\P{\H0.8x;ケーブル色＝白}
 73
     1
 44
1.0
1001
ACAD
1000
MTEXTBEGIN
1070
    73
1070
     1
1070
    44
1040
1.0
1070
    74
1070
     0
1000
MTEXTEND
  0
LEADER
  5
53A
330
2
100
AcDbEntity
  8
03-DIMMENTION
100
AcDbLeader
  3
Standard
 73
     0
 40
6.818950930626057
 41
17.5736040609137
 76
     3
 10
94.37163409596086
 20
105.0566220918196
 30
0.0
 10
100.8997954285123
 20
109.6968167302552
 30
0.0
 10
102.8997954285123
 20
109.6968167302552
 30
0.0
340
53B
213
0.0
223
-1.25
233
0.0
1001
ACAD
1000
DSTYLE
1002
{
1070
    40
1040
1.0
1070
    77
1070
     0
1002
}
  0
MTEXT
  5
53B
102
{ACAD_REACTORS
330
53A
102
}
330
2
100
AcDbEntity
  8
03-DIMMENTION
100
AcDbMText
 10
103.3997954285123
 20
110.9468167302552
 30
0.0
 40
2.5
 41
0.0
 71
     1
 72
     1
  1
電源プラス\P{\H0.8x;ケーブル色＝白}
 73
     1
 44
1.0
1001
ACAD
1000
MTEXTBEGIN
1070
    73
1070
     1
1070
    44
1040
1.0
1070
    74
1070
     0
1000
MTEXTEND
  0
LEADER
  5
53C
330
2
100
AcDbEntity
  8
03-DIMMENTION
100
AcDbLeader
  3
Standard
 73
     0
 40
6.676818950930625
 41
18.89593908629442
 76
     3
 10
94.31664640227428
 20
103.5050294279735
 30
0.0
 10
100.8997954285123
 20
99.54297114430961
 30
0.0
 10
102.8997954285123
 20
99.54297114430961
 30
0.0
340
53D
213
0.0
223
-1.25
233
0.0
1001
ACAD
1000
DSTYLE
1002
{
1070
    40
1040
1.0
1070
    77
1070
     0
1002
}
  0
MTEXT
  5
53D
102
{ACAD_REACTORS
330
53C
102
}
330
2
100
AcDbEntity
  8
03-DIMMENTION
100
AcDbMText
 10
103.3997954285123
 20
100.7929711443096
 30
0.0
 40
2.5
 41
0.0
 71
     1
 72
     1
  1
電源マイナス\P{\H0.8x;ケーブル色＝黒}
 73
     1
 44
1.0
1001
ACAD
1000
MTEXTBEGIN
1070
    73
1070
     1
1070
    44
1040
1.0
1070
    74
1070
     0
1000
MTEXTEND
  0
LINE
  5
53E
330
2
100
AcDbEntity
  8
Visible (ISO)
100
AcDbLine
 10
67.3306959408236
 20
150.6702106374565
 30
0.0
 11
64.78511152855205
 21
149.2005167917866
 31
0.0
  0
LINE
  5
53F
330
2
100
AcDbEntity
  8
Visible (ISO)
100
AcDbLine
 10
64.78511152855205
 20
149.2005167917866
 30
0.0
 11
64.78511152855205
 21
149.037217475601
 31
0.0
  0
LINE
  5
540
330
2
100
AcDbEntity
  8
Visible (ISO)
100
AcDbLine
 10
74.68460646516371
 20
154.9159928582807
 30
0.0
 11
74.68460646516371
 21
154.7526935420951
 31
0.0
  0
LINE
  5
541
330
2
100
AcDbEntity
  8
Visible (ISO)
100
AcDbLine
 10
74.68460646516371
 20
154.9159928582807
 30
0.0
 11
72.89201126334251
 21
153.8810375359612
 31
0.0
  0
LINE
  5
542
330
2
100
AcDbEntity
  8
Visible (ISO)
100
AcDbLine
 10
39.32926740583634
 20
163.8974552484857
 30
0.0
 11
39.32926740583634
 21
163.7341559323001
 31
0.0
  0
LINE
  5
543
330
2
100
AcDbEntity
  8
Visible (ISO)
100
AcDbLine
 10
39.32926740583634
 20
163.8974552484857
 30
0.0
 11
41.8748518181079
 21
165.3671490941556
 31
0.0
  0
LINE
  5
544
330
2
100
AcDbEntity
  8
Visible (ISO)
100
AcDbLine
 10
47.43616714062679
 20
168.5779759926602
 30
0.0
 11
49.228762342448
 21
169.6129313149797
 31
0.0
  0
LINE
  5
545
330
2
100
AcDbEntity
  8
Visible (ISO)
100
AcDbLine
 10
64.78511152855205
 20
149.2005167917866
 30
0.0
 11
39.32926740583634
 21
163.8974552484857
 31
0.0
  0
LINE
  5
546
330
2
100
AcDbEntity
  8
Visible (ISO)
100
AcDbLine
 10
49.228762342448
 20
169.6129313149797
 30
0.0
 11
57.21906896985601
 21
164.9997256327381
 31
0.0
  0
LINE
  5
547
330
2
100
AcDbEntity
  8
Visible (ISO)
100
AcDbLine
 10
70.22983374368846
 20
157.487957088203
 30
0.0
 11
74.68460646516371
 21
154.9159928582807
 31
0.0
  0
LINE
  5
548
330
2
100
AcDbEntity
  8
Visible (ISO)
100
AcDbLine
 10
59.26967863529698
 20
160.4681696085892
 30
0.0
 11
57.28977964797465
 21
161.611264821888
 31
0.0
  0
LINE
  5
549
330
2
100
AcDbEntity
  8
Visible Narrow (ISO)
100
AcDbLine
 10
55.8048554074829
 20
158.6310523015018
 30
0.0
 11
55.52201269500828
 21
158.4677529853163
 31
0.0
  0
ELLIPSE
  5
54A
330
2
100
AcDbEntity
  8
Visible (ISO)
100
AcDbEllipse
 10
55.52201269500828
 20
158.7943516176873
 30
0.0
 11
0.2000000000000004
 21
-0.3464101615137761
 31
0.0
210
0.0
220
0.0
230
1.0
 40
0.5773502691896259
 41
5.497787143782137
 42
7.068583470577038
  0
ELLIPSE
  5
54B
330
2
100
AcDbEntity
  8
Visible (ISO)
100
AcDbEllipse
 10
55.52201269500828
 20
159.6108481986151
 30
0.0
 11
-0.2000000000000211
 21
0.3464101615137642
 31
0.0
210
0.0
220
0.0
230
1.0
 40
0.5773502691896257
 41
3.92699081698702
 42
5.497787143781915
  0
LINE
  5
54C
330
2
100
AcDbEntity
  8
Visible (ISO)
100
AcDbLine
 10
53.75424574204192
 20
160.0599213181253
 30
0.0
 11
55.8048554074829
 21
158.8760012757801
 31
0.0
  0
LINE
  5
54D
330
2
100
AcDbEntity
  8
Visible (ISO)
100
AcDbLine
 10
53.25927099521134
 20
159.7741475148006
 30
0.0
 11
53.75424574204192
 21
160.0599213181253
 31
0.0
  0
LINE
  5
54E
330
2
100
AcDbEntity
  8
Visible (ISO)
100
AcDbLine
 10
55.52201269500828
 20
158.4677529853163
 30
0.0
 11
53.25927099521134
 21
159.7741475148006
 31
0.0
  0
LINE
  5
54F
330
2
100
AcDbEntity
  8
Visible (ISO)
100
AcDbLine
 10
53.25927099521134
 20
161.2438413604706
 30
0.0
 11
55.52201269500828
 21
159.9374468309862
 31
0.0
  0
LINE
  5
550
330
2
100
AcDbEntity
  8
Visible (ISO)
100
AcDbLine
 10
55.8048554074829
 20
159.4475488824295
 30
0.0
 11
55.8048554074829
 21
158.6310523015018
 31
0.0
  0
LINE
  5
551
330
2
100
AcDbEntity
  8
Visible (ISO)
100
AcDbLine
 10
68.32064543448479
 20
162.7543600351868
 30
0.0
 11
65.7750610222132
 21
164.2240538808568
 31
0.0
  0
LINE
  5
552
330
2
100
AcDbEntity
  8
Visible (ISO)
100
AcDbLine
 10
63.79516203489089
 20
165.8570470427122
 30
0.0
 11
63.79516203489089
 21
165.3671490941556
 31
0.0
  0
LINE
  5
553
330
2
100
AcDbEntity
  8
Visible (ISO)
100
AcDbLine
 10
65.06795424102668
 20
163.8158055903929
 30
0.0
 11
65.7750610222132
 21
164.2240538808568
 31
0.0
  0
LINE
  5
554
330
2
100
AcDbEntity
  8
Visible (ISO)
100
AcDbLine
 10
68.32064543448479
 20
162.7543600351868
 30
0.0
 11
67.18927458458631
 21
162.1011627704446
 31
0.0
  0
LINE
  5
555
330
2
100
AcDbEntity
  8
Visible (ISO)
100
AcDbLine
 10
63.79516203489089
 20
165.3671490941556
 30
0.0
 11
63.08805525370435
 21
164.9589008036917
 31
0.0
  0
LINE
  5
556
330
2
100
AcDbEntity
  8
Visible (ISO)
100
AcDbLine
 10
62.66379118499242
 20
165.20384977797
 30
0.0
 11
63.79516203489089
 21
165.8570470427122
 31
0.0
  0
LINE
  5
557
330
2
100
AcDbEntity
  8
Visible (ISO)
100
AcDbLine
 10
67.18927458458631
 20
162.5910607190013
 30
0.0
 11
62.66379118499242
 21
165.20384977797
 31
0.0
  0
LINE
  5
558
330
2
100
AcDbEntity
  8
Visible (ISO)
100
AcDbLine
 10
67.18927458458631
 20
162.1011627704446
 30
0.0
 11
67.18927458458631
 21
162.5910607190013
 31
0.0
  0
LINE
  5
559
330
2
100
AcDbEntity
  8
Visible (ISO)
100
AcDbLine
 10
58.70399321034774
 20
160.1415709762181
 30
0.0
 11
59.4110999915343
 21
160.549819266682
 31
0.0
  0
LINE
  5
55A
330
2
100
AcDbEntity
  8
Visible (ISO)
100
AcDbLine
 10
61.95668440380586
 20
159.0801254210121
 30
0.0
 11
60.82531355390739
 21
158.4269281562699
 31
0.0
  0
LINE
  5
55B
330
2
100
AcDbEntity
  8
Visible (ISO)
100
AcDbLine
 10
61.95668440380586
 20
159.0801254210121
 30
0.0
 11
59.4110999915343
 21
160.549819266682
 31
0.0
  0
LINE
  5
55C
330
2
100
AcDbEntity
  8
Visible (ISO)
100
AcDbLine
 10
61.95668440380586
 20
159.5700233695687
 30
0.0
 11
61.95668440380586
 21
159.0801254210121
 31
0.0
  0
LINE
  5
55D
330
2
100
AcDbEntity
  8
Visible (ISO)
100
AcDbLine
 10
57.43120100421197
 20
162.1828124285374
 30
0.0
 11
61.95668440380586
 21
159.5700233695687
 31
0.0
  0
LINE
  5
55E
330
2
100
AcDbEntity
  8
Visible (ISO)
100
AcDbLine
 10
57.43120100421197
 20
162.1828124285374
 30
0.0
 11
57.43120100421197
 21
161.6929144799808
 31
0.0
  0
LINE
  5
55F
330
2
100
AcDbEntity
  8
Visible (ISO)
100
AcDbLine
 10
59.4110999915343
 20
160.549819266682
 30
0.0
 11
57.43120100421197
 21
161.6929144799808
 31
0.0
  0
LINE
  5
560
330
2
100
AcDbEntity
  8
Visible (ISO)
100
AcDbLine
 10
57.43120100421197
 20
161.6929144799808
 30
0.0
 11
56.72409422302542
 21
161.2846661895169
 31
0.0
  0
LINE
  5
561
330
2
100
AcDbEntity
  8
Visible (ISO)
100
AcDbLine
 10
56.29983015431348
 20
161.5296151637952
 30
0.0
 11
57.43120100421197
 21
162.1828124285374
 31
0.0
  0
LINE
  5
562
330
2
100
AcDbEntity
  8
Visible (ISO)
100
AcDbLine
 10
68.32064543448479
 20
163.2442579837434
 30
0.0
 11
68.32064543448479
 21
162.7543600351868
 31
0.0
  0
LINE
  5
563
330
2
100
AcDbEntity
  8
Visible (ISO)
100
AcDbLine
 10
63.79516203489089
 20
165.8570470427122
 30
0.0
 11
68.32064543448479
 21
163.2442579837434
 31
0.0
  0
LINE
  5
564
330
2
100
AcDbEntity
  8
Visible (ISO)
100
AcDbLine
 10
55.66343405124559
 20
158.9576509338729
 30
0.0
 11
55.8048554074829
 21
159.0393005919657
 31
0.0
  0
LINE
  5
565
330
2
100
AcDbEntity
  8
Visible (ISO)
100
AcDbLine
 10
58.7747038884664
 20
160.7539434119139
 30
0.0
 11
58.91612524470372
 21
160.8355930700066
 31
0.0
  0
LINE
  5
566
330
2
100
AcDbEntity
  8
Visible (ISO)
100
AcDbLine
 10
60.82531355390739
 20
158.4269281562699
 30
0.0
 11
60.82531355390739
 21
158.9168261048265
 31
0.0
  0
LINE
  5
567
330
2
100
AcDbEntity
  8
Visible (ISO)
100
AcDbLine
 10
60.82531355390739
 20
158.9168261048265
 30
0.0
 11
56.29983015431348
 21
161.5296151637952
 31
0.0
  0
LINE
  5
568
330
2
100
AcDbEntity
  8
Visible (ISO)
100
AcDbLine
 10
53.25927099521134
 20
156.6714605072753
 30
0.0
 11
53.25927099521134
 21
159.7741475148006
 31
0.0
  0
LINE
  5
569
330
2
100
AcDbEntity
  8
Visible (ISO)
100
AcDbLine
 10
53.25927099521134
 20
161.2438413604706
 30
0.0
 11
53.25927099521134
 21
162.7135352061405
 31
0.0
  0
LINE
  5
56A
330
2
100
AcDbEntity
  8
Visible (ISO)
100
AcDbLine
 10
53.25927099521134
 20
162.7135352061405
 30
0.0
 11
61.7445523694499
 21
167.6125146917068
 31
0.0
  0
LINE
  5
56B
330
2
100
AcDbEntity
  8
Visible (ISO)
100
AcDbLine
 10
61.7445523694499
 20
151.7724810217089
 30
0.0
 11
53.25927099521134
 21
156.6714605072753
 31
0.0
  0
LINE
  5
56C
330
2
100
AcDbEntity
  8
Visible (ISO)
100
AcDbLine
 10
60.33033880707681
 20
155.8549639263476
 30
0.0
 11
60.33033880707681
 21
158.6310523015018
 31
0.0
  0
LINE
  5
56D
330
2
100
AcDbEntity
  8
Visible (ISO)
100
AcDbLine
 10
60.33033880707681
 20
158.6310523015018
 30
0.0
 11
53.25927099521134
 21
162.7135352061405
 31
0.0
  0
LINE
  5
56E
330
2
100
AcDbEntity
  8
Visible (ISO)
100
AcDbLine
 10
61.7445523694499
 20
167.6125146917068
 30
0.0
 11
68.81562018131538
 21
163.5300317870682
 31
0.0
  0
LINE
  5
56F
330
2
100
AcDbEntity
  8
Visible (ISO)
100
AcDbLine
 10
68.81562018131538
 20
160.7539434119139
 30
0.0
 11
68.81562018131538
 21
163.5300317870682
 31
0.0
  0
LINE
  5
570
330
2
100
AcDbEntity
  8
Visible (ISO)
100
AcDbLine
 10
68.81562018131538
 20
163.5300317870682
 30
0.0
 11
68.32064543448479
 21
163.2442579837434
 31
0.0
  0
LINE
  5
571
330
2
100
AcDbEntity
  8
Visible (ISO)
100
AcDbLine
 10
67.18927458458631
 20
162.5910607190013
 30
0.0
 11
61.95668440380586
 21
159.5700233695687
 31
0.0
  0
LINE
  5
572
330
2
100
AcDbEntity
  8
Visible (ISO)
100
AcDbLine
 10
60.82531355390739
 20
158.9168261048265
 30
0.0
 11
60.33033880707681
 21
158.6310523015018
 31
0.0
  0
LINE
  5
573
330
2
100
AcDbEntity
  8
Visible (ISO)
100
AcDbLine
 10
64.99269979586165
 20
155.2807929745708
 30
0.0
 11
63.86132894596318
 21
154.6275957098286
 31
0.0
  0
LINE
  5
574
330
2
100
AcDbEntity
  8
Visible (ISO)
100
AcDbLine
 10
61.7445523694499
 20
151.7724810217089
 30
0.0
 11
61.7445523694499
 21
153.4054741835643
 31
0.0
  0
LINE
  5
575
330
2
100
AcDbEntity
  8
Visible (ISO)
100
AcDbLine
 10
70.22983374368846
 20
158.3044536691307
 30
0.0
 11
70.22983374368846
 21
156.6714605072753
 31
0.0
  0
LINE
  5
576
330
2
100
AcDbEntity
  8
Visible (ISO)
100
AcDbLine
 10
69.09846289378998
 20
156.0182632425331
 30
0.0
 11
69.09846289378998
 21
157.6512564043885
 31
0.0
  0
LINE
  5
577
330
2
100
AcDbEntity
  8
Visible (ISO)
100
AcDbLine
 10
70.22983374368846
 20
156.6714605072753
 30
0.0
 11
69.09846289378998
 21
156.0182632425331
 31
0.0
  0
LINE
  5
578
330
2
100
AcDbEntity
  8
Visible (ISO)
100
AcDbLine
 10
62.87592321934837
 20
154.0586714483065
 30
0.0
 11
62.87592321934837
 21
152.4256782864511
 31
0.0
  0
LINE
  5
579
330
2
100
AcDbEntity
  8
Visible (ISO)
100
AcDbLine
 10
62.87592321934837
 20
152.4256782864511
 30
0.0
 11
61.7445523694499
 21
151.7724810217089
 31
0.0
  0
LINE
  5
57A
330
2
100
AcDbEntity
  8
Visible (ISO)
100
AcDbLine
 10
60.33033880707681
 20
155.8549639263476
 30
0.0
 11
61.7445523694499
 21
153.4054741835643
 31
0.0
  0
LINE
  5
57B
330
2
100
AcDbEntity
  8
Visible (ISO)
100
AcDbLine
 10
70.22983374368846
 20
158.3044536691307
 30
0.0
 11
68.81562018131538
 21
160.7539434119139
 31
0.0
  0
LINE
  5
57C
330
2
100
AcDbEntity
  8
Visible (ISO)
100
AcDbLine
 10
67.68424933141691
 20
160.1007461471717
 30
0.0
 11
68.81562018131538
 21
160.7539434119139
 31
0.0
  0
LINE
  5
57D
330
2
100
AcDbEntity
  8
Visible (ISO)
100
AcDbLine
 10
67.68424933141691
 20
160.1007461471717
 30
0.0
 11
69.09846289378998
 21
157.6512564043885
 31
0.0
  0
LINE
  5
57E
330
2
100
AcDbEntity
  8
Visible (ISO)
100
AcDbLine
 10
69.09846289378998
 20
157.6512564043885
 30
0.0
 11
70.22983374368846
 21
158.3044536691307
 31
0.0
  0
LINE
  5
57F
330
2
100
AcDbEntity
  8
Visible (ISO)
100
AcDbLine
 10
62.87592321934837
 20
154.0586714483065
 30
0.0
 11
61.46170965697528
 21
156.5081611910897
 31
0.0
  0
LINE
  5
580
330
2
100
AcDbEntity
  8
Visible (ISO)
100
AcDbLine
 10
60.33033880707681
 20
155.8549639263476
 30
0.0
 11
61.46170965697528
 21
156.5081611910897
 31
0.0
  0
LINE
  5
581
330
2
100
AcDbEntity
  8
Visible (ISO)
100
AcDbLine
 10
61.7445523694499
 20
153.4054741835643
 30
0.0
 11
62.87592321934837
 21
154.0586714483065
 31
0.0
  0
LINE
  5
582
330
2
100
AcDbEntity
  8
Visible (ISO)
100
AcDbLine
 10
62.66379118499241
 20
154.426094909724
 30
0.0
 11
63.86132894596318
 21
155.1174936583852
 31
0.0
  0
LINE
  5
583
330
2
100
AcDbEntity
  8
Visible (ISO)
100
AcDbLine
 10
63.86132894596318
 20
155.1174936583852
 30
0.0
 11
63.86132894596318
 21
154.6275957098286
 31
0.0
  0
LINE
  5
584
330
2
100
AcDbEntity
  8
Visible (ISO)
100
AcDbLine
 10
64.99269979586165
 20
155.2807929745708
 30
0.0
 11
64.99269979586165
 21
155.7706909231274
 31
0.0
  0
LINE
  5
585
330
2
100
AcDbEntity
  8
Visible (ISO)
100
AcDbLine
 10
64.99269979586165
 20
155.7706909231274
 30
0.0
 11
67.68424933141691
 21
157.3246577720174
 31
0.0
  0
LINE
  5
586
330
2
100
AcDbEntity
  8
Visible (ISO)
100
AcDbLine
 10
67.68424933141691
 20
157.3246577720174
 30
0.0
 11
67.68424933141691
 21
160.1007461471717
 31
0.0
  0
LINE
  5
587
330
2
100
AcDbEntity
  8
Visible (ISO)
100
AcDbLine
 10
69.09846289378998
 20
156.0182632425331
 30
0.0
 11
67.25998526270496
 21
157.0797087977391
 31
0.0
  0
LINE
  5
588
330
2
100
AcDbEntity
  8
Visible (ISO)
100
AcDbLine
 10
63.86132894596318
 20
154.6275957098286
 30
0.0
 11
63.43706487725125
 21
154.872544684107
 31
0.0
  0
ELLIPSE
  5
589
330
2
100
AcDbEntity
  8
Visible Narrow (ISO)
100
AcDbEllipse
 10
69.7348589968579
 20
153.5279486707035
 30
0.0
 11
2.800000000000015
 21
0.0000000000000002
 31
0.0
210
0.0
220
0.0
230
1.0
 40
0.5773502691896258
 41
0.0
 42
6.283185307179586
  0
ELLIPSE
  5
58A
330
2
100
AcDbEntity
  8
Visible Narrow (ISO)
100
AcDbEllipse
 10
69.7348589968579
 20
153.0380507221469
 30
0.0
 11
-3.400000000000015
 21
-0.0000000000000006
 31
0.0
210
0.0
220
0.0
230
1.0
 40
0.5773502691896258
 41
0.0
 42
3.141592653589793
  0
POLYLINE
  5
58B
330
2
100
AcDbEntity
  8
Visible (ISO)
100
AcDb2dPolyline
 66
     1
 10
0.0
 20
0.0
 30
0.0
 70
   128
  0
VERTEX
  5
58C
330
58B
100
AcDbEntity
  8
Visible (ISO)
100
AcDbVertex
100
AcDb2dVertex
 10
66.33485902975829
 20
153.038050733097
 30
0.0
  0
VERTEX
  5
58D
330
58B
100
AcDbEntity
  8
Visible (ISO)
100
AcDbVertex
100
AcDb2dVertex
 10
66.35709475872855
 20
153.2972051852643
 30
0.0
  0
VERTEX
  5
58E
330
58B
100
AcDbEntity
  8
Visible (ISO)
100
AcDbVertex
100
AcDb2dVertex
 10
66.42146016136894
 20
153.5487807272866
 30
0.0
  0
VERTEX
  5
58F
330
58B
100
AcDbEntity
  8
Visible (ISO)
100
AcDbVertex
100
AcDb2dVertex
 10
66.66036356622703
 20
154.0062490824096
 30
0.0
  0
VERTEX
  5
590
330
58B
100
AcDbEntity
  8
Visible (ISO)
100
AcDbVertex
100
AcDb2dVertex
 10
67.01439045558988
 20
154.390187974783
 30
0.0
  0
VERTEX
  5
591
330
58B
100
AcDbEntity
  8
Visible (ISO)
100
AcDbVertex
100
AcDb2dVertex
 10
67.45493304271616
 20
154.7007730423071
 30
0.0
  0
VERTEX
  5
592
330
58B
100
AcDbEntity
  8
Visible (ISO)
100
AcDbVertex
100
AcDb2dVertex
 10
67.96333536357483
 20
154.9420202065461
 30
0.0
  0
VERTEX
  5
593
330
58B
100
AcDbEntity
  8
Visible (ISO)
100
AcDbVertex
100
AcDb2dVertex
 10
68.5237929071325
 20
155.1151219326883
 30
0.0
  0
VERTEX
  5
594
330
58B
100
AcDbEntity
  8
Visible (ISO)
100
AcDbVertex
100
AcDb2dVertex
 10
69.12017376384105
 20
155.2196373781617
 30
0.0
  0
VERTEX
  5
595
330
58B
100
AcDbEntity
  8
Visible (ISO)
100
AcDbVertex
100
AcDb2dVertex
 10
69.73485699488259
 20
155.2546283118629
 30
0.0
  0
VERTEX
  5
596
330
58B
100
AcDbEntity
  8
Visible (ISO)
100
AcDbVertex
100
AcDb2dVertex
 10
70.34955497732108
 20
155.2196378724358
 30
0.0
  0
VERTEX
  5
597
330
58B
100
AcDbEntity
  8
Visible (ISO)
100
AcDbVertex
100
AcDb2dVertex
 10
70.94590580440007
 20
155.115133384639
 30
0.0
  0
VERTEX
  5
598
330
58B
100
AcDbEntity
  8
Visible (ISO)
100
AcDbVertex
100
AcDb2dVertex
 10
71.50639582737287
 20
154.9419886490457
 30
0.0
  0
VERTEX
  5
599
330
58B
100
AcDbEntity
  8
Visible (ISO)
100
AcDbVertex
100
AcDb2dVertex
 10
72.01483877730538
 20
154.7008299920907
 30
0.0
  0
VERTEX
  5
59A
330
58B
100
AcDbEntity
  8
Visible (ISO)
100
AcDbVertex
100
AcDb2dVertex
 10
72.45526421248598
 20
154.3901757624106
 30
0.0
  0
VERTEX
  5
59B
330
58B
100
AcDbEntity
  8
Visible (ISO)
100
AcDbVertex
100
AcDb2dVertex
 10
72.80952153974308
 20
154.0060339439029
 30
0.0
  0
VERTEX
  5
59C
330
58B
100
AcDbEntity
  8
Visible (ISO)
100
AcDbVertex
100
AcDb2dVertex
 10
73.0482774306314
 20
153.5488061862051
 30
0.0
  0
VERTEX
  5
59D
330
58B
100
AcDbEntity
  8
Visible (ISO)
100
AcDbVertex
100
AcDb2dVertex
 10
73.11263893468828
 20
153.2972257774839
 30
0.0
  0
VERTEX
  5
59E
330
58B
100
AcDbEntity
  8
Visible (ISO)
100
AcDbVertex
100
AcDb2dVertex
 10
73.13485896395746
 20
153.038050733097
 30
0.0
  0
SEQEND
  5
59F
330
58B
100
AcDbEntity
  8
Visible (ISO)
  0
LINE
  5
5A0
330
2
100
AcDbEntity
  8
Visible (ISO)
100
AcDbLine
 10
69.7348589968579
 20
153.7728976449819
 30
0.0
 11
70.7955191686377
 21
154.3852700806777
 31
0.0
  0
LINE
  5
5A1
330
2
100
AcDbEntity
  8
Visible (ISO)
100
AcDbLine
 10
70.7955191686377
 20
154.3852700806777
 30
0.0
 11
71.21978323734964
 21
154.1403211063993
 31
0.0
  0
LINE
  5
5A2
330
2
100
AcDbEntity
  8
Visible (ISO)
100
AcDbLine
 10
71.21978323734964
 20
154.1403211063993
 30
0.0
 11
70.15912306556981
 21
153.5279486707035
 31
0.0
  0
LINE
  5
5A3
330
2
100
AcDbEntity
  8
Visible (ISO)
100
AcDbLine
 10
70.15912306556981
 20
153.5279486707035
 30
0.0
 11
71.21978323734964
 21
152.9155762350077
 31
0.0
  0
LINE
  5
5A4
330
2
100
AcDbEntity
  8
Visible (ISO)
100
AcDbLine
 10
71.21978323734964
 20
152.9155762350077
 30
0.0
 11
70.7955191686377
 21
152.6706272607294
 31
0.0
  0
LINE
  5
5A5
330
2
100
AcDbEntity
  8
Visible (ISO)
100
AcDbLine
 10
70.7955191686377
 20
152.6706272607294
 30
0.0
 11
69.7348589968579
 21
153.2829996964252
 31
0.0
  0
LINE
  5
5A6
330
2
100
AcDbEntity
  8
Visible (ISO)
100
AcDbLine
 10
69.7348589968579
 20
153.2829996964252
 30
0.0
 11
68.67419882507807
 21
152.6706272607294
 31
0.0
  0
LINE
  5
5A7
330
2
100
AcDbEntity
  8
Visible (ISO)
100
AcDbLine
 10
68.67419882507807
 20
152.6706272607294
 30
0.0
 11
68.24993475636614
 21
152.9155762350077
 31
0.0
  0
LINE
  5
5A8
330
2
100
AcDbEntity
  8
Visible (ISO)
100
AcDbLine
 10
68.24993475636614
 20
152.9155762350077
 30
0.0
 11
69.31059492814594
 21
153.5279486707035
 31
0.0
  0
LINE
  5
5A9
330
2
100
AcDbEntity
  8
Visible (ISO)
100
AcDbLine
 10
69.31059492814594
 20
153.5279486707035
 30
0.0
 11
68.24993475636614
 21
154.1403211063993
 31
0.0
  0
LINE
  5
5AA
330
2
100
AcDbEntity
  8
Visible (ISO)
100
AcDbLine
 10
68.24993475636614
 20
154.1403211063993
 30
0.0
 11
68.67419882507807
 21
154.3852700806777
 31
0.0
  0
LINE
  5
5AB
330
2
100
AcDbEntity
  8
Visible (ISO)
100
AcDbLine
 10
68.67419882507807
 20
154.3852700806777
 30
0.0
 11
69.7348589968579
 21
153.7728976449819
 31
0.0
  0
LINE
  5
5AC
330
2
100
AcDbEntity
  8
Visible (ISO)
100
AcDbLine
 10
70.15912306556981
 20
153.0380507221469
 30
0.0
 11
70.15912306556981
 21
153.5279486707035
 31
0.0
  0
LINE
  5
5AD
330
2
100
AcDbEntity
  8
Visible (ISO)
100
AcDbLine
 10
69.7348589968579
 20
153.7728976449819
 30
0.0
 11
69.7348589968579
 21
153.2829996964252
 31
0.0
  0
LINE
  5
5AE
330
2
100
AcDbEntity
  8
Visible (ISO)
100
AcDbLine
 10
70.15912306556981
 20
153.2013500383324
 30
0.0
 11
70.0177017093325
 21
153.1197003802397
 31
0.0
  0
LINE
  5
5AF
330
2
100
AcDbEntity
  8
Visible (ISO)
100
AcDbLine
 10
70.7955191686377
 20
154.3852700806777
 30
0.0
 11
70.7955191686377
 21
153.895372132121
 31
0.0
  0
LINE
  5
5B0
330
2
100
AcDbEntity
  8
Visible (ISO)
100
AcDbLine
 10
69.31059492814594
 20
153.0380507221469
 30
0.0
 11
69.31059492814594
 21
153.5279486707035
 31
0.0
  0
LINE
  5
5B1
330
2
100
AcDbEntity
  8
Visible (ISO)
100
AcDbLine
 10
68.67419882507807
 20
154.3852700806777
 30
0.0
 11
68.67419882507807
 21
153.895372132121
 31
0.0
  0
LINE
  5
5B2
330
2
100
AcDbEntity
  8
Visible (ISO)
100
AcDbLine
 10
69.45201628438326
 20
153.1197003802397
 30
0.0
 11
69.31059492814594
 21
153.2013500383324
 31
0.0
  0
ELLIPSE
  5
5B3
330
2
100
AcDbEntity
  8
Visible (ISO)
100
AcDbEllipse
 10
69.7348589968579
 20
152.0582548250336
 30
0.0
 11
3.400000000000015
 21
-0.0000000000000012
 31
0.0
210
0.0
220
0.0
230
1.0
 40
0.5773502691896258
 41
3.141592653589794
 42
6.283185307179588
  0
LINE
  5
5B4
330
2
100
AcDbEntity
  8
Visible (ISO)
100
AcDbLine
 10
73.1348589968579
 20
153.0380507221469
 30
0.0
 11
73.1348589968579
 21
152.0582548250336
 31
0.0
  0
LINE
  5
5B5
330
2
100
AcDbEntity
  8
Visible (ISO)
100
AcDbLine
 10
66.33485899685786
 20
153.0380507221469
 30
0.0
 11
66.33485899685786
 21
152.0582548250336
 31
0.0
  0
ELLIPSE
  5
5B6
330
2
100
AcDbEntity
  8
Visible Narrow (ISO)
100
AcDbEllipse
 10
44.27901487414217
 20
168.2248871274026
 30
0.0
 11
2.800000000000015
 21
0.0000000000000001
 31
0.0
210
0.0
220
0.0
230
1.0
 40
0.5773502691896257
 41
0.0
 42
6.283185307179586
  0
ELLIPSE
  5
5B7
330
2
100
AcDbEntity
  8
Visible Narrow (ISO)
100
AcDbEllipse
 10
44.27901487414217
 20
167.7349891788459
 30
0.0
 11
-3.400000000000015
 21
0.0000000000000003
 31
0.0
210
0.0
220
0.0
230
1.0
 40
0.5773502691896257
 41
0.0000000000000003
 42
3.141592668490953
  0
POLYLINE
  5
5B8
330
2
100
AcDbEntity
  8
Visible (ISO)
100
AcDb2dPolyline
 66
     1
 10
0.0
 20
0.0
 30
0.0
 70
   128
  0
VERTEX
  5
5B9
330
5B8
100
AcDbEntity
  8
Visible (ISO)
100
AcDbVertex
100
AcDb2dVertex
 10
40.87901492375462
 20
167.7349891818056
 30
0.0
  0
VERTEX
  5
5BA
330
5B8
100
AcDbEntity
  8
Visible (ISO)
100
AcDbVertex
100
AcDb2dVertex
 10
40.90125065518918
 20
167.994143630813
 30
0.0
  0
VERTEX
  5
5BB
330
5B8
100
AcDbEntity
  8
Visible (ISO)
100
AcDbVertex
100
AcDb2dVertex
 10
40.9656160920005
 20
168.2457191980453
 30
0.0
  0
VERTEX
  5
5BC
330
5B8
100
AcDbEntity
  8
Visible (ISO)
100
AcDbVertex
100
AcDb2dVertex
 10
41.20451949690616
 20
168.7031875533978
 30
0.0
  0
VERTEX
  5
5BD
330
5B8
100
AcDbEntity
  8
Visible (ISO)
100
AcDbVertex
100
AcDb2dVertex
 10
41.55854630387852
 20
169.0871264576209
 30
0.0
  0
VERTEX
  5
5BE
330
5B8
100
AcDbEntity
  8
Visible (ISO)
100
AcDbVertex
100
AcDb2dVertex
 10
41.99908876781177
 20
169.3977115860962
 30
0.0
  0
VERTEX
  5
5BF
330
5B8
100
AcDbEntity
  8
Visible (ISO)
100
AcDbVertex
100
AcDb2dVertex
 10
42.50749125040823
 20
169.6389586469726
 30
0.0
  0
VERTEX
  5
5C0
330
5B8
100
AcDbEntity
  8
Visible (ISO)
100
AcDbVertex
100
AcDb2dVertex
 10
43.06794864713386
 20
169.8120604525076
 30
0.0
  0
VERTEX
  5
5C1
330
5B8
100
AcDbEntity
  8
Visible (ISO)
100
AcDbVertex
100
AcDb2dVertex
 10
43.66432952062186
 20
169.9165758945947
 30
0.0
  0
VERTEX
  5
5C2
330
5B8
100
AcDbEntity
  8
Visible (ISO)
100
AcDbVertex
100
AcDb2dVertex
 10
44.27901299408046
 20
169.9515667486093
 30
0.0
  0
VERTEX
  5
5C3
330
5B8
100
AcDbEntity
  8
Visible (ISO)
100
AcDbVertex
100
AcDb2dVertex
 10
44.89371081648092
 20
169.9165762524976
 30
0.0
  0
VERTEX
  5
5C4
330
5B8
100
AcDbEntity
  8
Visible (ISO)
100
AcDbVertex
100
AcDb2dVertex
 10
45.49006168564844
 20
169.8120718667932
 30
0.0
  0
VERTEX
  5
5C5
330
5B8
100
AcDbEntity
  8
Visible (ISO)
100
AcDbVertex
100
AcDb2dVertex
 10
46.05055164766622
 20
169.6389270791077
 30
0.0
  0
VERTEX
  5
5C6
330
5B8
100
AcDbEntity
  8
Visible (ISO)
100
AcDbVertex
100
AcDb2dVertex
 10
46.55899450967626
 20
169.3977683620434
 30
0.0
  0
VERTEX
  5
5C7
330
5B8
100
AcDbEntity
  8
Visible (ISO)
100
AcDbVertex
100
AcDb2dVertex
 10
46.99942010096546
 20
169.0871142317677
 30
0.0
  0
VERTEX
  5
5C8
330
5B8
100
AcDbEntity
  8
Visible (ISO)
100
AcDbVertex
100
AcDb2dVertex
 10
47.35367746066112
 20
168.7029724126389
 30
0.0
  0
VERTEX
  5
5C9
330
5B8
100
AcDbEntity
  8
Visible (ISO)
100
AcDbVertex
100
AcDb2dVertex
 10
47.5924332612835
 20
168.2457446608179
 30
0.0
  0
VERTEX
  5
5CA
330
5B8
100
AcDbEntity
  8
Visible (ISO)
100
AcDbVertex
100
AcDb2dVertex
 10
47.65679492091485
 20
167.9941641939227
 30
0.0
  0
VERTEX
  5
5CB
330
5B8
100
AcDbEntity
  8
Visible (ISO)
100
AcDbVertex
100
AcDb2dVertex
 10
47.67901482452972
 20
167.7349891977865
 30
0.0
  0
SEQEND
  5
5CC
330
5B8
100
AcDbEntity
  8
Visible (ISO)
  0
LINE
  5
5CD
330
2
100
AcDbEntity
  8
Visible (ISO)
100
AcDbLine
 10
44.27032593507353
 20
168.4697847266408
 30
0.0
 11
45.30904129873229
 21
169.0945701280119
 31
0.0
  0
LINE
  5
5CE
330
2
100
AcDbEntity
  8
Visible (ISO)
100
AcDbLine
 10
45.30904129873229
 20
169.0945701280119
 30
0.0
 11
45.74190532233309
 21
168.854689090084
 31
0.0
  0
LINE
  5
5CF
330
2
100
AcDbEntity
  8
Visible (ISO)
100
AcDbLine
 10
45.74190532233309
 20
168.854689090084
 30
0.0
 11
44.70318995867432
 21
168.2299036887128
 31
0.0
  0
LINE
  5
5D0
330
2
100
AcDbEntity
  8
Visible (ISO)
100
AcDbLine
 10
44.70318995867432
 20
168.2299036887128
 30
0.0
 11
45.78535001767635
 21
167.6302010938931
 31
0.0
  0
LINE
  5
5D1
330
2
100
AcDbEntity
  8
Visible (ISO)
100
AcDbLine
 10
45.78535001767635
 20
167.6302010938931
 30
0.0
 11
45.36986387221284
 21
167.3802869333447
 31
0.0
  0
LINE
  5
5D2
330
2
100
AcDbEntity
  8
Visible (ISO)
100
AcDbLine
 10
45.36986387221284
 20
167.3802869333447
 30
0.0
 11
44.28770381321082
 21
167.9799895281644
 31
0.0
  0
LINE
  5
5D3
330
2
100
AcDbEntity
  8
Visible (ISO)
100
AcDbLine
 10
44.28770381321082
 20
167.9799895281644
 30
0.0
 11
43.24898844955206
 21
167.3552041267934
 31
0.0
  0
LINE
  5
5D4
330
2
100
AcDbEntity
  8
Visible (ISO)
100
AcDbLine
 10
43.24898844955206
 20
167.3552041267934
 30
0.0
 11
42.81612442595125
 21
167.5950851647213
 31
0.0
  0
LINE
  5
5D5
330
2
100
AcDbEntity
  8
Visible (ISO)
100
AcDbLine
 10
42.81612442595125
 20
167.5950851647213
 30
0.0
 11
43.85483978961002
 21
168.2198705660923
 31
0.0
  0
LINE
  5
5D6
330
2
100
AcDbEntity
  8
Visible (ISO)
100
AcDbLine
 10
43.85483978961002
 20
168.2198705660923
 30
0.0
 11
42.772679730608
 21
168.8195731609122
 31
0.0
  0
LINE
  5
5D7
330
2
100
AcDbEntity
  8
Visible (ISO)
100
AcDbLine
 10
42.772679730608
 20
168.8195731609122
 30
0.0
 11
43.18816587607151
 21
169.0694873214606
 31
0.0
  0
LINE
  5
5D8
330
2
100
AcDbEntity
  8
Visible (ISO)
100
AcDbLine
 10
43.18816587607151
 20
169.0694873214606
 30
0.0
 11
44.27032593507353
 21
168.4697847266408
 31
0.0
  0
LINE
  5
5D9
330
2
100
AcDbEntity
  8
Visible (ISO)
100
AcDbLine
 10
44.70318995867432
 20
167.749738820357
 30
0.0
 11
44.70318995867432
 21
168.2299036887128
 31
0.0
  0
LINE
  5
5DA
330
2
100
AcDbEntity
  8
Visible (ISO)
100
AcDbLine
 10
44.27032593507353
 20
168.4697847266408
 30
0.0
 11
44.27032593507353
 21
167.9695367660827
 31
0.0
  0
LINE
  5
5DB
330
2
100
AcDbEntity
  8
Visible (ISO)
100
AcDbLine
 10
44.70318995867432
 20
167.9136550683432
 30
0.0
 11
44.56135340514253
 21
167.8283406394555
 31
0.0
  0
LINE
  5
5DC
330
2
100
AcDbEntity
  8
Visible (ISO)
100
AcDbLine
 10
45.30904129873229
 20
169.0945701280119
 30
0.0
 11
45.30904129873229
 21
168.5943221674537
 31
0.0
  0
LINE
  5
5DD
330
2
100
AcDbEntity
  8
Visible (ISO)
100
AcDbLine
 10
43.85483978961002
 20
167.7196226055342
 30
0.0
 11
43.85483978961002
 21
168.2198705660923
 31
0.0
  0
LINE
  5
5DE
330
2
100
AcDbEntity
  8
Visible (ISO)
100
AcDbLine
 10
43.18816587607151
 20
169.0694873214606
 30
0.0
 11
43.18816587607151
 21
168.5893224531047
 31
0.0
  0
LINE
  5
5DF
330
2
100
AcDbEntity
  8
Visible (ISO)
100
AcDbLine
 10
43.99667634314181
 20
167.804937034422
 30
0.0
 11
43.85483978961002
 21
167.8835388535205
 31
0.0
  0
ELLIPSE
  5
5E0
330
2
100
AcDbEntity
  8
Visible (ISO)
100
AcDbEllipse
 10
44.27901487414217
 20
166.7551932817327
 30
0.0
 11
3.400000000000014
 21
0.0000000000000005
 31
0.0
210
0.0
220
0.0
230
1.0
 40
0.5773502691896257
 41
3.141592653589792
 42
6.283185307179585
  0
LINE
  5
5E1
330
2
100
AcDbEntity
  8
Visible (ISO)
100
AcDbLine
 10
47.67901487414218
 20
167.7349891788459
 30
0.0
 11
47.67901487414218
 21
166.7551932817327
 31
0.0
  0
LINE
  5
5E2
330
2
100
AcDbEntity
  8
Visible (ISO)
100
AcDbLine
 10
40.87901487414216
 20
167.7349891788459
 30
0.0
 11
40.87901487414216
 21
166.7551932817327
 31
0.0
  0
ELLIPSE
  5
5E3
330
2
100
AcDbEntity
  8
Visible (ISO)
100
AcDbEllipse
 10
49.37018369868534
 20
174.5935604586389
 30
0.0
 11
-1.1
 21
1.905255888325765
 31
0.0
210
0.0
220
0.0
230
1.0
 40
0.577350269189626
 41
0.0
 42
6.283185307179584
  0
ELLIPSE
  5
5E4
330
2
100
AcDbEntity
  8
Visible (ISO)
100
AcDbEllipse
 10
74.82602782140105
 20
159.8966220019398
 30
0.0
 11
-1.1
 21
1.905255888325765
 31
0.0
210
0.0
220
0.0
230
1.0
 40
0.577350269189626
 41
0.0
 42
6.283185307179582
  0
ELLIPSE
  5
5E5
330
2
100
AcDbEntity
  8
Visible (ISO)
100
AcDbEllipse
 10
50.6429759048211
 20
175.3284073814738
 30
0.0
 11
1.100000000000113
 21
-1.905255888325697
 31
0.0
210
0.0
220
0.0
230
1.0
 40
0.5773502691896258
 41
3.758532574906025
 42
5.666245385862698
  0
ELLIPSE
  5
5E6
330
2
100
AcDbEntity
  8
Visible (ISO)
100
AcDbEllipse
 10
76.09882002753682
 20
160.6314689247748
 30
0.0
 11
1.100000000000113
 21
-1.905255888325697
 31
0.0
210
0.0
220
0.0
230
1.0
 40
0.5773502691896258
 41
3.75853257490602
 42
5.666245385862699
  0
LINE
  5
5E7
330
2
100
AcDbEntity
  8
Visible (ISO)
100
AcDbLine
 10
76.24024138377413
 20
154.1811459354457
 30
0.0
 11
74.96744917763834
 21
154.9159928582807
 31
0.0
  0
LINE
  5
5E8
330
2
100
AcDbEntity
  8
Visible (ISO)
100
AcDbLine
 10
76.07718664085507
 20
150.6827006790807
 30
0.0
 11
76.24024138377413
 21
154.1811459354457
 31
0.0
  0
LINE
  5
5E9
330
2
100
AcDbEntity
  8
Visible (ISO)
100
AcDbLine
 10
49.228762342448
 20
169.7762306311652
 30
0.0
 11
47.95597013631222
 21
170.5110775540003
 31
0.0
  0
LINE
  5
5EA
330
2
100
AcDbEntity
  8
Visible (ISO)
100
AcDbLine
 10
49.228762342448
 20
169.7762306311652
 30
0.0
 11
49.228762342448
 21
169.6129313149797
 31
0.0
  0
LINE
  5
5EB
330
2
100
AcDbEntity
  8
Visible (ISO)
100
AcDbLine
 10
64.78511152855205
 20
149.037217475601
 30
0.0
 11
39.0464246933617
 21
163.8974552484856
 31
0.0
  0
LINE
  5
5EC
330
2
100
AcDbEntity
  8
Visible (ISO)
100
AcDbLine
 10
47.95597013631222
 20
170.5110775540003
 30
0.0
 11
46.27851781229897
 21
169.5426000031784
 31
0.0
  0
LINE
  5
5ED
330
2
100
AcDbEntity
  8
Visible (ISO)
100
AcDbLine
 10
40.4153115689859
 20
166.1574763002873
 30
0.0
 11
37.56004685496734
 21
164.5089884490411
 31
0.0
  0
LINE
  5
5EE
330
2
100
AcDbEntity
  8
Visible (ISO)
100
AcDbLine
 10
37.56004685496734
 20
163.2859220479303
 30
0.0
 11
63.72590495467486
 21
148.1790568304865
 31
0.0
  0
LINE
  5
5EF
330
2
100
AcDbEntity
  8
Visible (ISO)
100
AcDbLine
 10
65.84431810242924
 20
148.1790568304865
 30
0.0
 11
68.69958281644779
 21
149.8275446817328
 31
0.0
  0
LINE
  5
5F0
330
2
100
AcDbEntity
  8
Visible (ISO)
100
AcDbLine
 10
73.59856230201415
 20
152.655971806479
 30
0.0
 11
76.24024138377413
 21
154.1811459354457
 31
0.0
  0
LINE
  5
5F1
330
2
100
AcDbEntity
  8
Visible (ISO)
100
AcDbLine
 10
74.96744917763834
 20
154.9159928582807
 30
0.0
 11
72.96041818540079
 21
153.7572329746404
 31
0.0
  0
LINE
  5
5F2
330
2
100
AcDbEntity
  8
Visible (ISO)
100
AcDbLine
 10
67.47628035309517
 20
150.5909645208858
 30
0.0
 11
64.78511152855205
 21
149.037217475601
 31
0.0
  0
LINE
  5
5F3
330
2
100
AcDbEntity
  8
Visible (ISO)
100
AcDbLine
 10
39.0464246933617
 20
163.8974552484856
 30
0.0
 11
41.73759351790486
 21
165.4512022937704
 31
0.0
  0
LINE
  5
5F4
330
2
100
AcDbEntity
  8
Visible (ISO)
100
AcDbLine
 10
47.35839761174986
 20
168.6963750504139
 30
0.0
 11
49.228762342448
 21
169.7762306311652
 31
0.0
  0
LINE
  5
5F5
330
2
100
AcDbEntity
  8
Visible (ISO)
100
AcDbLine
 10
77.65445494614721
 20
149.772064398436
 30
0.0
 11
76.07718664085507
 21
150.6827006790807
 31
0.0
  0
LINE
  5
5F6
330
2
100
AcDbEntity
  8
Visible (ISO)
100
AcDbLine
 10
78.927247152283
 20
150.506911321271
 30
0.0
 11
77.65445494614721
 21
149.772064398436
 31
0.0
  0
LINE
  5
5F7
330
2
100
AcDbEntity
  8
Visible (ISO)
100
AcDbLine
 10
77.65445494614721
 20
158.2636288400844
 30
0.0
 11
77.65445494614721
 21
149.772064398436
 31
0.0
  0
LINE
  5
5F8
330
2
100
AcDbEntity
  8
Visible (ISO)
100
AcDbLine
 10
74.82602782140102
 20
163.1626083256507
 30
0.0
 11
49.37018369868531
 21
177.8595467823497
 31
0.0
  0
LINE
  5
5F9
330
2
100
AcDbEntity
  8
Visible (ISO)
100
AcDbLine
 10
46.54175657393913
 20
169.6945809730725
 30
0.0
 11
46.54175657393913
 21
176.2265536204943
 31
0.0
  0
LINE
  5
5FA
330
2
100
AcDbEntity
  8
Visible (ISO)
100
AcDbLine
 10
50.6429759048211
 20
178.5943937051847
 30
0.0
 11
76.09882002753682
 21
163.8974552484857
 31
0.0
  0
LINE
  5
5FB
330
2
100
AcDbEntity
  8
Visible (ISO)
100
AcDbLine
 10
78.927247152283
 20
158.9984757629193
 30
0.0
 11
78.927247152283
 21
150.506911321271
 31
0.0
  0
ELLIPSE
  5
5FC
330
2
100
AcDbEntity
  8
Visible (ISO)
100
AcDbEllipse
 10
74.82602782140105
 20
159.8966220019398
 30
0.0
 11
1.999999999999794
 21
-3.464101615137872
 31
0.0
210
0.0
220
0.0
230
1.0
 40
0.5773502691896259
 41
0.7853981633976908
 42
2.356194490192587
  0
ELLIPSE
  5
5FD
330
2
100
AcDbEntity
  8
Visible (ISO)
100
AcDbEllipse
 10
49.37018369868534
 20
174.5935604586389
 30
0.0
 11
-1.999999999999997
 21
3.464101615137752
 31
0.0
210
0.0
220
0.0
230
1.0
 40
0.5773502691896259
 41
5.497787143782136
 42
7.068583470577033
  0
LINE
  5
5FE
330
2
100
AcDbEntity
  8
Visible Narrow (ISO)
100
AcDbLine
 10
77.65445494614721
 20
158.2636288400844
 30
0.0
 11
78.927247152283
 21
158.9984757629193
 31
0.0
  0
ELLIPSE
  5
5FF
330
2
100
AcDbEntity
  8
Visible (ISO)
100
AcDbEllipse
 10
76.09882002753682
 20
160.6314689247748
 30
0.0
 11
-2.000000000000204
 21
3.464101615137631
 31
0.0
210
0.0
220
0.0
230
1.0
 40
0.5773502691896259
 41
3.926990816987
 42
5.497787143781895
  0
LINE
  5
600
330
2
100
AcDbEntity
  8
Visible Narrow (ISO)
100
AcDbLine
 10
76.09882002753682
 20
163.8974552484857
 30
0.0
 11
74.82602782140102
 21
163.1626083256507
 31
0.0
  0
LINE
  5
601
330
2
100
AcDbEntity
  8
Visible Narrow (ISO)
100
AcDbLine
 10
49.37018369868531
 20
177.8595467823497
 30
0.0
 11
50.6429759048211
 21
178.5943937051847
 31
0.0
  0
ELLIPSE
  5
602
330
2
100
AcDbEntity
  8
Visible (ISO)
100
AcDbEllipse
 10
50.6429759048211
 20
175.3284073814739
 30
0.0
 11
-1.99999999999999
 21
3.464101615137737
 31
0.0
210
0.0
220
0.0
230
1.0
 40
0.5773502691896259
 41
5.497787143782135
 42
6.283185307179589
  0
LINE
  5
603
330
2
100
AcDbEntity
  8
Visible (ISO)
100
AcDbLine
 10
47.37018369868533
 20
178.0576620737766
 30
0.0
 11
48.64297590482109
 21
178.7925089966115
 31
0.0
  0
ELLIPSE
  5
604
330
2
100
AcDbEntity
  8
Visible Narrow (ISO)
100
AcDbEllipse
 10
64.78511152855205
 20
143.7648615209062
 30
0.0
 11
-1.500000000000003
 21
0.0000000000000962
 31
0.0
210
0.0
220
0.0
230
1.0
 40
0.6361207992265275
 41
0.7867676912680342
 42
2.354824962322135
  0
ELLIPSE
  5
605
330
2
100
AcDbEntity
  8
Visible Narrow (ISO)
100
AcDbEllipse
 10
64.78511152855205
 20
143.7648615209062
 30
0.0
 11
-0.7499999999999976
 21
-1.299038105676653
 31
0.0
210
0.0
220
0.0
230
1.0
 40
0.5773502691896259
 41
5.550147021341965
 42
6.283185307179581
  0
ELLIPSE
  5
606
330
2
100
AcDbEntity
  8
Visible Narrow (ISO)
100
AcDbEllipse
 10
64.78511152855205
 20
143.7648615209062
 30
0.0
 11
0.7500000000000063
 21
-1.299038105676665
 31
0.0
210
0.0
220
0.0
230
1.0
 40
0.5773502691896258
 41
0.0
 42
0.7330382858375995
  0
ELLIPSE
  5
607
330
2
100
AcDbEntity
  8
Visible Narrow (ISO)
100
AcDbEllipse
 10
39.10682445966717
 20
158.5902274724555
 30
0.0
 11
-1.493858135017224
 21
-0.1356018895254819
 31
0.0
210
0.0
220
0.0
230
0.9999999999999998
 40
0.575771036436287
 41
0.0
 42
0.7318117179841375
  0
ELLIPSE
  5
608
330
2
100
AcDbEntity
  8
Visible Narrow (ISO)
100
AcDbEllipse
 10
39.10682445966717
 20
158.5902274724555
 30
0.0
 11
-0.7500000000000158
 21
-1.299038105676658
 31
0.0
210
0.0
220
0.0
230
0.9999999999999998
 40
0.5773502691896276
 41
5.550147021341958
 42
6.283185307179564
  0
ELLIPSE
  5
609
330
2
100
AcDbEntity
  8
Visible (ISO)
100
AcDbEllipse
 10
38.62507181013359
 20
163.8974552484857
 30
0.0
 11
-1.504114220723349
 21
0.0000000000000007
 31
0.0
210
0.0
220
0.0
230
1.0
 40
0.5757710364362853
 41
5.499156671652539
 42
7.067213942706645
  0
LINE
  5
60A
330
2
100
AcDbEntity
  8
Visible Narrow (ISO)
100
AcDbLine
 10
38.04761788578996
 20
157.9145960779021
 30
0.0
 11
37.56004685496734
 21
163.2859220479303
 31
0.0
  0
LINE
  5
60B
330
2
100
AcDbEntity
  8
Visible Narrow (ISO)
100
AcDbLine
 10
63.72590495467486
 20
143.0892301263529
 30
0.0
 11
38.04761788578996
 21
157.9145960779021
 31
0.0
  0
ELLIPSE
  5
60C
330
2
100
AcDbEntity
  8
Visible (ISO)
100
AcDbEllipse
 10
64.78511152855205
 20
148.7939492750454
 30
0.0
 11
-1.5
 21
0.0000000000000007
 31
0.0
210
0.0
220
0.0
230
1.0
 40
0.5789338334843802
 41
0.7867676912678468
 42
2.354824962321956
  0
LINE
  5
60D
330
2
100
AcDbEntity
  8
Visible Narrow (ISO)
100
AcDbLine
 10
63.72590495467486
 20
148.1790568304865
 30
0.0
 11
63.72590495467486
 21
143.0892301263529
 31
0.0
  0
LINE
  5
60E
330
2
100
AcDbEntity
  8
Visible Narrow (ISO)
100
AcDbLine
 10
65.84431810242924
 20
143.0892301263529
 30
0.0
 11
65.84431810242924
 21
148.1790568304865
 31
0.0
  0
ELLIPSE
  5
60F
330
2
100
AcDbEntity
  8
Visible (ISO)
100
AcDbEllipse
 10
67.01765334519627
 20
145.0538201397229
 30
0.0
 11
0.7500000000000061
 21
-1.299038105676659
 31
0.0
210
0.0
220
0.0
230
1.0
 40
0.5773502691896262
 41
0.0
 42
0.733038285837619
  0
LINE
  5
610
330
2
100
AcDbEntity
  8
Visible Narrow (ISO)
100
AcDbLine
 10
68.07685991907348
 20
144.3781887451696
 30
0.0
 11
65.84431810242924
 21
143.0892301263529
 31
0.0
  0
ELLIPSE
  5
611
330
2
100
AcDbEntity
  8
Visible Narrow (ISO)
100
AcDbEllipse
 10
74.90704941133287
 20
149.6087650822504
 30
0.0
 11
0.7500000000000142
 21
-1.299038105676661
 31
0.0
210
0.0
220
0.0
230
1.0
 40
0.5773502691896269
 41
0.0
 42
0.7330382858376119
  0
ELLIPSE
  5
612
330
2
100
AcDbEntity
  8
Visible Narrow (ISO)
100
AcDbEllipse
 10
74.90704941133291
 20
149.6087650822505
 30
0.0
 11
1.493858135017223
 21
-0.1356018895254941
 31
0.0
210
0.0
220
0.0
230
1.0
 40
0.5757710364362883
 41
5.551373589195421
 42
6.28318530717955
  0
LINE
  5
613
330
2
100
AcDbEntity
  8
Visible Narrow (ISO)
100
AcDbLine
 10
76.12268485797835
 20
150.6564322711769
 30
0.0
 11
75.9662559852101
 21
148.9331336876971
 31
0.0
  0
LINE
  5
614
330
2
100
AcDbEntity
  8
Visible Narrow (ISO)
100
AcDbLine
 10
75.9662559852101
 20
148.9331336876971
 30
0.0
 11
74.08474377629449
 21
147.8468421073961
 31
0.0
  0
ARC
  5
615
330
2
100
AcDbEntity
  8
Visible (ISO)
100
AcDbCircle
 10
64.78511152855205
 20
143.7648615209062
 30
0.0
 40
1.5
100
AcDbArc
 50
240.0000000000004
 51
299.9999999999995
  0
ARC
  5
616
330
2
100
AcDbEntity
  8
Visible (ISO)
100
AcDbCircle
 10
39.10682445966715
 20
158.5902274724555
 30
0.0
 40
1.5
100
AcDbArc
 50
185.1866916790434
 51
240.0000000000004
  0
LINE
  5
617
330
2
100
AcDbEntity
  8
Visible (ISO)
100
AcDbLine
 10
37.12300768731791
 20
163.8522546186438
 30
0.0
 11
37.61296632464993
 21
158.4546255829299
 31
0.0
  0
LINE
  5
618
330
2
100
AcDbEntity
  8
Visible (ISO)
100
AcDbLine
 10
38.35682445966715
 20
157.2911893667788
 30
0.0
 11
64.03511152855205
 21
142.4658234152295
 31
0.0
  0
LINE
  5
619
330
2
100
AcDbEntity
  8
Visible (ISO)
100
AcDbLine
 10
65.53511152855205
 20
142.4658234152296
 30
0.0
 11
67.76765334519629
 21
143.7547820340462
 31
0.0
  0
ARC
  5
61A
330
2
100
AcDbEntity
  8
Visible (ISO)
100
AcDbCircle
 10
74.90704941133291
 20
149.6087650822504
 30
0.0
 40
1.5
100
AcDbArc
 50
299.9999999999995
 51
354.8133083209565
  0
LINE
  5
61B
330
2
100
AcDbEntity
  8
Visible (ISO)
100
AcDbLine
 10
76.48911268643138
 20
150.444875065781
 30
0.0
 11
76.40090754635014
 21
149.473163192725
 31
0.0
  0
LINE
  5
61C
330
2
100
AcDbEntity
  8
Visible (ISO)
100
AcDbLine
 10
74.08474377629449
 20
147.401955894936
 30
0.0
 11
75.6570494113329
 21
148.3097269765738
 31
0.0
  0
ELLIPSE
  5
61D
330
2
100
AcDbEntity
  8
Visible (ISO)
100
AcDbEllipse
 10
44.2790148741422
 20
166.7551932817327
 30
0.0
 11
-4.000000000000028
 21
-0.0000000000000001
 31
0.0
210
0.0
220
0.0
230
1.0
 40
0.5773502691896257
 41
5.71822347005468
 42
6.544984694978735
  0
ELLIPSE
  5
61E
330
2
100
AcDbEntity
  8
Visible (ISO)
100
AcDbEllipse
 10
69.7348589968579
 20
152.0582548250336
 30
0.0
 11
3.999999999999999
 21
0.0000000000000003
 31
0.0
210
0.0
220
0.0
230
1.0
 40
0.5773502691896257
 41
4.45058959258554
 42
6.544984694978738
  0
ELLIPSE
  5
61F
330
2
100
AcDbEntity
  8
Visible (ISO)
100
AcDbEllipse
 10
69.7348589968579
 20
120.8988890935443
 30
0.0
 11
-2.909441723222027
 21
-60.70756289515178
 31
0.0
210
0.0
220
0.0
230
1.0
 40
0.0452171431345047
 41
4.217859774951707
 42
4.283239652496185
  0
LINE
  5
620
330
2
100
AcDbEntity
  8
Visible (ISO)
100
AcDbLine
 10
73.73485899685789
 20
148.4656698689516
 30
0.0
 11
73.73485899685789
 21
152.0582548250336
 31
0.0
  0
LINE
  5
621
330
2
100
AcDbEntity
  8
Visible (ISO)
100
AcDbLine
 10
40.27901487414218
 20
166.0787853668296
 30
0.0
 11
40.27901487414218
 21
166.7551932817327
 31
0.0
  0
LINE
  5
622
330
2
100
AcDbEntity
  8
Visible (ISO)
100
AcDbLine
 10
73.81444494105813
 20
149.3763061495963
 30
0.0
 11
73.81073915144631
 21
149.2967960301335
 31
0.0
  0
LINE
  5
623
330
2
100
AcDbEntity
  8
Visible (ISO)
100
AcDbLine
 10
68.07685991907348
 20
144.3781887451696
 30
0.0
 11
68.15759069156573
 21
146.1103198258854
 31
0.0
  0
LINE
  5
624
330
2
100
AcDbEntity
  8
Visible (ISO)
100
AcDbLine
 10
73.73485899685789
 20
149.3303571832886
 30
0.0
 11
73.81444494105813
 21
149.3763061495963
 31
0.0
  0
LINE
  5
625
330
2
100
AcDbEntity
  8
Visible (ISO)
100
AcDbLine
 10
68.15759069156573
 20
146.1103198258854
 30
0.0
 11
68.4493661633445
 21
146.2787764730598
 31
0.0
  0
ELLIPSE
  5
626
330
2
100
AcDbEntity
  8
Visible (ISO)
100
AcDbEllipse
 10
69.7348589968579
 20
148.4656698689516
 30
0.0
 11
3.999999999999998
 21
0.0
 31
0.0
210
0.0
220
0.0
230
1.0
 40
0.5773502691896258
 41
4.385209715041062
 42
6.283185307179586
  0
POLYLINE
  5
627
330
2
100
AcDbEntity
  8
Visible (ISO)
100
AcDb2dPolyline
 66
     1
 10
0.0
 20
0.0
 30
0.0
 70
   128
  0
VERTEX
  5
628
330
627
100
AcDbEntity
  8
Visible (ISO)
100
AcDbVertex
100
AcDb2dVertex
 10
73.54370410380074
 20
145.3600321103019
 30
0.0
  0
VERTEX
  5
629
330
627
100
AcDbEntity
  8
Visible (ISO)
100
AcDbVertex
100
AcDb2dVertex
 10
73.56774470580129
 20
145.4116554581341
 30
0.0
  0
VERTEX
  5
62A
330
627
100
AcDbEntity
  8
Visible (ISO)
100
AcDbVertex
100
AcDb2dVertex
 10
73.59229412554871
 20
145.4641678345621
 30
0.0
  0
VERTEX
  5
62B
330
627
100
AcDbEntity
  8
Visible (ISO)
100
AcDbVertex
100
AcDb2dVertex
 10
73.61727150132288
 20
145.5176127220218
 30
0.0
  0
VERTEX
  5
62C
330
627
100
AcDbEntity
  8
Visible (ISO)
100
AcDbVertex
100
AcDb2dVertex
 10
73.64259579923658
 20
145.5720330657796
 30
0.0
  0
VERTEX
  5
62D
330
627
100
AcDbEntity
  8
Visible (ISO)
100
AcDbVertex
100
AcDb2dVertex
 10
73.66818533253177
 20
145.627472618241
 30
0.0
  0
VERTEX
  5
62E
330
627
100
AcDbEntity
  8
Visible (ISO)
100
AcDbVertex
100
AcDb2dVertex
 10
73.69395902875419
 20
145.6839741644374
 30
0.0
  0
VERTEX
  5
62F
330
627
100
AcDbEntity
  8
Visible (ISO)
100
AcDbVertex
100
AcDb2dVertex
 10
73.71983604546727
 20
145.7415811452551
 30
0.0
  0
VERTEX
  5
630
330
627
100
AcDbEntity
  8
Visible (ISO)
100
AcDbVertex
100
AcDb2dVertex
 10
73.74573446589526
 20
145.80033690058
 30
0.0
  0
VERTEX
  5
631
330
627
100
AcDbEntity
  8
Visible (ISO)
100
AcDbVertex
100
AcDb2dVertex
 10
73.77157377403699
 20
145.8602848327311
 30
0.0
  0
VERTEX
  5
632
330
627
100
AcDbEntity
  8
Visible (ISO)
100
AcDbVertex
100
AcDb2dVertex
 10
73.79727257100276
 20
145.9214680086421
 30
0.0
  0
VERTEX
  5
633
330
627
100
AcDbEntity
  8
Visible (ISO)
100
AcDbVertex
100
AcDb2dVertex
 10
73.82274951575351
 20
145.9839296139312
 30
0.0
  0
VERTEX
  5
634
330
627
100
AcDbEntity
  8
Visible (ISO)
100
AcDbVertex
100
AcDb2dVertex
 10
73.84792349726786
 20
146.0477132467355
 30
0.0
  0
VERTEX
  5
635
330
627
100
AcDbEntity
  8
Visible (ISO)
100
AcDbVertex
100
AcDb2dVertex
 10
73.87271313593967
 20
146.1128616891036
 30
0.0
  0
VERTEX
  5
636
330
627
100
AcDbEntity
  8
Visible (ISO)
100
AcDbVertex
100
AcDb2dVertex
 10
73.89703734003112
 20
146.1794187409574
 30
0.0
  0
VERTEX
  5
637
330
627
100
AcDbEntity
  8
Visible (ISO)
100
AcDbVertex
100
AcDb2dVertex
 10
73.92081504672967
 20
146.2474271665537
 30
0.0
  0
VERTEX
  5
638
330
627
100
AcDbEntity
  8
Visible (ISO)
100
AcDbVertex
100
AcDb2dVertex
 10
73.94396484750387
 20
146.3169307836063
 30
0.0
  0
VERTEX
  5
639
330
627
100
AcDbEntity
  8
Visible (ISO)
100
AcDbVertex
100
AcDb2dVertex
 10
73.96738790110316
 20
146.3917251287648
 30
0.0
  0
VERTEX
  5
63A
330
627
100
AcDbEntity
  8
Visible (ISO)
100
AcDbVertex
100
AcDb2dVertex
 10
73.99126992134404
 20
146.4738209887546
 30
0.0
  0
VERTEX
  5
63B
330
627
100
AcDbEntity
  8
Visible (ISO)
100
AcDbVertex
100
AcDb2dVertex
 10
74.01423540630736
 20
146.5597875026407
 30
0.0
  0
VERTEX
  5
63C
330
627
100
AcDbEntity
  8
Visible (ISO)
100
AcDbVertex
100
AcDb2dVertex
 10
74.03491004478173
 20
146.6462000341877
 30
0.0
  0
VERTEX
  5
63D
330
627
100
AcDbEntity
  8
Visible (ISO)
100
AcDbVertex
100
AcDb2dVertex
 10
74.05386549078122
 20
146.738963979679
 30
0.0
  0
VERTEX
  5
63E
330
627
100
AcDbEntity
  8
Visible (ISO)
100
AcDbVertex
100
AcDb2dVertex
 10
74.07000457911954
 20
146.8357451845459
 30
0.0
  0
VERTEX
  5
63F
330
627
100
AcDbEntity
  8
Visible (ISO)
100
AcDbVertex
100
AcDb2dVertex
 10
74.08060086550745
 20
146.928767586193
 30
0.0
  0
VERTEX
  5
640
330
627
100
AcDbEntity
  8
Visible (ISO)
100
AcDbVertex
100
AcDb2dVertex
 10
74.08474375579539
 20
147.0157083505021
 30
0.0
  0
SEQEND
  5
641
330
627
100
AcDbEntity
  8
Visible (ISO)
  0
POLYLINE
  5
642
330
2
100
AcDbEntity
  8
Visible (ISO)
100
AcDb2dPolyline
 66
     1
 10
0.0
 20
0.0
 30
0.0
 70
   128
  0
VERTEX
  5
643
330
642
100
AcDbEntity
  8
Visible (ISO)
100
AcDbVertex
100
AcDb2dVertex
 10
68.5693108562646
 20
143.8313717694172
 30
0.0
  0
VERTEX
  5
644
330
642
100
AcDbEntity
  8
Visible (ISO)
100
AcDbVertex
100
AcDb2dVertex
 10
68.58477212026901
 20
143.7557494791104
 30
0.0
  0
VERTEX
  5
645
330
642
100
AcDbEntity
  8
Visible (ISO)
100
AcDbVertex
100
AcDb2dVertex
 10
68.62431875160552
 20
143.6916771565301
 30
0.0
  0
VERTEX
  5
646
330
642
100
AcDbEntity
  8
Visible (ISO)
100
AcDbVertex
100
AcDb2dVertex
 10
68.68455059350878
 20
143.638988687975
 30
0.0
  0
VERTEX
  5
647
330
642
100
AcDbEntity
  8
Visible (ISO)
100
AcDbVertex
100
AcDb2dVertex
 10
68.75529279596401
 20
143.5980116812523
 30
0.0
  0
VERTEX
  5
648
330
642
100
AcDbEntity
  8
Visible (ISO)
100
AcDbVertex
100
AcDb2dVertex
 10
68.83245215920434
 20
143.5680837159608
 30
0.0
  0
VERTEX
  5
649
330
642
100
AcDbEntity
  8
Visible (ISO)
100
AcDbVertex
100
AcDb2dVertex
 10
68.91816020427018
 20
143.544859831957
 30
0.0
  0
VERTEX
  5
64A
330
642
100
AcDbEntity
  8
Visible (ISO)
100
AcDbVertex
100
AcDb2dVertex
 10
69.00728841295017
 20
143.5280104411144
 30
0.0
  0
VERTEX
  5
64B
330
642
100
AcDbEntity
  8
Visible (ISO)
100
AcDbVertex
100
AcDb2dVertex
 10
69.0947053883498
 20
143.5172096466668
 30
0.0
  0
VERTEX
  5
64C
330
642
100
AcDbEntity
  8
Visible (ISO)
100
AcDbVertex
100
AcDb2dVertex
 10
69.18110143872141
 20
143.5109523890079
 30
0.0
  0
VERTEX
  5
64D
330
642
100
AcDbEntity
  8
Visible (ISO)
100
AcDbVertex
100
AcDb2dVertex
 10
69.26984073728926
 20
143.5079056252832
 30
0.0
  0
VERTEX
  5
64E
330
642
100
AcDbEntity
  8
Visible (ISO)
100
AcDbVertex
100
AcDb2dVertex
 10
69.36062015870317
 20
143.5078037037239
 30
0.0
  0
VERTEX
  5
64F
330
642
100
AcDbEntity
  8
Visible (ISO)
100
AcDbVertex
100
AcDb2dVertex
 10
69.45313643367871
 20
143.5103819236341
 30
0.0
  0
VERTEX
  5
650
330
642
100
AcDbEntity
  8
Visible (ISO)
100
AcDbVertex
100
AcDb2dVertex
 10
69.54708679670116
 20
143.5153746889116
 30
0.0
  0
VERTEX
  5
651
330
642
100
AcDbEntity
  8
Visible (ISO)
100
AcDbVertex
100
AcDb2dVertex
 10
69.64216790651903
 20
143.5225172877272
 30
0.0
  0
VERTEX
  5
652
330
642
100
AcDbEntity
  8
Visible (ISO)
100
AcDbVertex
100
AcDb2dVertex
 10
69.73807678171633
 20
143.5315443339136
 30
0.0
  0
VERTEX
  5
653
330
642
100
AcDbEntity
  8
Visible (ISO)
100
AcDbVertex
100
AcDb2dVertex
 10
69.83451036890989
 20
143.5421906735051
 30
0.0
  0
VERTEX
  5
654
330
642
100
AcDbEntity
  8
Visible (ISO)
100
AcDbVertex
100
AcDb2dVertex
 10
69.93116554274951
 20
143.5541913847377
 30
0.0
  0
VERTEX
  5
655
330
642
100
AcDbEntity
  8
Visible (ISO)
100
AcDbVertex
100
AcDb2dVertex
 10
70.02773924985212
 20
143.5672813136456
 30
0.0
  0
VERTEX
  5
656
330
642
100
AcDbEntity
  8
Visible (ISO)
100
AcDbVertex
100
AcDb2dVertex
 10
70.12392843683454
 20
143.5811950629281
 30
0.0
  0
VERTEX
  5
657
330
642
100
AcDbEntity
  8
Visible (ISO)
100
AcDbVertex
100
AcDb2dVertex
 10
70.2194299063795
 20
143.595667456353
 30
0.0
  0
VERTEX
  5
658
330
642
100
AcDbEntity
  8
Visible (ISO)
100
AcDbVertex
100
AcDb2dVertex
 10
70.31394071305453
 20
143.6104338433245
 30
0.0
  0
VERTEX
  5
659
330
642
100
AcDbEntity
  8
Visible (ISO)
100
AcDbVertex
100
AcDb2dVertex
 10
70.40715769552588
 20
143.6252285665068
 30
0.0
  0
VERTEX
  5
65A
330
642
100
AcDbEntity
  8
Visible (ISO)
100
AcDbVertex
100
AcDb2dVertex
 10
70.49877780041043
 20
143.6397867152692
 30
0.0
  0
VERTEX
  5
65B
330
642
100
AcDbEntity
  8
Visible (ISO)
100
AcDbVertex
100
AcDb2dVertex
 10
70.5884979383415
 20
143.6538431300795
 30
0.0
  0
SEQEND
  5
65C
330
642
100
AcDbEntity
  8
Visible (ISO)
  0
POLYLINE
  5
65D
330
2
100
AcDbEntity
  8
Visible (ISO)
100
AcDb2dPolyline
 66
     1
 10
0.0
 20
0.0
 30
0.0
 70
   128
  0
VERTEX
  5
65E
330
65D
100
AcDbEntity
  8
Visible (ISO)
100
AcDbVertex
100
AcDb2dVertex
 10
67.8248574992555
 20
143.7905689730357
 30
0.0
  0
VERTEX
  5
65F
330
65D
100
AcDbEntity
  8
Visible (ISO)
100
AcDbVertex
100
AcDb2dVertex
 10
67.86360673455902
 20
143.7728129144781
 30
0.0
  0
VERTEX
  5
660
330
65D
100
AcDbEntity
  8
Visible (ISO)
100
AcDbVertex
100
AcDb2dVertex
 10
67.90208694310331
 20
143.7558380627766
 30
0.0
  0
VERTEX
  5
661
330
65D
100
AcDbEntity
  8
Visible (ISO)
100
AcDbVertex
100
AcDb2dVertex
 10
67.94026008601932
 20
143.7397059030542
 30
0.0
  0
VERTEX
  5
662
330
65D
100
AcDbEntity
  8
Visible (ISO)
100
AcDbVertex
100
AcDb2dVertex
 10
67.97808691649845
 20
143.7244764691589
 30
0.0
  0
VERTEX
  5
663
330
65D
100
AcDbEntity
  8
Visible (ISO)
100
AcDbVertex
100
AcDb2dVertex
 10
68.01552889706897
 20
143.7102102609412
 30
0.0
  0
VERTEX
  5
664
330
65D
100
AcDbEntity
  8
Visible (ISO)
100
AcDbVertex
100
AcDb2dVertex
 10
68.05254735665909
 20
143.696967644651
 30
0.0
  0
VERTEX
  5
665
330
65D
100
AcDbEntity
  8
Visible (ISO)
100
AcDbVertex
100
AcDb2dVertex
 10
68.08910339279458
 20
143.684809485141
 30
0.0
  0
VERTEX
  5
666
330
65D
100
AcDbEntity
  8
Visible (ISO)
100
AcDbVertex
100
AcDb2dVertex
 10
68.12515841153777
 20
143.6737954957905
 30
0.0
  0
VERTEX
  5
667
330
65D
100
AcDbEntity
  8
Visible (ISO)
100
AcDbVertex
100
AcDb2dVertex
 10
68.16067379828274
 20
143.6639868293205
 30
0.0
  0
VERTEX
  5
668
330
65D
100
AcDbEntity
  8
Visible (ISO)
100
AcDbVertex
100
AcDb2dVertex
 10
68.19568140198771
 20
143.6554418581979
 30
0.0
  0
VERTEX
  5
669
330
65D
100
AcDbEntity
  8
Visible (ISO)
100
AcDbVertex
100
AcDb2dVertex
 10
68.23142407013256
 20
143.6482419922181
 30
0.0
  0
VERTEX
  5
66A
330
65D
100
AcDbEntity
  8
Visible (ISO)
100
AcDbVertex
100
AcDb2dVertex
 10
68.26787069409795
 20
143.6426475163564
 30
0.0
  0
VERTEX
  5
66B
330
65D
100
AcDbEntity
  8
Visible (ISO)
100
AcDbVertex
100
AcDb2dVertex
 10
68.30436504259949
 20
143.6389544906293
 30
0.0
  0
VERTEX
  5
66C
330
65D
100
AcDbEntity
  8
Visible (ISO)
100
AcDbVertex
100
AcDb2dVertex
 10
68.34025079688465
 20
143.6374604692619
 30
0.0
  0
VERTEX
  5
66D
330
65D
100
AcDbEntity
  8
Visible (ISO)
100
AcDbVertex
100
AcDb2dVertex
 10
68.3748714942667
 20
143.638462254208
 30
0.0
  0
VERTEX
  5
66E
330
65D
100
AcDbEntity
  8
Visible (ISO)
100
AcDbVertex
100
AcDb2dVertex
 10
68.40757111419546
 20
143.6422568462232
 30
0.0
  0
VERTEX
  5
66F
330
65D
100
AcDbEntity
  8
Visible (ISO)
100
AcDbVertex
100
AcDb2dVertex
 10
68.43777539962951
 20
143.6491745859176
 30
0.0
  0
VERTEX
  5
670
330
65D
100
AcDbEntity
  8
Visible (ISO)
100
AcDbVertex
100
AcDb2dVertex
 10
68.46704117325888
 20
143.6603808917251
 30
0.0
  0
VERTEX
  5
671
330
65D
100
AcDbEntity
  8
Visible (ISO)
100
AcDbVertex
100
AcDb2dVertex
 10
68.4949556383113
 20
143.6762241185762
 30
0.0
  0
VERTEX
  5
672
330
65D
100
AcDbEntity
  8
Visible (ISO)
100
AcDbVertex
100
AcDb2dVertex
 10
68.51985470380904
 20
143.6965475137995
 30
0.0
  0
VERTEX
  5
673
330
65D
100
AcDbEntity
  8
Visible (ISO)
100
AcDbVertex
100
AcDb2dVertex
 10
68.54007405770608
 20
143.7211949553278
 30
0.0
  0
VERTEX
  5
674
330
65D
100
AcDbEntity
  8
Visible (ISO)
100
AcDbVertex
100
AcDb2dVertex
 10
68.55536913948097
 20
143.7523746988685
 30
0.0
  0
VERTEX
  5
675
330
65D
100
AcDbEntity
  8
Visible (ISO)
100
AcDbVertex
100
AcDb2dVertex
 10
68.56558870413613
 20
143.7901518241887
 30
0.0
  0
VERTEX
  5
676
330
65D
100
AcDbEntity
  8
Visible (ISO)
100
AcDbVertex
100
AcDb2dVertex
 10
68.5693108562646
 20
143.8313717694172
 30
0.0
  0
SEQEND
  5
677
330
65D
100
AcDbEntity
  8
Visible (ISO)
  0
POLYLINE
  5
678
330
2
100
AcDbEntity
  8
Visible (ISO)
100
AcDb2dPolyline
 66
     1
 10
0.0
 20
0.0
 30
0.0
 70
   128
  0
VERTEX
  5
679
330
678
100
AcDbEntity
  8
Visible (ISO)
100
AcDbVertex
100
AcDb2dVertex
 10
70.9000085331252
 20
143.7020339868033
 30
0.0
  0
VERTEX
  5
67A
330
678
100
AcDbEntity
  8
Visible (ISO)
100
AcDbVertex
100
AcDb2dVertex
 10
70.98972867105627
 20
143.7157370792759
 30
0.0
  0
VERTEX
  5
67B
330
678
100
AcDbEntity
  8
Visible (ISO)
100
AcDbVertex
100
AcDb2dVertex
 10
71.08134877594079
 20
143.7295262896174
 30
0.0
  0
VERTEX
  5
67C
330
678
100
AcDbEntity
  8
Visible (ISO)
100
AcDbVertex
100
AcDb2dVertex
 10
71.17456575841214
 20
143.7435730011839
 30
0.0
  0
VERTEX
  5
67D
330
678
100
AcDbEntity
  8
Visible (ISO)
100
AcDbVertex
100
AcDb2dVertex
 10
71.26907656508717
 20
143.7580483595631
 30
0.0
  0
VERTEX
  5
67E
330
678
100
AcDbEntity
  8
Visible (ISO)
100
AcDbVertex
100
AcDb2dVertex
 10
71.36457803463219
 20
143.7731242236474
 30
0.0
  0
VERTEX
  5
67F
330
678
100
AcDbEntity
  8
Visible (ISO)
100
AcDbVertex
100
AcDb2dVertex
 10
71.46076722161462
 20
143.7889715123897
 30
0.0
  0
VERTEX
  5
680
330
678
100
AcDbEntity
  8
Visible (ISO)
100
AcDbVertex
100
AcDb2dVertex
 10
71.55734092871717
 20
143.805761592446
 30
0.0
  0
VERTEX
  5
681
330
678
100
AcDbEntity
  8
Visible (ISO)
100
AcDbVertex
100
AcDb2dVertex
 10
71.65399610255682
 20
143.8236660960737
 30
0.0
  0
VERTEX
  5
682
330
678
100
AcDbEntity
  8
Visible (ISO)
100
AcDbVertex
100
AcDb2dVertex
 10
71.75042968975038
 20
143.8428564121955
 30
0.0
  0
VERTEX
  5
683
330
678
100
AcDbEntity
  8
Visible (ISO)
100
AcDbVertex
100
AcDb2dVertex
 10
71.84633856494764
 20
143.8635036752658
 30
0.0
  0
VERTEX
  5
684
330
678
100
AcDbEntity
  8
Visible (ISO)
100
AcDbVertex
100
AcDb2dVertex
 10
71.94141967476554
 20
143.8857792742072
 30
0.0
  0
VERTEX
  5
685
330
678
100
AcDbEntity
  8
Visible (ISO)
100
AcDbVertex
100
AcDb2dVertex
 10
72.03537003778797
 20
143.9098548524108
 30
0.0
  0
VERTEX
  5
686
330
678
100
AcDbEntity
  8
Visible (ISO)
100
AcDbVertex
100
AcDb2dVertex
 10
72.12788631276357
 20
143.9359012675957
 30
0.0
  0
VERTEX
  5
687
330
678
100
AcDbEntity
  8
Visible (ISO)
100
AcDbVertex
100
AcDb2dVertex
 10
72.21866573417742
 20
143.964090439888
 30
0.0
  0
VERTEX
  5
688
330
678
100
AcDbEntity
  8
Visible (ISO)
100
AcDbVertex
100
AcDb2dVertex
 10
72.30740503274529
 20
143.9945932381404
 30
0.0
  0
VERTEX
  5
689
330
678
100
AcDbEntity
  8
Visible (ISO)
100
AcDbVertex
100
AcDb2dVertex
 10
72.39380108311689
 20
144.027581526812
 30
0.0
  0
VERTEX
  5
68A
330
678
100
AcDbEntity
  8
Visible (ISO)
100
AcDbVertex
100
AcDb2dVertex
 10
72.4812180585165
 20
144.0654292275752
 30
0.0
  0
VERTEX
  5
68B
330
678
100
AcDbEntity
  8
Visible (ISO)
100
AcDbVertex
100
AcDb2dVertex
 10
72.57034626719655
 20
144.1098549821529
 30
0.0
  0
VERTEX
  5
68C
330
678
100
AcDbEntity
  8
Visible (ISO)
100
AcDbVertex
100
AcDb2dVertex
 10
72.65605431226237
 20
144.159597027587
 30
0.0
  0
VERTEX
  5
68D
330
678
100
AcDbEntity
  8
Visible (ISO)
100
AcDbVertex
100
AcDb2dVertex
 10
72.73321367550266
 20
144.2133981829469
 30
0.0
  0
VERTEX
  5
68E
330
678
100
AcDbEntity
  8
Visible (ISO)
100
AcDbVertex
100
AcDb2dVertex
 10
72.80395587795789
 20
144.2762629032817
 30
0.0
  0
VERTEX
  5
68F
330
678
100
AcDbEntity
  8
Visible (ISO)
100
AcDbVertex
100
AcDb2dVertex
 10
72.86418771986115
 20
144.3475871685767
 30
0.0
  0
VERTEX
  5
690
330
678
100
AcDbEntity
  8
Visible (ISO)
100
AcDbVertex
100
AcDb2dVertex
 10
72.90373435119767
 20
144.4238952614748
 30
0.0
  0
VERTEX
  5
691
330
678
100
AcDbEntity
  8
Visible (ISO)
100
AcDbVertex
100
AcDb2dVertex
 10
72.91919561520211
 20
144.5043012835125
 30
0.0
  0
SEQEND
  5
692
330
678
100
AcDbEntity
  8
Visible (ISO)
  0
POLYLINE
  5
693
330
2
100
AcDbEntity
  8
Visible (ISO)
100
AcDb2dPolyline
 66
     1
 10
0.0
 20
0.0
 30
0.0
 70
   128
  0
VERTEX
  5
694
330
693
100
AcDbEntity
  8
Visible (ISO)
100
AcDbVertex
100
AcDb2dVertex
 10
72.91919561520211
 20
144.5043012835125
 30
0.0
  0
VERTEX
  5
695
330
693
100
AcDbEntity
  8
Visible (ISO)
100
AcDbVertex
100
AcDb2dVertex
 10
72.92333850428486
 20
144.4352137380741
 30
0.0
  0
VERTEX
  5
696
330
693
100
AcDbEntity
  8
Visible (ISO)
100
AcDbVertex
100
AcDb2dVertex
 10
72.93393495148001
 20
144.387855710153
 30
0.0
  0
VERTEX
  5
697
330
693
100
AcDbEntity
  8
Visible (ISO)
100
AcDbVertex
100
AcDb2dVertex
 10
72.9500740988741
 20
144.3606240539222
 30
0.0
  0
VERTEX
  5
698
330
693
100
AcDbEntity
  8
Visible (ISO)
100
AcDbVertex
100
AcDb2dVertex
 10
72.96902936960373
 20
144.3495463176084
 30
0.0
  0
VERTEX
  5
699
330
693
100
AcDbEntity
  8
Visible (ISO)
100
AcDbVertex
100
AcDb2dVertex
 10
72.98970414719139
 20
144.3522297611583
 30
0.0
  0
VERTEX
  5
69A
330
693
100
AcDbEntity
  8
Visible (ISO)
100
AcDbVertex
100
AcDb2dVertex
 10
73.01266960322942
 20
144.3652304079319
 30
0.0
  0
VERTEX
  5
69B
330
693
100
AcDbEntity
  8
Visible (ISO)
100
AcDbVertex
100
AcDb2dVertex
 10
73.03655136452724
 20
144.3860510156427
 30
0.0
  0
VERTEX
  5
69C
330
693
100
AcDbEntity
  8
Visible (ISO)
100
AcDbVertex
100
AcDb2dVertex
 10
73.0599746674278
 20
144.4121969932242
 30
0.0
  0
VERTEX
  5
69D
330
693
100
AcDbEntity
  8
Visible (ISO)
100
AcDbVertex
100
AcDb2dVertex
 10
73.08312453569434
 20
144.4424549185204
 30
0.0
  0
VERTEX
  5
69E
330
693
100
AcDbEntity
  8
Visible (ISO)
100
AcDbVertex
100
AcDb2dVertex
 10
73.10690223275111
 20
144.4769138029148
 30
0.0
  0
VERTEX
  5
69F
330
693
100
AcDbEntity
  8
Visible (ISO)
100
AcDbVertex
100
AcDb2dVertex
 10
73.13122639827554
 20
144.5151798440174
 30
0.0
  0
VERTEX
  5
6A0
330
693
100
AcDbEntity
  8
Visible (ISO)
100
AcDbVertex
100
AcDb2dVertex
 10
73.15601603694734
 20
144.5568600911107
 30
0.0
  0
VERTEX
  5
6A1
330
693
100
AcDbEntity
  8
Visible (ISO)
100
AcDbVertex
100
AcDb2dVertex
 10
73.18119007631224
 20
144.6015607863384
 30
0.0
  0
VERTEX
  5
6A2
330
693
100
AcDbEntity
  8
Visible (ISO)
100
AcDbVertex
100
AcDb2dVertex
 10
73.20666700177946
 20
144.6488894330518
 30
0.0
  0
VERTEX
  5
6A3
330
693
100
AcDbEntity
  8
Visible (ISO)
100
AcDbVertex
100
AcDb2dVertex
 10
73.23236553016045
 20
144.6984523059953
 30
0.0
  0
VERTEX
  5
6A4
330
693
100
AcDbEntity
  8
Visible (ISO)
100
AcDbVertex
100
AcDb2dVertex
 10
73.25820479973515
 20
144.7498563447165
 30
0.0
  0
VERTEX
  5
6A5
330
693
100
AcDbEntity
  8
Visible (ISO)
100
AcDbVertex
100
AcDb2dVertex
 10
73.28410352731498
 20
144.8027083106295
 30
0.0
  0
VERTEX
  5
6A6
330
693
100
AcDbEntity
  8
Visible (ISO)
100
AcDbVertex
100
AcDb2dVertex
 10
73.30998027544325
 20
144.8566150542152
 30
0.0
  0
VERTEX
  5
6A7
330
693
100
AcDbEntity
  8
Visible (ISO)
100
AcDbVertex
100
AcDb2dVertex
 10
73.33575418239991
 20
144.9111832716863
 30
0.0
  0
VERTEX
  5
6A8
330
693
100
AcDbEntity
  8
Visible (ISO)
100
AcDbVertex
100
AcDb2dVertex
 10
73.36134375426215
 20
144.9660192703877
 30
0.0
  0
VERTEX
  5
6A9
330
693
100
AcDbEntity
  8
Visible (ISO)
100
AcDbVertex
100
AcDb2dVertex
 10
73.3866677643075
 20
145.0207305982044
 30
0.0
  0
VERTEX
  5
6AA
330
693
100
AcDbEntity
  8
Visible (ISO)
100
AcDbVertex
100
AcDb2dVertex
 10
73.4116451400817
 20
145.0749234972799
 30
0.0
  0
VERTEX
  5
6AB
330
693
100
AcDbEntity
  8
Visible (ISO)
100
AcDbVertex
100
AcDb2dVertex
 10
73.43619484769743
 20
145.1282048566621
 30
0.0
  0
VERTEX
  5
6AC
330
693
100
AcDbEntity
  8
Visible (ISO)
100
AcDbVertex
100
AcDb2dVertex
 10
73.4602351618297
 20
145.1801814822986
 30
0.0
  0
SEQEND
  5
6AD
330
693
100
AcDbEntity
  8
Visible (ISO)
  0
POLYLINE
  5
6AE
330
2
100
AcDbEntity
  8
Visible (ISO)
100
AcDb2dPolyline
 66
     1
 10
0.0
 20
0.0
 30
0.0
 70
   128
  0
VERTEX
  5
6AF
330
6AE
100
AcDbEntity
  8
Visible (ISO)
100
AcDbVertex
100
AcDb2dVertex
 10
69.10732222539758
 20
143.5160784244187
 30
0.0
  0
VERTEX
  5
6B0
330
6AE
100
AcDbEntity
  8
Visible (ISO)
100
AcDbVertex
100
AcDb2dVertex
 10
68.64775536268465
 20
143.5707458224143
 30
0.0
  0
VERTEX
  5
6B1
330
6AE
100
AcDbEntity
  8
Visible (ISO)
100
AcDbVertex
100
AcDb2dVertex
 10
68.19915929179706
 20
143.6546509230963
 30
0.0
  0
SEQEND
  5
6B2
330
6AE
100
AcDbEntity
  8
Visible (ISO)
  0
LINE
  5
6B3
330
2
100
AcDbEntity
  8
Visible (ISO)
100
AcDbLine
 10
73.00751680753598
 20
144.3610510736793
 30
0.0
 11
72.51873363485936
 21
144.0829107946985
 31
0.0
  0
LINE
  5
6B4
330
2
100
AcDbEntity
  8
Visible (ISO)
100
AcDbLine
 10
72.91919566247599
 20
146.6271922378666
 30
0.0
 11
72.91919566247599
 21
144.5043011274545
 31
0.0
  0
LINE
  5
6B5
330
2
100
AcDbEntity
  8
Visible (ISO)
100
AcDbLine
 10
72.91919566247599
 20
146.6271922378666
 30
0.0
 11
71.60278692643408
 21
146.4235430976738
 31
0.0
  0
LINE
  5
6B6
330
2
100
AcDbEntity
  8
Visible (ISO)
100
AcDbLine
 10
69.88571961908135
 20
146.1579118607929
 30
0.0
 11
68.56931088303941
 21
145.9542627206
 31
0.0
  0
LINE
  5
6B7
330
2
100
AcDbEntity
  8
Visible (ISO)
100
AcDbLine
 10
68.56931088303941
 20
145.9542627206
 30
0.0
 11
68.56931088303941
 21
143.831371610188
 31
0.0
  0
LINE
  5
6B8
330
2
100
AcDbEntity
  8
Visible (ISO)
100
AcDbLine
 10
70.58849797921266
 20
143.6538429924978
 30
0.0
 11
70.90000856630275
 21
143.7020338480315
 31
0.0
  0
LINE
  5
6B9
330
2
100
AcDbEntity
  8
Visible (ISO)
100
AcDbLine
 10
73.46023521426298
 20
145.1801813924177
 30
0.0
 11
73.54370422450751
 21
145.3600321137296
 31
0.0
  0
LINE
  5
6BA
330
2
100
AcDbEntity
  8
Visible (ISO)
100
AcDbLine
 10
74.08474377629449
 20
149.1385993862182
 30
0.0
 11
74.08474377629449
 21
147.0157082758061
 31
0.0
  0
LINE
  5
6BB
330
2
100
AcDbEntity
  8
Visible (ISO)
100
AcDbLine
 10
74.08474377629449
 20
149.1385993862182
 30
0.0
 11
73.73201311856274
 21
148.3785704481008
 31
0.0
  0
LINE
  5
6BC
330
2
100
AcDbEntity
  8
Visible (ISO)
100
AcDbLine
 10
73.27192632020774
 20
147.387221175984
 30
0.0
 11
72.91919566247599
 21
146.6271922378666
 31
0.0
  0
LINE
  5
6BD
330
2
100
AcDbEntity
  8
Visible (ISO)
100
AcDbLine
 10
73.74373426293946
 20
149.3354813205499
 30
0.0
 11
74.08474377629449
 21
149.1385993862182
 31
0.0
  0
LINE
  5
6BE
330
2
100
AcDbEntity
  8
Visible (ISO)
100
AcDbLine
 10
68.56931088303941
 20
145.9542627206
 30
0.0
 11
68.2283013696844
 21
146.1511446549318
 31
0.0
  0
MTEXT
  5
6BF
330
2
100
AcDbEntity
  8
03-DIMMENTION
100
AcDbMText
 10
46.5868599974708
 20
133.4970693529453
 30
0.0
 40
4.0
 41
58.41124239439455
 71
     1
 72
     5
  1
検出方向
 73
     1
 44
1.0
1001
ACAD
1000
MTEXTBEGIN
1070
    73
1070
     1
1070
    44
1040
1.0
1070
    74
1070
     0
1000
MTEXTEND
  0
LWPOLYLINE
  5
6C0
330
2
100
AcDbEntity
  8
03-DIMMENTION
100
AcDbPolyline
 90
        4
 70
     1
 43
0.0
 10
44.49464613373447
 20
134.3132801189479
 10
69.27718645417371
 20
134.3132801189479
 10
69.27718645417371
 20
127.1524308684248
 10
44.49464613373447
 20
127.1524308684248
  0
LINE
  5
6C1
330
2
100
AcDbEntity
  8
02-CENTER
100
AcDbLine
 10
60.43251092562324
 20
179.0581571617307
 30
0.0
 11
60.43251092562324
 21
163.1606029195639
 31
0.0
  0
LINE
  5
6C2
330
2
100
AcDbEntity
  8
02-CENTER
100
AcDbLine
 10
60.43251092562324
 20
144.5457858431132
 30
0.0
 11
60.43251092562324
 21
137.9447894442179
 31
0.0
  0
ELLIPSE
  5
6C3
330
2
100
AcDbEntity
  8
03-DIMMENTION
370
    50
100
AcDbEllipse
 10
60.43251092562323
 20
179.0581571617307
 30
0.0
 11
12.60000000000007
 21
0.000000000000001
 31
0.0
210
0.0
220
0.0
230
0.9999999999999998
 40
0.5773502691896257
 41
1.431009858014035
 42
6.328146299310501
  0
LINE
  5
6C4
330
2
100
AcDbEntity
  8
03-DIMMENTION
370
    50
100
AcDbLine
 10
74.31427966732387
 20
179.7319815746512
 30
0.0
 11
71.63748318296973
 21
179.014736118366
 31
0.0
  0
LINE
  5
6C5
330
2
100
AcDbEntity
  8
03-DIMMENTION
370
    50
100
AcDbLine
 10
71.63748318296973
 20
179.014736118366
 30
0.0
 11
70.77286028249753
 21
183.9096191206103
 31
0.0
  0
LINE
  5
6C6
330
2
100
AcDbEntity
  8
03-DIMMENTION
370
    50
100
AcDbLine
 10
70.77286028249753
 20
183.9096191206103
 30
0.0
 11
74.31427966732387
 21
179.7319815746512
 31
0.0
  0
LINE
  5
6C7
330
2
100
AcDbEntity
  8
03-DIMMENTION
370
    50
100
AcDbLine
 10
62.22532920257707
 20
187.6930150398334
 30
0.0
 11
62.15324762415251
 21
184.9227290059979
 31
0.0
  0
LINE
  5
6C8
330
2
100
AcDbEntity
  8
03-DIMMENTION
370
    50
100
AcDbLine
 10
62.15324762415251
 20
184.9227290059979
 30
0.0
 11
67.11467655408249
 21
185.2255083628498
 31
0.0
  0
LINE
  5
6C9
330
2
100
AcDbEntity
  8
03-DIMMENTION
370
    50
100
AcDbLine
 10
67.11467655408249
 20
185.2255083628498
 30
0.0
 11
62.22532920257707
 21
187.6930150398334
 31
0.0
  0
MTEXT
  5
6CA
330
2
100
AcDbEntity
  8
03-DIMMENTION
100
AcDbMText
 10
31.11934645822112
 20
105.7153782226482
 30
0.0
 40
4.0
 41
58.41124239439455
 71
     1
 72
     5
  1
●重量：1.4g\P●消費電流：約2mA\P●電源電圧：3V～5V\P●基準出力：1.35V
 73
     1
 44
1.0
1001
ACAD
1000
MTEXTBEGIN
1070
    73
1070
     1
1070
    44
1040
1.0
1070
    74
1070
     0
1000
MTEXTEND
  0
ENDSEC
  0
SECTION
  2
OBJECTS
  0
DICTIONARY
  5
9
330
0
100
AcDbDictionary
281
     1
  3
ACAD_COLOR
350
39
  3
ACAD_GROUP
350
34
  3
ACAD_LAYOUT
350
F
  3
ACAD_MATERIAL
350
B
  3
ACAD_MLINESTYLE
350
35
  3
ACAD_PLOTSETTINGS
350
36
  3
ACAD_PLOTSTYLENAME
350
8
  3
ACAD_TABLESTYLE
350
3A
  3
ACAD_VISUALSTYLE
350
28
  3
AcDbVariableDictionary
350
6CE
  0
DICTIONARY
  5
29
330
25
100
AcDbDictionary
280
     1
281
     1
  0
DICTIONARY
  5
18
330
17
100
AcDbDictionary
280
     1
281
     1
  3
ACAD_LAYERFILTERS
360
19
  3
ACAD_LAYERSTATES
360
1A
  3
ACLYDICTIONARY
360
1B
  0
DICTIONARY
  5
3
330
2
100
AcDbDictionary
280
     1
281
     1
  3
ACAD_SORTENTS
360
6CB
  0
DICTIONARY
  5
39
102
{ACAD_REACTORS
330
9
102
}
330
9
100
AcDbDictionary
281
     1
  0
DICTIONARY
  5
34
102
{ACAD_REACTORS
330
9
102
}
330
9
100
AcDbDictionary
281
     1
  0
DICTIONARY
  5
F
102
{ACAD_REACTORS
330
9
102
}
330
9
100
AcDbDictionary
281
     1
  3
01
350
13
  3
Model
350
E
  0
DICTIONARY
  5
B
102
{ACAD_REACTORS
330
9
102
}
330
9
100
AcDbDictionary
281
     1
  3
ByBlock
350
38
  3
ByLayer
350
37
  3
Global
350
A
  0
DICTIONARY
  5
35
102
{ACAD_REACTORS
330
9
102
}
330
9
100
AcDbDictionary
281
     1
  3
Standard
350
3B
  0
DICTIONARY
  5
36
102
{ACAD_REACTORS
330
9
102
}
330
9
100
AcDbDictionary
281
     1
  0
ACDBDICTIONARYWDFLT
  5
8
102
{ACAD_REACTORS
330
9
102
}
330
9
100
AcDbDictionary
281
     1
  3
Normal
350
7
100
AcDbDictionaryWithDefault
340
7
  0
DICTIONARY
  5
3A
102
{ACAD_REACTORS
330
9
102
}
330
9
100
AcDbDictionary
281
     1
  3
Standard
350
3C
  0
DICTIONARY
  5
28
102
{ACAD_REACTORS
330
9
102
}
330
9
100
AcDbDictionary
281
     1
  3
2dWireframe
350
27
  3
3dWireframe
350
3E
  3
Realistic
350
3D
  0
DICTIONARY
  5
6CE
102
{ACAD_REACTORS
330
9
102
}
330
9
100
AcDbDictionary
281
     1
  3
CTABLESTYLE
350
6CF
  3
DIMASSOC
350
6D3
  3
HIDETEXT
350
6D2
  3
INDEXCTL
350
6D1
  3
SORTENTS
350
6D0
  0
DICTIONARY
  5
19
102
{ACAD_REACTORS
330
18
102
}
330
18
100
AcDbDictionary
281
     1
  0
DICTIONARY
  5
1A
102
{ACAD_REACTORS
330
18
102
}
330
18
100
AcDbDictionary
281
     1
  0
DICTIONARY
  5
1B
102
{ACAD_REACTORS
330
18
102
}
330
18
100
AcDbDictionary
281
     1
1001
ACAD
1000
<All
  0
SORTENTSTABLE
  5
6CB
102
{ACAD_REACTORS
330
3
102
}
330
3
100
AcDbSortentsTable
330
2
  0
LAYOUT
  5
13
102
{ACAD_XDICTIONARY
360
14
102
}
102
{ACAD_REACTORS
330
F
102
}
330
F
100
AcDbPlotSettings
  1

  2
Adobe PDF.pc3
  4
A4
  6

 40
3.174999952316284
 41
3.174999952316284
 42
3.17498779296875
 43
3.175003051757812
 44
297.0318298339844
 45
209.9098358154297
 46
0.0
 47
0.0
 48
0.0
 49
0.0
140
0.0
141
0.0
142
1.0
143
1.0
 70
   688
 72
     1
 73
     0
 74
     5
  7
acad.ctb
 75
    16
147
1.0
148
0.0
149
0.0
100
AcDbLayout
  1
01
 70
     1
 71
     1
 10
-3.174999952316284
 20
-3.174999952316284
 11
293.8568298816681
 21
206.7348358631134
 12
0.0
 22
0.0
 32
0.0
 14
1.982810534561849
 24
1.991391002184286
 34
-0.0015258207003583
 15
289.0162850008616
 25
202.0008468240099
 35
0.0000000349246037
146
0.0
 13
0.0
 23
0.0
 33
0.0
 16
1.0
 26
0.0
 36
0.0
 17
0.0
 27
1.0
 37
0.0
 76
     0
330
10
1001
ACAD_PSEXT
1000
Adobe PDF.pc3
1000
Adobe PDF Converter
1000
My Documents
1000
Adobe PDF の作成
1070
     0
  0
LAYOUT
  5
E
102
{ACAD_XDICTIONARY
360
6D6
102
}
102
{ACAD_REACTORS
330
F
102
}
330
F
100
AcDbPlotSettings
  1

  2
EPSON PM-700C ESC/P R
  4

  6

 40
0.0
 41
0.0
 42
0.0
 43
0.0
 44
0.0
 45
0.0
 46
0.0
 47
0.0
 48
0.0
 49
0.0
140
0.0
141
0.0
142
1.0
143
1.0
 70
  1712
 72
     0
 73
     0
 74
     0
  7

 75
     0
147
1.0
148
0.0
149
0.0
100
AcDbLayout
  1
Model
 70
     1
 71
     0
 10
0.0
 20
0.0
 11
12.0
 21
9.0
 12
0.0
 22
0.0
 32
0.0
 14
0.0
 24
0.0
 34
0.0
 15
0.0
 25
0.0
 35
0.0
146
0.0
 13
0.0
 23
0.0
 33
0.0
 16
1.0
 26
0.0
 36
0.0
 17
0.0
 27
1.0
 37
0.0
 76
     0
330
2
331
26
  0
MATERIAL
  5
38
102
{ACAD_XDICTIONARY
360
6DB
102
}
102
{ACAD_REACTORS
330
B
102
}
330
B
100
AcDbMaterial
  1
ByBlock
  0
MATERIAL
  5
37
102
{ACAD_XDICTIONARY
360
6D9
102
}
102
{ACAD_REACTORS
330
B
102
}
330
B
100
AcDbMaterial
  1
ByLayer
  0
MATERIAL
  5
A
102
{ACAD_XDICTIONARY
360
6D4
102
}
102
{ACAD_REACTORS
330
B
102
}
330
B
100
AcDbMaterial
  1
Global
  0
MLINESTYLE
  5
3B
102
{ACAD_REACTORS
330
35
102
}
330
35
100
AcDbMlineStyle
  2
STANDARD
 70
     0
  3

 62
   256
 51
90.0
 52
90.0
 71
     2
 49
0.5
 62
   256
  6
BYLAYER
 49
-0.5
 62
   256
  6
BYLAYER
  0
ACDBPLACEHOLDER
  5
7
102
{ACAD_REACTORS
330
8
102
}
330
8
  0
TABLESTYLE
  5
3C
102
{ACAD_XDICTIONARY
360
6DD
102
}
102
{ACAD_REACTORS
330
3A
102
}
330
3A
100
AcDbTableStyle
  3
Standard
 70
     0
 71
     0
 40
1.5
 41
1.5
280
     0
281
     0
  7
Standard
140
4.5
170
     2
 62
     0
 63
     7
283
     0
274
    -2
284
     1
 64
     0
275
    -2
285
     1
 65
     0
276
    -2
286
     1
 66
     0
277
    -2
287
     1
 67
     0
278
    -2
288
     1
 68
     0
279
    -2
289
     1
 69
     0
  7
Standard
140
6.0
170
     5
 62
     0
 63
     7
283
     0
274
    -2
284
     1
 64
     0
275
    -2
285
     1
 65
     0
276
    -2
286
     1
 66
     0
277
    -2
287
     1
 67
     0
278
    -2
288
     1
 68
     0
279
    -2
289
     1
 69
     0
  7
Standard
140
4.5
170
     5
 62
     0
 63
     7
283
     0
274
    -2
284
     1
 64
     0
275
    -2
285
     1
 65
     0
276
    -2
286
     1
 66
     0
277
    -2
287
     1
 67
     0
278
    -2
288
     1
 68
     0
279
    -2
289
     1
 69
     0
  0
VISUALSTYLE
  5
27
102
{ACAD_REACTORS
330
28
102
}
330
28
100
AcDbVisualStyle
  2
2dWireframe
 70
     4
 71
     0
 72
     2
 73
     0
 90
        0
 40
-0.6
 41
-30.0
 62
     5
 63
     7
 74
     1
 91
        4
 64
     7
 65
   257
 75
     1
175
     1
 42
1.0
 92
        0
 66
   257
 43
1.0
 76
     1
 77
     6
 78
     2
 67
     7
 79
     5
170
     0
171
     0
290
     0
174
     0
 93
        1
 44
0.0
173
     0
291
     0
 45
0.0
1001
ACAD
1000
AcDbSavedByObjectVersion
1070
     0
  0
VISUALSTYLE
  5
3E
102
{ACAD_REACTORS
330
28
102
}
330
28
100
AcDbVisualStyle
  2
3dWireframe
 70
     5
 71
     0
 72
     2
 73
     0
 90
        0
 40
-0.6
 41
-30.0
 62
     5
 63
     7
 74
     1
 91
        4
 64
     7
 65
   257
 75
     1
175
     1
 42
1.0
 92
        0
 66
   257
 43
1.0
 76
     1
 77
     6
 78
     2
 67
     7
 79
     5
170
     0
171
     0
290
     0
174
     0
 93
        1
 44
0.0
173
     0
291
     0
 45
0.0
1001
ACAD
1000
AcDbSavedByObjectVersion
1070
     0
  0
VISUALSTYLE
  5
3D
102
{ACAD_REACTORS
330
28
102
}
330
28
100
AcDbVisualStyle
  2
Realistic
 70
     8
 71
     2
 72
     2
 73
     0
 90
        0
 40
-0.6
 41
-30.0
 62
     5
 63
     7
 74
     1
 91
        0
 64
     7
 65
   257
 75
     1
175
     1
 42
1.0
 92
        8
 66
     8
 43
1.0
 76
     1
 77
     6
 78
     2
 67
     7
 79
     5
170
     0
171
     0
290
     0
174
     0
 93
       13
 44
0.0
173
     0
291
     0
 45
0.0
1001
ACAD
1000
AcDbSavedByObjectVersion
1070
     0
  0
DICTIONARYVAR
  5
6CF
102
{ACAD_REACTORS
330
6CE
102
}
330
6CE
100
DictionaryVariables
280
     0
  1
STANDARD
  0
DICTIONARYVAR
  5
6D3
102
{ACAD_REACTORS
330
6CE
102
}
330
6CE
100
DictionaryVariables
280
     0
  1
1
  0
DICTIONARYVAR
  5
6D2
102
{ACAD_REACTORS
330
6CE
102
}
330
6CE
100
DictionaryVariables
280
     0
  1
1
  0
DICTIONARYVAR
  5
6D1
102
{ACAD_REACTORS
330
6CE
102
}
330
6CE
100
DictionaryVariables
280
     0
  1
0
  0
DICTIONARYVAR
  5
6D0
102
{ACAD_REACTORS
330
6CE
102
}
330
6CE
100
DictionaryVariables
280
     0
  1
127
  0
DICTIONARY
  5
14
330
13
100
AcDbDictionary
280
     1
281
     1
  3
ACAD_XREC_ROUNDTRIP
360
6D8
  3
ADSK_XREC_LAYOUTTHUMBNAIL
360
15
  0
DICTIONARY
  5
6D6
330
E
100
AcDbDictionary
280
     1
281
     1
  3
ACAD_XREC_ROUNDTRIP
360
6D7
  0
DICTIONARY
  5
6DB
330
38
100
AcDbDictionary
280
     1
281
     1
  3
ACAD_XREC_ROUNDTRIP
360
6DC
  0
DICTIONARY
  5
6D9
330
37
100
AcDbDictionary
280
     1
281
     1
  3
ACAD_XREC_ROUNDTRIP
360
6DA
  0
DICTIONARY
  5
6D4
330
A
100
AcDbDictionary
280
     1
281
     1
  3
ACAD_XREC_ROUNDTRIP
360
6D5
  0
DICTIONARY
  5
6DD
330
3C
100
AcDbDictionary
280
     1
281
     1
  3
ACAD_XREC_ROUNDTRIP
360
6DE
  0
XRECORD
  5
6D8
102
{ACAD_REACTORS
330
14
102
}
330
14
100
AcDbXrecord
280
     1
102
SHADEPLOT
 70
     1
102
SHADEPLOTRESLEVEL
 70
     2
102
SHADEPLOTCUSTOMDPI
 70
   150
  0
XRECORD
  5
15
102
{ACAD_REACTORS
330
14
102
}
330
14
100
AcDbXrecord
280
     1
310
28000000B40000007F00000001000800000000004C59000000000000000000000001000000000000FFFFFF0000000000FFFFFF000000000000000000000000000000000000000000000000000000000000000000330000006600000099000000CC000000FF00000000330000333300006633000099330000CC330000FF3300
310
0000660000336600006666000099660000CC660000FF66000000990000339900006699000099990000CC990000FF99000000CC000033CC000066CC000099CC0000CCCC0000FFCC000000FF000033FF000066FF000099FF0000CCFF0000FFFF000000003300330033006600330099003300CC003300FF003300003333003333
310
33006633330099333300CC333300FF33330000663300336633006666330099663300CC663300FF66330000993300339933006699330099993300CC993300FF99330000CC330033CC330066CC330099CC3300CCCC3300FFCC330000FF330033FF330066FF330099FF3300CCFF3300FFFF330000006600330066006600660099
310
006600CC006600FF00660000336600333366006633660099336600CC336600FF33660000666600336666006666660099666600CC666600FF66660000996600339966006699660099996600CC996600FF99660000CC660033CC660066CC660099CC6600CCCC6600FFCC660000FF660033FF660066FF660099FF6600CCFF6600
310
FFFF660000009900330099006600990099009900CC009900FF00990000339900333399006633990099339900CC339900FF33990000669900336699006666990099669900CC669900FF66990000999900339999006699990099999900CC999900FF99990000CC990033CC990066CC990099CC9900CCCC9900FFCC990000FF99
310
0033FF990066FF990099FF9900CCFF9900FFFF99000000CC003300CC006600CC009900CC00CC00CC00FF00CC000033CC003333CC006633CC009933CC00CC33CC00FF33CC000066CC003366CC006666CC009966CC00CC66CC00FF66CC000099CC003399CC006699CC009999CC00CC99CC00FF99CC0000CCCC0033CCCC0066CC
310
CC0099CCCC00CCCCCC00FFCCCC0000FFCC0033FFCC0066FFCC0099FFCC00CCFFCC00FFFFCC000000FF003300FF006600FF009900FF00CC00FF00FF00FF000033FF003333FF006633FF009933FF00CC33FF00FF33FF000066FF003366FF006666FF009966FF00CC66FF00FF66FF000099FF003399FF006699FF009999FF00CC
310
99FF00FF99FF0000CCFF0033CCFF0066CCFF0099CCFF00CCCCFF00FFCCFF0000FFFF0033FFFF0066FFFF0099FFFF00CCFFFF00FFFFFF00000000000D0D0D001A1A1A00282828003535350043434300505050005D5D5D006B6B6B00787878008686860093939300A1A1A100AEAEAE00BBBBBB00C9C9C900D6D6D600E4E4E400
310
F1F1F100FFFFFF0000000000000000000000000000000000000000000000000000000000000000000000000000000000E2E2E2E2E2E2E2E2E2E2E2E2E2E2E2E2E2E2E2E2E2E2E2E2E2E2E2E2E2E2E2E2E2E2E2E2E2E2E2E2E2E2E2E2E2E2E2E2E2E2E2E2E2E2E2E2E2E2E2E2E2E2E2E2E2E2E2E2E2E2E2E2E2E2E2E2E2E2E2
310
E2E2E2E2E2E2E2E2E2E2E2E2E2E2E2E2E2E2E2E2E2E2E2E2E2E2E2E2E2E2E2E2E2E2E2E2E2E2E2E2E2E2E2E2E2E2E2E2E2E2E2E2E2E2E2E2E2E2E2E2E2E2E2E2E2E2E2E2E2E2E2E2E2E2E2E2E2E2E2E2E2E2E2E2E2E2E2E2E2E2E2E2E2E2E2E2E2E2E2E2E2E2F5F5F5F5F5F5F5F5F5F5F5F5F5F5F5F5F5F5F5F5F5F5F5F5F5
310
F5F5F5F5F5F5F5F5F5F5F5F5F5F5F5F5F5F5F5F5F5F5F5F5F5F5F5F5F5F5F5F5F5F5F5F5F5F5F5F5F5F5F5F5F5F5F5F5F5F5F5F5F5F5F5F5F5F5F5F5F5F5F5F5F5F5F5F5F5F5F5F5F5F5F5F5F5F5F5F5F5F5F5F5F5F5F5F5F5F5F5F5F5F5F5F5F5F5F5F5F5F5F5F5F5F5F5F5F5F5F5F5F5F5F5F5F5F5F5F5F5F5F5F5F5F5F5
310
F5F5F5F5F5F5F5F5F5F5F5F5F5F5F5F5F5F5F5F5F5F5F5F5F5E2E2E2F5E2E2E2E2E2E2E2E2F5F5F5F5F5F5F5F5F5E2E2E2E2E2E2E2E2E2E2E2E2E2E2E2E2F5F5F5F5F5F5F5F5F5E2E2E2E2E2E2E2E2E2E2E2E2E2E2E2E2F5F5F5F5F5F5F5F5F5E2E2E2E2E2E2E2E2E2E2E2E2E2E2E2E2F5F5F5F5F5F5F5F5F5E2E2E2E2E2E2
310
E2E2E2E2E2E2E2E2E2E2F5F5F5F5F5F5F5F5F5E2E2E2E2E2E2E2E2E2E2E2E2E2E2E2E2F5F5F5F5F5F5F5F5F5E2E2E2E2E2E2E2E2E2E2E2E2E2E2E2E2F5F5F5F5F5F5F5F5F5E2E2E2E2E2E2E2E2F5E2E2E2F5E2F5F5F5F5F5F5F5F5F5F5F5F5F5F5F5F5F5F5F5F5F5F5F5F5F5F5F5F5F5F5F5F5F5F5F5F5F5F5F5F5F5F5F5F5
310
F5F5F5F5F5F5F5F5F5F5F5F5F5F5F5F5F5F5F5F5F5F5F5F5F5F5F5F5F5F5F5F5F5F5F5F5F5F5F5F5F5F5E2F5F5F5F5F5F5F5F5F5F5F5F5F5F5F5F5F5F5F5F5F5F5F5F5F5F5F5F5F5F5F5F5F5F5F5F5F5F5F5F5F5F5F5F5F5F5F5F5F5F5F5F5F5F5F5F5F5F5F5F5F5F5F5F5F5F5F5F5F5F5F5F5F5F5F5F5F5F5F5F5F5F5F5F5
310
F5F5E2F5E2E2E2F5E2F5F5F5F5F5F5F5F5F5F5F5F5F5F5F5F5F5F5F5F5F5F5F5F5F5F5F5F5F5F5F5F5F5F5F5F5F5F5F5F5F5F5F5F5F5F5F5F5F5F5F5F5F5F5F5F5F5F5F5F5F5F5F5F5F5F5F5F5F5F5F5F5F5F5F5F5F5F5F5F5F5F5F5F5F5F5E2F5F5F5F5F5F5F5F5F5F5F5F5F5F5F5F5F5F5F5F5F5F5F5F5F5F5F5F5F5F5F5
310
F5F5F5F5F5F5F5F5F5F5F5F5F5F5F5F5F5F5F5F5F5F5F5F5F5F5F5F5F5F5F5F5F5F5F5F5F5F5F5F5F5F5F5F5F5F5F5F5F5F5F5F5F5F5F5E2F5E2E2E2F5E2F5F5F5F5F5F5F5F5F5F5F5F5F5F5F5F5F5F5F5F5F5F5F5F5F5F5F5F5F5F5F5F5F5F5F5F5F5F5F5F5F5F5F5F5F5F5F5F5F5F5F5F5F5F5F5F5F5F5F5F5F5F5F5F5F5
310
F5F5F5F5F5F5F5F5F5F5F5F5F5F5F5F5F5F5F5F5F5E2F5F5F5F5F5F5F5F5F5F5F5F5F5F5F5F5F5F5F5F5F5F5F5F5F5F5F5F5F5F5F5F5F5F5F5F5F5F5F5F5F5F5F5F5F5F5F5F5F5F5F5F5F5F5F5F5F5F5F5F5F5F5F5F5F5F5F5F5F5F5F5F5F5F5F5F5F5F5F5F5F5F5F5F5F5F5E2F5E2E2E2F5E2F5F5F5E2E2E2E2E2E2E2E2E2
310
E2E2E2E2E2E2E2E2E2E2E2E2E2E2E2E2E2E2E2E2E2E2E2E2E2E2E2E2E2E2E2E2E2E2E2E2E2E2E2E2E2E2E2E2E2E2E2E2E2E2E2E2E2E2E2E2E2E2E2E2E2E2E2E2E2E2E2E2E2E2E2E2E2E2E2E2E2E2E2E2E2E2E2E2E2E2E2E2E2E2E2E2E2E2E2E2E2E2E2E2E2E2E2E2E2E2E2E2E2E2E2E2E2E2E2E2E2E2E2E2E2E2E2E2E2E2E2
310
E2E2E2E2E2E2E2E2E2E2E2E2E2E2E2E2E2E2E2E2E2E2E2E2E2E2E2E2E2E2E2F5F5F5E2F5E2E2E2F5E2F5F5F5E2E2E2E2E2E2E2E2E2E2E2E2E2E2E2E2E2E2E2E2E2E2E2E2E2E2E2E2E2E2E2E2E2E2E2E2E2E2E2E2E2E2E2E2E2E2E2E2E2E2E2E2E2E2E2E2E2E2E2E2E2E2E2E2E2E2E2E2E2E2E2E2E2E2E2E2E2E2E2E2E2E2E2
310
E2E2E2E2E2E2E2E2E2E2E2E2E2E2E2E2E2E2E2E2E2E2E2E2E2E2E2E2E2E2E2E2E2E2E2E2E2E2E2E2E2E2E2E2E2E2E2E2E2E2E2E2E2E2E2E2E2E2E2E2E2E2E2E2E2E2E2E2E2E2E2E2E2E2E2E2E2E2E2E2E2E2E2E2F5F5F5E2F5E2E2E2F5E2F5F5F5E2E2F5F5F5F5F5F5F5F5F5F5F5F5F5F5F5F5F5F5F5F5F5F5F5F5F5F5F5F5
310
F5F5F5F5F5F5F5F5F5F5F5F5F5F5F5F5F5F5F5F5F5F5F5F5F5E2F5F5F5E2E2E2E2E2E2F5F5F5E2F5F5F5F5F5E2E2F5F5F5F5F5F5E2F5F5F5E2E2E2E2E2E2E2F5F5F5F5F5E2F5F5F5F5F5E2E2E2E2E2E2E2E2E2E2E2E2E2E2E2E2E2E2E2E2E2E2E2E2E2E2E2E2E2E2E2F5F5F5F5F5F5E2F5F5F5F5F5F5F5F5F5F5F5F5F5F5F5
310
F5F5F5F5F5F5F5F5F5E2F5F5F5E2F5E2E2E2F5E2F5F5F5E2E2F5F5F5F5F5F5F5F5F5F5F5F5F5F5F5F5F5F5F5F5F5F5F5F5F5F5F5F5F5F5F5F5F5F5F5F5F5F5F5F5F5F5F5F5F5F5F5F5F5F5F5F5F5E2F5F5F5E2E2E2E2E2E2F5F5F5E2F5F5F5F5F5E2E2F5F5F5F5F5F5E2F5F5F5E2E2E2E2E2E2E2F5F5F5F5F5E2F5F5F5F5F5
310
E2E2E2E2E2E2E2E2E2E2E2E2E2E2E2E2E2E2E2E2E2E2E2E2E2E2E2E2E2E2E2F5F5F5F5F5F5E2F5F5F5F5F5F5F5F5F5F5F5F5F5F5F5F5F5F5F5F5F5F5F5F5E2F5F5F5E2F5E2E2E2F5F5F5F5F5E2E2F5F5F5F5F5F5F5F5F5F5F5F5F5F5F5F5F5F5F5F5F5F5F5F5F5F5F5F5F5F5F5F5F5F5F5F5F5F5F5F5F5F5F5F5F5F5F5F5F5
310
F5F5F5F5E2E2E2E2E2E2E2E2E2E2E2E2E2E2E2E2E2E2E2E2E2E2E2E2E2E2E2E2E2E2E2E2E2E2E2E2E2E2E2E2E2E2E2E2F5F5F5F5F5E2E2E2E2E2E2E2E2E2E2E2E2E2E2E2E2E2E2E2E2E2E2E2E2E2E2E2E2E2E2E2F5F5F5F5F5F5E2F5F5F5F5F5F5F5F5F5F5F5F5F5F5F5F5F5F5F5F5F5F5F5F5E2F5F5F5F5F5E2E2E2F5F5F5
310
F5F5E2E2F5F5F5F5F5F5F5F5F5F5F5F5F5F5F5F5F5F5F5F5F5F5F5F5F5F5F5F5F5F5F5F5F5F5F5F5F5F5F5F5F5F5F5F5F5F5F5F5F5F5F5F5F5E2F5F5E2E2E2E2E2E2E2F5F5F5E2F5F5F5E2E2E2E2E2E2E2F5F5F5E2F5F5F5F5E2E2E2E2E2E2E2F5F5F5F5E2F5F5F5F5F5E2E2E2E2E2E2E2E2E2E2E2E2E2E2E2E2E2E2E2E2E2
310
E2E2E2E2E2E2E2E2E2E2F5F5F5F5F5F5E2F5E2E2E2E2E2E2E2E2E2E2E2E2E2E2E2E2E2E2E2E2E2F5F5E2F5F5F5F5F5E2E2E2F5F5F5F5F5E2E2F5F5F5F5F5F5F5F5F5F5F5F5F5F5F5F5F5F5F5F5F5F5F5F5F5F5F5F5F5F5F5F5F5F5F5F5F5F5F5F5F5F5F5F5F5F5F5F5F5F5F5F5F5E2F5F5F5F5F5F5F5F5F5F5F5F5E2F5F5F5
310
F5F5F5F5F5F5F5F5F5F5E2F5F5F5F5F5F5F5F5F5F5F5F5F5F5F5E2F5F5F5F5F5F5F5F5F5F5F5F5F5F5F5F5F5F5F5F5F5F5F5F5F5F5F5F5F5F5F5F5F5F5F5F5F5F5F5F5F5F5E2F5E2E2E2E2E2E2E2E2E2E2E2E2E2E2E2E2E2E2E2E2E2F5F5E2F5F5F5F5F5E2E2E2F5F5F5F5F5E2E2F5F5F5F5F5F5F5F5F5F5F5F5F5F5F5F5F5
310
F5F5F5F5F5F5F5F5F5F5F5F5F5F5F5F5F5F5F5F5F5F5F5F5F5F5F5F5F5F5F5F5F5F5F5F5E2E2E2E2E2E2E2E2E2E2E2E2E2E2E2E2E2E2E2E2E2E2E2E2E2E2E2E2E2E2E2E2E2E2E2E2E2E2E2E2E2E2E2E2E2E2E2E2E2E2E2E2E2E2E2E2E2E2E2E2E2E2E2E2E2E2E2E2E2E2E2E2E2E2E2E2E2E2E2E2E2E2E2E2E2E2E2F5F5F5F5
310
F5F5F5F5F5F5F5F5F5F5F5F5F5F5F5F5F5F5F5F5E2F5F5F5F5F5E2E2E2F5F5F5F5F5E2E2F5F5F5F5F5F5F5F5F5F5F5F5F5F5F5F5F5F5F5F5F5F5F5F5F5F5F5F5F5F5F5F5F5F5F5F5F5F5F5F5F5F5F5F5F5F5F5F5F5F5F5F5F5E2F5F5F5F5F5F5F5F5F5F5F5F5F5F5E2E2E2E2E2E2E2E2E2E2E2E2E2E2E2E2E2E2E2E2E2E2E2
310
E2E2E2E2E2F5F5F5F5F5F5F5F5F5F5F5F5F5F5E2F5F5F5F5F5F5F5F5F5E2E2E2E2E2E2E2E2E2E2F5F5F5F5F5F5F5F5F5E2F5F5F5F5F5F5F5F5F5F5F5F5F5F5F5F5F5F5F5F5F5F5F5F5E2F5F5F5F5F5E2E2E2F5F5F5F5F5E2E2F5F5F5F5F5F5F5F5F5F5F5F5F5F5F5F5F5F5F5F5F5F5F5F5F5F5F5F5F5F5F5F5F5F5F5F5F5F5
310
F5F5F5F5F5F5F5F5F5F5F5F5F5F5F5E2F5F5F5F5F5F5F5F5F5F5F5F5F5F5E2E2E2E2E2E2E2E2E2E2E2E2E2E2E2E2E2E2E2E2E2E2E2E2E2E2E2E2F5F5F5F5F5F5F5F5F5F5F5F5F5F5E2F5F5F5F5F5F5F5F5F5E2E2E2E2E2E2E2E2E2E2F5F5F5F5F5F5F5F5F5E2F5F5F5F5F5F5F5F5F5F5F5F5F5F5F5F5F5F5F5F5F5F5F5F5E2
310
F5F5F5F5F5E2E2E2F5F5F5F5F5E2E2F5F5F5F5F5F5F5F5F5F5F5F5F5F5F5F5F5F5F5F5F5F5F5F5F5F5F5F5F5F5F5F5F5F5F5F5F5F5F5F5F5F5F5F5F5F5F5F5F5F5F5F5F5E2E2E2E2E2E2E2E2E2E2E2E2E2E2E2E2E2E2E2E2E2E2E2E2E2E2E2E2E2E2E2E2E2E2E2E2E2E2E2E2E2E2E2E2E2E2E2E2E2E2E2E2E2E2E2E2E2E2E2
310
E2E2E2E2E2E2E2E2E2E2E2E2E2E2E2E2E2E2E2E2E2E2E2E2E2E2E2E2F5F5F5F5F5F5F5F5F5F5F5F5F5F5F5F5F5F5F5F5F5F5F5F5E2F5F5F5F5F5E2E2E2F5F5F5F5F5E2E2F5F5F5F5F5F5F5F5F5F5F5F5F5F5F5F5F5F5F5F5F5F5F5F5F5F5F5F5F5F5F5F5F5F5F5F5F5F5F5F5F5F5F5F5F5F5F5F5F5F5F5F5F5E2F5F5F5F5F5
310
F5F5F5F5F5F5F5F5F5F5F5F5F5F5F5F5F5F5F5F5E2E2E2E2E2F5F5F5F5F5F5F5F5F5F5F5F5F5F5F5F5F5F5F5F5F5F5F5F5F5F5E2F5F5F5F5F5F5F5F5F5E2E2E2E2E2E2E2E2E2F5F5F5F5F5F5F5F5F5F5E2F5F5F5F5F5F5F5F5F5F5F5F5F5F5F5F5F5F5F5F5F5F5F5F5E2F5F5F5F5F5E2E2E2F5F5F5F5F5E2E2F5F5F5F5F5F5
310
F5F5F5F5F5F5F5F5F5F5F5F5F5F5F5F5F5F5F5F5F5F5F5F5F5F5F5F5F5F5F5F5F5F5F5F5F5F5F5F5F5F5F5F5F5F5F5E2F5F5F5F5F5F5F5F5F5F5F5F5F5F5F5F5F5F5F5F5F5F5F5F5F5E2E2E2E2E2F5F5F5F5F5F5F5F5F5F5F5F5F5F5F5F5F5F5F5F5F5F5F5F5F5F5E2F5F5F5F5F5F5F5F5F5E2E2E2E2E2E2E2E2E2F5F5F5F5
310
F5F5F5F5F5F5E2F5F5F5F5F5F5F5F5F5F5F5F5F5F5F5F5F5F5F5F5F5F5F5F5E2F5F5F5F5F5E2E2E2F5E2F5F5F5E2E2F5F5F5F5F5F5F5F5F5F5F5F5F5F5F5F5F5F5F5F5F5F5F5F5F5F5F5F5F5F5F5F5F5F5F5F5F5F5F5F5F5F5F5F5F5F5F5F5F5F5F5F5F5E2E2E2E2E2E2E2E2E2E2E2E2E2E2E2E2E2E2E2E2E2E2E2E2E2E2E2
310
E2E2E2E2E2E2E2E2E2E2E2E2E2E2E2E2E2E2E2E2E2E2E2E2E2E2E2E2E2E2E2E2E2E2E2E2E2E2E2E2E2E2E2E2E2E2E2E2E2E2E2E2E2E2E2E2E2E2E2E2E2E2E2E2E2E2E2E2E2E2E2E2E2E2E2E2E2E2E2E2E2E2E2E2E2F5F5F5E2F5E2E2E2F5E2F5F5F5E2E2F5F5F5F5F5F5F5F5F5F5F5F5F5F5F5F5F5F5F5F5F5F5F5F5F5F5F5
310
F5F5F5F5F5F5F5F5F5F5F5F5F5F5F5F5F5F5F5F5F5F5F5F5F5F5F5F5F5F5F5F5F5F5F5F5F5F5F5F5F5F5F5F5F5F5F5F5F5F5F5F5F5F5F5F5F5F5F5F5F5F5F5F5F5F5F5F5F5F5F5F5F5F5F5F5F5F5F5F5F5F5F5F5F5F5F5F5F5F5F5F5F5F5F5F5F5F5F5F5F5F5F5F5F5F5F5F5F5F5F5F5F5F5F5F5F5F5F5F5F5F5F5F5F5F5F5
310
F5F5F5F5F5F5F5F5F5F5E2F5F5F5E2F5E2E2E2F5E2F5F5F5E2E2F5F5F5F5F5F5F5F5F5F5F5F5F5F5F5F5F5F5F5F5F5F5F5F5F5F5F5F5F5F5F5F5F5F5F5F5F5F5F5F5F5F5F5F5F5F5F5F5F5F5F5F5F5F5F5F5F5F5F5F5F5F5F5F5F5F5F5F5F5F5F5F5F5F5F5F5F5F5F5F5F5F5F5F5F5F5F5F5F5F5F5F5F5F5F5F5F5F5F5F5F5
310
F5F5F5F5F5F5F5F5F5F5F5F5F5F5F5F5F5F5F5F5F5F5F5F5F5F5F5F5F5F5F5F5F5F5F5F5F5F5F5F5F5F5F5F5F5F5F5F5F5F5F5F5F5F5F5F5F5F5F5F5F5F5F5E2F5F5F5E2F5E2E2E2F5E2F5F5F5E2E2F5F5F5F5F5F5F5F5F5F5F5F5F5F5F5F5F5F5F5F5F5F5F5F5F5F5F5F5F5F5F5F5F5F5F5F5F5F5F5F5F5F5F5F5F5F5F5F5
310
F5F5F5F5F5F5F5F5F5F5F5F5F5F5F5F5F5F5F5F5F5F5F5F5F5F5F5F5F5F5F5F5F5F5F5F5F5F5F5F5F5F5F5F5F5F5F5F5F5F5F5F5F5F5F5F5F5F5F5F5F5F5F5F5F5F5F5F5F5F5F5F5F5F5F5F5F5F5F5F5F5F5F5F5F5F5F5F5F5F5F5F5F5F5F5F5F5F5F5F5F5F5F5F5F5F5F5F5F5F5F5F5F5F5F5F5E2F5F5F5E2F5E2E2E2F5E2
310
F5F5F5E2E2F5F5F5F5F5F5F5F5F5F5F5F5F5F5F5F5F5F5F5F5F5F5F5F5F5F5F5F5F5F5F5F5F5F5F5F5F5F5F5F5F5F5F5F5F5F5F5F5F5F5F5F5F5F5F5F5F5F5F5F5F5F5F5F5F5F5F5F5F5F5F5F5F5F5F5F5F5F5F5F5F5F5F5F5F5F5F5F5F5F5F5F5F5F5F5F5F5F5F5F5F5F5F5F5F5F5F5F5F5F5F5F5F5F5F5F5F5F5F5F5F5F5
310
F5F5F5F5F5F5F5F5F5F5F5F5F5F5F5F5F5F5F5F5F5F5F5F5F5F5F5F5F5F5F5F5F5F5F5F5F5F5F5F5F5F5E2F5F5F5E2F5E2E2E2F5E2F5F5F5E2E2F5F5F5F5F5F5F5F5F5F5F5F5F5F5F5F5F5F5F5F5F5F5F5F5F5F5F5F5F5F5F5F5F5F5F5F5F5F5F5F5F5F5F5F5F5F5F5F5F5F5F5F5F5F5F5F5F5F5F5F5F5F5F5F5F5F5F5F5F5
310
F5F5F5F5F5F5F5F5F5F5F5F5F5F5F5F5F5F5F5F5F5F5F5F5F5F5F5F5F5F5F5F5F5F5F5F5F5F5F5F5F5F5F5F5F5F5F5F5F5F5F5F5F5F5F5F5F5F5F5F5F5F5F5F5F5F5F5F5F5F5F5F5F5F5F5F5F5F5F5F5F5F5F5F5F5F5F5F5F5F5F5F5F5F5F5E2F5F5F5E2F5E2E2E2F5E2F5F5F5E2E2F5F5F5F5F5F5F5F5F5F5F5F5F5F5F5F5
310
F5F5F5F5F5F5F5F5F5F5F5F5F5F5F5F5F5F5F5F5F5F5F5F5F5F5F5F5F5F5F5F5F5F5F5F5F5F5F5F5F5F5F5F5F5F5F5F5F5F5F5F5F5F5F5F5F5F5F5F5F5F5F5F5F5F5F5F5F5F5F5F5F5F5F5F5F5F5F5F5F5F5F5F5F5F5F5F5F5F5F5F5F5F5F5F5F5F5F5F5F5F5F5F5F5F5F5F5F5F5F5F5F5F5F5F5F5F5F5F5F5F5F5F5F5F5F5
310
F5F5F5F5F5F5F5F5F5F5F5F5F5F5F5F5F5F5F5F5F5E2F5F5F5E2F5E2E2E2F5E2F5F5F5E2E2F5F5F5F5F5F5F5F5F5F5F5F5F5F5F5F5F5F5F5F5F5F5F5F5F5F5F5F5F5F5F5F5F5F5F5F5F5F5F5F5F5F5F5F5F5F5F5F5F5F5F5F5F5F5F5F5F5F5F5F5F5F5F5F5F5F5F5F5F5F5F5F5F5F5F5F5F5F5F5F5F5F5F5F5F5F5F5F5F5F5
310
F5F5F5F5F5F5F5F5F5F5F5F5F5F5F5F5F5F5F5F5F5F5F5F5F5F5F5F5F5F5F5F5F5F5F5F5F5F5F5F5F5F5F5F5F5F5F5F5F5F5F5F5F5F5F5F5F5F5F5F5F5F5F5F5F5F5F5F5F5F5F5F5F5F5E2F5F5F5E2F5E2E2E2F5E2F5F5F5E2E2F5F5F5F5F5F5F5F5F5F5F5F5F5F5F5F5F5F5F5F5F5F5F5F5F5F5F5F5F5F5F5F5F5F5F5F5F5
310
F5F5F5F5F5F5F5F5F5F5F5F5F5F5F5F5F5F5F5F5F5F5F5F5F5F5F5F5F5F5F5F5F5F5F5F5F5F5F5F5F5F5F5F5F5F5F5F5F5F5F5F5F5F5F5F5F5F5F5F5F5F5F5F5F5F5F5F5F5F5F5F5F5F5F5F5F5F5F5F5F5F5F5F5F5F5F5F5F5F5F5F5F5F5F5F5F5F5F5F5F5F5F5F5F5F5F5F5F5F5F5F5F5F5F5F5F5F5F5F5F5F5F5F5F5F5F5
310
E2F5F5F5E2F5E2E2E2F5E2F5F5F5E2E2F5F5F5F5F5F5F5F5F5F5F5F5F5F5F5F5F5F5F5F5F5F5F5F5F5F5F5F5F5F5F5F5F5F5F5F5F5F5F5F5F5F5F5F5F5F5F5F5F5F5F5F5F5F5F5F5F5F5F5F5F5F5F5F5F5F5F5F5F5F5F5F5F5F5F5F5F5F5F5F5F5F5F5F5F5F5F5F5F5F5F5F5F5F5F5F5F5F5F5F5F5F5F5F5F5F5F5F5F5F5F5
310
F5F5F5F5F5F5F5F5F5F5F5F5F5F5F5F5F5F5F5F5F5F5F5F5F5F5F5F5F5F5F5F5F5F5F5F5F5F5F5F5F5F5F5F5F5F5F5F5F5F5F5F5F5E2F5F5F5E2F5E2E2E2F5E2F5F5F5E2E2F5F5F5F5F5F5F5F5F5F5F5F5F5F5F5F5F5F5F5F5F5F5F5F5F5F5F5F5F5F5F5F5F5F5F5F5F5F5F5F5F5F5F5F5F5F5F5F5F5F5F5F5F5F5F5F5F5F5
310
F5F5F5F5F5F5F5F5F5F5F5F5F5F5F5F5F5F5F5F5F5F5F5F5F5F5F5F5F5F5F5F5F5F5F5F5F5F5F5F5F5F5F5F5F5F5F5F5F5F5F5F5F5F5F5F5F5F5F5F5F5F5F5F5F5F5F5F5F5F5F5F5F5F5F5F5F5F5F5F5F5F5F5F5F5F5F5F5F5F5F5F5F5F5F5F5F5F5F5F5F5F5F5F5F5F5E2F5F5F5E2F5E2E2E2F5E2F5F5F5E2E2F5F5F5F5F5
310
F5F5F5F5F5F5F5F5F5F5F5F5F5F5F5F5F5F5F5F5F5F5F5F5F5F5F5F5F5F5F5F5F5F5F5F5F5F5F5F5F5F5F5F5F5F5F5F5F5F5F5F5F5F5F5F5F5F5F5F5F5F5F5F5F5F5F5F5F5F5F5F5F5F5F5F5BEF5F5F5F5F5F5F5F5F5F5F5F5F5F5F5F5F5F5F5F5F5F5F5F5F5F5F5F5F5F5F5F5F5F5F5F5F5F5F5F5F5F5F5F5F5F5F5F5F5F5
310
F5F5F5F5F5F5F5F5F5F5F5F5F5F5F5F5F5F5F5F5F5F5F5F5F5F5F5F5F5F5F5F5E2F5F5F5E2F5E2E2E2F5E2F5F5F5E2E2F5F5F5F5F5F5F5F5F5F5F5F5F5F5F5F5F5F5F5F5F5F5F5F5F5F5F5F5F5F5F5F5F5F5F5F5F5F5F5F5F5F5F5F5F5F5F5F5F5F5F5F5F5F5F5F5F5F5F5F5F5F5F5F5F5F5F5F5F5F5F5F5F5F5F5F5F5F5F5
310
F5F5BEF5F5F5F5F5F5F5F5F5F5F5F528F5F5F5F5F5F5F5F5F5F5F5F5F5F5F5F5F5F5F5F5F5F5F5F5F5F5F5F5F5F5F5F5F5F5F5F5F5F5F5F5F5F5F5F5F5F5F5F5F5F5F5F5F5F5F5F5F5F5F5F5F5F5F5F5F5F5F5F5F5E2F5F5F5E2F5E2E2E2F5E2F5F5F5E2E2F5F5F5F5F5F5F5F5F5F5F5F5F5F5F5F5F5F5F5F5F5F5F5F5F5F5
310
F5F5F5F5F5F5F5F5F5F5F5F5F5F5F5F5F5F5F5F5F5F5F5F5F5F5F5F5F5F5F5F5F5F5F5F5F5F5F5F5F5F5F5F5F5F5F5F5F5F5F5F5F5F5F5BEF5F5F5F5F5F5F5F5F5F5F52828F5F5F5F5F5F5F5F5F5F5F5F5F5F5F5F5F5F5F5F5F5F5F5F5F5F5F5F5F5F5F5F5F5F5F5F5F5F5F5F5F5F5F5F5F5F5F5F5F5F5F5F5F5F5F5F5F5F5
310
F5F5F5F5F5F5F5F5F5F5F5E2F5F5F5E2F5E2E2E2F5E2F5F5F5E2E2F5F5F5F5F5F5F5F5F5F5F5F5F5F5F5F5F5F5F5F5F5F5F5F5F5F5F5F5F5F5F5F5F5F5F5F5F5F5F5F5F5F5F5F5F5F5F5F5F5F5F5F5F5F5F5F5F5F5F5F5F5F5F5F5F5F5F5F5F5F5F5F5BEBEBEBEBEBEBEBEBEBEBEBEBEBEBEBEBEBEBE28282828F5F5F5F5F5
310
F5F5F5F5F5F5F5F5F5F5F5F5F5F5F5F5F5F5F5F5F5F5F5F5F5F5F5F5F5F5F5F5F5F5F5F5F5F5F5F5F5F5F5F5F5F5F5F5F5F5F5F5F5F5F5F5F5F5F5F5F5F5F5F5E2F5F5F5E2F5E2E2E2F5E2F5F5F5E2E2F5F5F5F5F5F5F5F5F5F5F5F5F5F5F5F5F5F5F5F5F5F5F5F5F5F5F5F5F5F5F5F5F5F5F5F5F5F5F5F5F5F5F5F5F5F5F5
310
F5F5F5F5F5F5F5F5F5F5F5F5F5F5F5F5F5F5F5F5F5F5F5F5F5F5F5E2E2E2E2E2E2E2BEE2E2E2E2E2E2E2E2F5F5F5F528F5F5F5F5F5F5F5F5F5F5F5F5F5F5F5F5F5F5F5F5F5F5F5F5F5F5F5F5F5F5F5F5F5F5F5F5F5F5F5F5F5F5F5F5F5F5F5F5F5F5F5F5F5F5F5F5F5F5F5F5F5F5F5F5F5F5F5F5F5E2F5F5F5E2F5E2E2E2F5
310
F5F5F5F5E2E2F5F5F5F5F5F5F5F5F5F5F5F5F5F5F5F5F5F5F5F5F5F5F5F5F5F5F5F5F5F5F5F5F5F5F5F5F5F5F5F5F5F5F5F5F5F5F5F5F5F5F5F5F5F5F5F5F5F5F5F5F5F5F5F5F5F5F5F5F5F5F5F5F5F5E2E2E2F5F5F5F5BEF5F5F5F5F5E2E2E2F5F5F5F528F5F5F5F5F5F5F5F5F5F5F5F5F5F5F5F5F5F5F5F5F5F5F5F5F5F5
310
F5F5F5F5F5F5F5F5F5F5F5F5F5F5F5F5F5F5F5F5F5F5F5F5F5F5F5F5F5F5F5F5F5F5F5F5F5F5F5F5F5F5F5E2F5F5F5F5F5E2E2E2F5F5F5F5F5E2E2F5F5F5F5F5F5F5F5F5F5F5F5F5F5F5F5F5F5F5F5F5F5F5F5F5F5F5F5F5F5F5F5F5F5F5F5F5F5F5F5F5F5F5F5F5F5F5F5F5F5F5F5F5F5F5F5F5F5F5F5F5F5F5F5F5F5F5F5
310
F5F5F5F5F5F5F5E2E2E2E2E2E2BEE2E2E2E2E20A28282828282828F5F5F5F5F5F5F5F5F5F5F5F5F5F5F5F5F5F5F5F5F5F5F5F5F5F5F5F5F5F5F5F5F5F5F5F5F5F5F5F5F5F5F5F5F5F5F5F5F5F5F5F5F5F5F5F5F5F5F5F5F5F5F5F5F5F5F5F5F5E2F5F5F5F5F5E2E2E2F5F5F5F5F5E2E2F5F5F5F5F5F5F5F5F5F5F5F5F5F5F5
310
F5F5F5F5F5F5F5F5F5F5F5F5F5F5F5F5F5F5F5F5F5F5F5F5F5F5F5F5F5F5F5F5F5F5F5F5F5F5F5F5F5F5F5F5F5F5F5F5F5F5F5F5F5F5F5F5F5F5F5F5BEBEE2E2E2E2BEE2E2E2E2BEBEE2E2F5F5F52828F5F5F5F5F5F5F5F5F5F5F5F5F5F5F5F5F5F5F5F5F5F5F5F5F5F5F5F5F5F5F5F5F5F5F5F5F5F5F5F5F5F5F5F5F5F5F5
310
F5F5F5F5F5F5F5F5F5F5F5F5F5F5F5F5F5F5F5F5F5F5E2F5F5F5F5F5E2E2E2F5F5F5F5F5E2E2F5F5F5F5F5F5F5F5F5F5F5F5F5F5F5F5F5F5F5F5F5F5F5F5F5F5F5F5F5F5F5F5F5F5F5F5F5F5F5F5F5F5F5F5F5F5F5F5F5F5F5F5F5F5F5F5F5F5F5F5F5F5F5F5F5F5F5F5F5F5F5F5F5F5F50ABEE2F5F5F5BE28E2E2E2BEE2E2
310
E2F5F5282828F5F5F5F5F5F5F5F5F5F5F5F5F5F5F5F5F5F5F5F5F5F5F5F5F5F5F5F5F5F5F5F5F5F5F5F5F5F5F5F5F5F5F5F5F5F5F5F5F5F5F5F5F5F5F5F5F5F5F5F5F5F5F5F5F5F5F5F5F5E2F5F5F5F5F5E2E2E2F5F5F5F5F5E2E2F5F5F5F5F5F5F5F5F5F5F5F5F5F5F5F5F5F5F5F5F5F5F5F5F5F5F5F5F5F5F5F5F5F5F5F5
310
F5F5F5F5F5F5F5F5F5F5F5F5F5F5F5F5F5F5F5F5F5F5F5F5F5F5F5F5F5F5F5F5F5F5F5F5F5F5F5E2E2E2E2E2E2BE2828E2E2E2E2E2F5F5F5282828F5F5F5F5F5F5F5F5F5F5F5F5F5F5F5F5F5F5F5F5F5F5F5F5F5F5F5F5F5F5F5F5F5F5F5F5F5F5F5F5F5F5F5F5F5F5F5F5F5F5F5F5F5F5F5F5F5F5F5F5F5F5F5F5F5F5F5F5
310
F5E2F5F5F5F5F5E2E2E2F5F5F5F5F5E2E2F5F5F5F5F5F5F5F5F5F5F5F5F5F5F5F5F5F5F5F5F5F5F5F5F5F5F5F5F5F5F5F5F5F5F5F5F5F5F5F5F5F5F5F5F5F5F5F5F5F5F5F5F5F5F5F5F5F5F5F5F5F5F5F5F5F5F5F5F5F5F5F5F5F5F5F5E2E2E2E2E2BEE228E2E2E2E2F5F5F5F5282828F5F5F5F5F5F5F5F5F5F5F5F5F5F5F5
310
F5F5F5F5F5F5F5F5F5F5F5F5F5F5F5F5F5F5F5F5F5F5F5F5F5F5F5F5F5F5F5F5F5F5F5F5F5F5F5F5F5F5F5F5F5F5F5F5F5F5F5F5F5F5E2F5F5F5F5F5E2E2E2F5F5F5F5F5E2E2F5F5F5F5F5F5F5F5F5F5F5F5F5F5F5F5F5F5F5F5F5F5F5F5F5F5F5F5F5F5F5F5F5F5F5F5F5F5F5F5F5F5F5F5F5F5F5F5F5F5F5F5F5F5F5F5F5
310
F5F5F5F5F5F5F5F5F5F5F5F5F5F5F5F5F5F5F5F5F5F5F5F5BEF528F5F5F5F5F5F5F5F5F5F528F5F5F5F5F5F5F5F5F5F5F5F5F5F5F5F5F5F5F5F5F5F5F5F5F5F5F5F5F5F5F5F5F5F5F5F5F5F5F5F5F5F5F5F5F5F5F5F5F5F5F5F5F5F5F5F5F5F5F5F5F5F5F5F5F5F5F5F5F5E2F5F5F5F5F5E2E2E2F5F5F5F5F5E2E2F5F5F5F5
310
F5F5F5F5F5F5F5F5F5F5F5F5F5F5F5F5F5F5F5F5F5F5F5F5F5F5F5F5F5F5F5F5F5F5F5F5F5F5F5F5F5F5F5F5F5F5F5F5F5F5F5F5F5F5F5F5F5F5F5F5F5F5F5F5F5F5F5F5F5F5F5F5F5F5F5F5F5BEF5F528F5F5F5F5F5F5F5F5F5F5F5F5F5F5F5F5F5F5F5F5F5F5F5F5F5F5F5F5F5F5F5F5F5F5F5F5F5F5F5F5F5F5F5F5F5F5
310
F5F5F5F5F5F5F5F5F5F5F5F5F5F5F5F5F5F5F5F5F5F5F5F5F5F5F5F5F5F5F5F5F5E2F5F5F5F5F5E2E2E2F5E2F5F5F5E2E2F5F5F5F5F5F5F5F5F5F5F5F5F5F5F5F5F5F5F5F5F5F5F5F5F5F5F5F5F5F5F5F5F5F5F5F5F5F5F5F5F5F5F5F5F5F5F5F5F5F5F5F5F5F5F5F5F5F5F5F5F5F5F5F5F5F5F5F5F5F5F5F5F5F5F5F5F5F5
310
F5F5F5F5F5F528F5F5F528282828282828282828282828282828282828F5F5F5F5F5F5F5F5F5F5F5F5F5F5F5F5F5F5F5F5F5F5F5F5F5F5F5F5F5F5F5F5F5F5F5F5F5F5F5F5F5F5F5F5F5F5F5F5F5F5F5F5F5F5F5F5F5E2F5F5F5E2F5E2E2E2F5E2F5F5F5E2E2F5F5F5F5F5F5F5F5F5F5F5F5F5F5F5F5F5F5F5F5F5F5F5F5F5
310
F5F5F5F5F5F5F5F5F5F5F5F5F5F5F5F5F5F5F5F5F5F5F5F5F5F5F5F5F5F5F5F5F5F5F5F5F5F5F5F5F5F5F5F5F5F5F5F5F5F5F5F5F5F5F5F5F5F5F5F528F5F528282828282828282828282828282828282828F5F5F5F5F5F5F5F5F5F5F5F5F5F5F5F5F5F5F5F5F5F5F5F5F5F5F5F5F5F5F5F5F5F5F5F5F5F5F5F5F5F5F5F5F5
310
F5F5F5F5F5F5F5F5F5F5F5F5E2F5F5F5E2F5E2E2E2F5E2F5F5F5E2E2F5F5F5F5F5F5F5F5F5F5F5F5F5F5F5F5F5F5F5F5F5F5F5F5F5F5F5F5F5F5F5F5F5F5F5F5F5F5F5F5F5F5F5F5F5F5F5F5F5F5F5F5F5F5F5F5F5F5F5F5F5F5F5F5F5F5F5F5F5F5F5F5F5F5F5F5F5F5F5F5F5F5F5F5F528F5282828282828282828282828
310
28282828282828282828282828F5F5F5F5F5F5F5F5F5F5F5F5F5F5F5F5F5F5F5F5F5F5F5F5F5F5F5F5F5F5F5F5F5F5F5F5F5F5F5F5F5F5F5F5F5F5F5F5F5F5F5F5E2F5F5F5E2F5E2E2E2F5E2F5F5F5E2E2F5F5F5F5F5F5F5F5F5F5F5F5F5F5F5F5F5F5F5F5F5F5F5F5F5F5F5F5F5F5F5F5F5F5F5F5F5F5F5F5F5F5F5F5F5F5
310
F5F5F5F5F5F5F5F5F5F5F5F5F5F5F5F5F5F5F5F5F5F5F5F5F5F5F5F5F5F5F5F5F5F5F5F5F5F5F5F52828282828282828282828282828282828282828282828282828F5F5F5F5F5F5F5F5F5F5F5F5F5F5F5F5F5F5F5F5F5F5F5F5F5F5F5F5F5F5F5F5F5F5F5F5F5F5F5F5F5F5F5F5F5F5F5F5F5F5F5F5E2F5F5F5E2F5E2E2E2
310
F5E2F5F5F5E2E2F5F5F5F5F5F5F5F5F5F5F5F5F5F5F5F5F5F5F5F5F5F5F5F5F5F5F5F5F5F5F5F5F5F5F5F5F5F5F5F5F5F5F5F5F5F5F5F5F5F5F5F5F5F5F5F5F5F5F5F5F5F5F5F5F5F5F5F5F5F5F5F5F5F5F5F5F5F5F5F5F5F5F5F5F5F5F5F5F5F5F5F5F5F5F5F5F5F5F5F5F5F5F5F5F5F5F5F5F5F5F5F5F5F5F5F5F5F5F5F5
310
F5F5F5F5F5F5F5F5F5F5F5F5F5F5F5F5F5F5F5F5F5F5F5F5F5F5F5F5F5F5F5F5F5F5F5F5F5F5F5F5F5F5F5F5E2F5F5F5E2F5E2E2E2F5E2F5F5F5E2E2F5F5F5F5F5F5F5F5F5F5F52828282828282828282828282828282828282828282828282828F5F5F5F5F5F5F5F5F5F5F5F5F5F5F5F5F5F5F5F5F5F5F5F5F5F5F5F5F5F5
310
F5F5F5F5F5F5F5F5F5F5F5F5F5F5F5F5F5F5F5F5F5F5F5F5F5F5F5F5F5F5F5F5F5F5F5F5F5F5F5F5F5F5F5F5F5F5F5F5F5F5F5F5F5F5F5F5F5F5F5F5F5F5F5F5F5F5F5F5F5F5F5F5F5F5F5F5F5F5F5F5F5F5F5F5F5F5F5F5F5F5F5F5F5F5F5F5F5E2F5F5F5E2F5E2E2E2F5E2F5F5F5E2E2F5F5F5F5F5F5F5F5F5F5F5282828
310
2828282828282828282828282828282828282828282828F5F5F5F5F5F5F5F5F5F5F5F5F5F5F5F5F5F5F5F5F5F5F5F5F5F5F5F5F5F5F5F5F5F5F5F5F5F5F5F5F5F5F5F5F5F5F5F5F5F5F5F5F5F5F5F5F5F5F5F5F5F5F5F5F5F5F5F5F5F5F5F5F5F5F5F5F5F5F5F5F5F5F5F5F5F5F5F5F5F5F5F5F5F5F5F5F5F5F5F5F5F5F5F5
310
F5F5F5F5F5F5F5F5F5F5F5F5F5F5F5F5F5F5F5F5F5F5F5E2F5F5F5E2F5E2E2E2F5E2F5F5F5E2E2F5F5F5F5F5F5F5F5F5F5F52828282828282828282828282828282828282828282828282828F5F5F5F5F5F5F5F5F5F5F5F5F5F5F5F5F5F5F5F5F5F5F5F5F5F5F5F5F5F5F5F5F5F5F5F5F5F5F5F5F5F5F5F5F5F5F5F5F5F5F5
310
F5F5F5F5F5F5F5F5F5F5F5F5F5F5F5F5F5F5F5F5F5F5F5F5F5F5F5F5F5F5F5F5F5F5F5F5F5F5F5F5F5F5F5F5F5F5F5F5F5F5F5F5F5F5F5F5F5F5F5F5F5F5F5F5F5F5F5F5F5F5F5F5F5F5F5F5E2F5F5F5E2F5E2E2E2F5E2F5F5F5E2E2F5F5F5F5F5F5F5F5F5F5F5F5F5F5F5F5F5F5F5F5F5F5F5F5F5F5F5F5F5F5F5F5F5F5F5
310
F5F5F5F5F5F5F5F5F5F5F5F5F5F5F5F5F5F5F5F5F5F5F5F5F5F5F5F5F5F5F5F5F5F5F5F5F5F5F5F5F5F5F5F5F5F5F5F5F5F5F5F5F5F5F5F5F5F5F5F5F5F5F5F5F5F5F5F5F5F5F5F5F5F5F5F5F5F5F5F5F5F5F5F5F5F5F5F5F5F5F5F5F5F5F5F5F5F5F5F5F5F5F5F5F5F5F5F5F5F5F5F5F5F5F5F5F5F5F5F5F5F5F5F5F5F5F5
310
F5F5E2F5F5F5E2F5E2E2E2F5E2F5F5F5E2E2F5F5F5F5F5F5F5F5F5F5F528282828282828282828282828282828282828282828282828282828F5F5F5F5F5F5F5F5F5F5F5F5F5F5F5F5F5F5F5F5F5F5F5F5F5F5F5F5F5F5F5F5F5F5F5F5F5F5F5F5F5F5F5F5F5F5F5F5F5F5F5F5F5F5F5F5F5F5F5F5F5F5F5F5F5F5F5F5F5F5
310
F5F5F5F5F5F5F5F5F5F5F5F5F5F5F5F5F5F5F5F5F5F5F5F5F5F5F5F5F5F5F5F5F5F5F5F5F5F5F5F5F5F5F5F5F5F5F5F5F5F5F5F5F5F5F5E2F5F5F5E2F5E2E2E2F5E2F5F5F5E2E2F5F5F5F5F5F5F5F5F5F5F528282828282828282828282828282828282828282828282828282828F5F5F5F5F5F5F5F5F5F5F5F5F5F5F5F5F5
310
F5F5F5F5F5F5F5F5F5F5F5F5F5F5F5F5F5F5F5F5F5F5F5F5F5F5F5F5F5F5F5F5F5F5F5F5F5F5F5F5F5F5F5F5F5F5F5F5F5F5F5F5F5F5F5F5F5F5F5F5F5F5F5F5F5F5F5F5F5F5F5F5F5F5F5F5F5F5F5F5F5F5F5F5F5F5F5F5F5F5F5F5F5F5F5F5F5F5F5F5F5F5F5F5F5F5F5F5E2F5F5F5E2F5E2E2E2F5E2F5F5F5E2E2F5F5F5
310
F5F5F5F5F5F5F5F528282828282828282828282828282828282828282828282828282828F5F5F5F5F5F5F5F5F5F5F5F5F5F5F5F5F5F5F5F5F5F5F5F5F5F5F5F5F5F5F5F5F5F5F5F5F52828282828282828282828F5F5F5F5F5F5F5F5F5F5F5F5F5F5F5F5F5F5F5F5F5F5F5F5F5F5F5F5F5F5F5F5F5F5F5F5F5F5F5F5F5F5F5
310
F5F5F5F5F5F5F5F5F5F5F5F5F5F5F5F5F5F5F5F5F5F5F5F5F5F5F5F5F5F5F5F5F5F5E2F5F5F5E2F5E2E2E2F5E2F5F5F5E2E2F5F5F5F5F5F5F5F5F5F5F528282828282828282828282828282828282828282828282828282828F5F5F5F5F5F5F5F5F5F5F5F5F5F5F5F5F5F5F5F5F5F5F5F5F5F5F5F5F5F5F5F5F5F5F5F5F528
310
28F528282828F5F52828F5F5F5F5F5F5F5F5F5F5F5F5F5F5F5F5F5F5F5F5F5F5F5F5F5F5F5F5F5F5F5F5F5F5F5F5F5F5F5F5F5F5F5F5F5F5F5F5F5F5F5F5F5F5F5F5F5F5F5F5F5F5F5F5F5F5F5F5F5F5F5F5F5F5F5F5F5E2F5F5F5E2F5E2E2E2F5E2F5F5F5E2E2F5F5F5F5F5F5F5F5F5F5F5F5F5F5F5F5F5F5F5F5F5F5F5F5
310
F5F5F5F5F5F5F5F5F5F5F5F5F5F5F5F5F5F5F5F5F5F5F5F5F5F5F5F5F5F5F5F5F5F5F5F5F5F5F5F5F5F5F5F5F5F5F5F5F5F5F5F528F5F5F5F5F5F5F5F5F528F5F5F5F5F5F5F5F5F5F5F5F5F5F5F5F5F5F5F5F5F5F5F5F5F5F5F5F5F5F5F5F5F5F5F5F5F5F5F5F5F5F5F5F5F5F5F5F5F5F5F5F5F5F5F5F5F5F5F5F5F5F5F5F5
310
F5F5F5F5F5F5F5F5F5F5F5F5F5E2F5F5F5E2F5E2E2E2F5E2F5F5F5E2E2F5F5F5F5F5F5F5F5F5F5F52828282828282828282828282828282828282828282828282828F5F5F5F5F5F5F5F5BEF5F5F5F5F5F5F5F52828282828282828282828F5F5F5F5F5F5F5F5F5F5F528F5F5F5F5BEF5F5F5F528F5F5F5F5F5F5F5F5F5F5F5
310
F5F5F5F5F5F5F5F5F5F5F5F5F5BEF5F5F5F5F5F5F5F5F5F5F5F5F5F5F5F5F5F5F5F5F5F5F5F5BEF5F5F5F5F5F5F5F5F5F5F5F5F5F5F5F5F5F5F5F5F5F5F5F5F5F5F5E2F5F5F5E2F5E2E2E2F5E2F5F5F5E2E2F5F5F5F5F5F5F5F5F5F5F52828282828282828282828282828282828282828282828282828F5F5F5F5F5F5F5F5
310
BEF5F5F5F5F5F5F5F5F5F5F5F5F5F5F5F5F5F5F5F5F5F5F5F5F5F5F5F5F5F528F5F5F5F5BEF5F5F5F528F5F5F5F5F5F5F5F5F5F5F5F5F5F5F5F5F5F5F5F5F5F5F5F5BEF5F5F5F5F5F5F5F5F5F5F5F5F5F5F5F5F5F5F5F5F5F5F5F5BEF5F5F5F5F5F5F5F5F5F5F5F5F5F5F5F5F5F5F5F5F5F5F5F5F5F5F5E2F5F5F5E2F5E2E2
310
E2F5F5F5F5F5E2E2F5F5F5F5F5F5F5F5F5F5F52828282828282828282828282828282828282828282828282828F5F5F5F5F5F5F5F5BEF5F5F5F5F5F5F5F5282828282828282828282828F5F5F5F5F5F5F5F5F5F528F5F5F5F5BEF5F5F5F528F5F5F5F5F5F5F5F5F5F5F5F5F5F5F5F5F5F5F5F5F5F5F5F5BEF5F5F5F5F5F5F5
310
F5F5F5F5F5F5F5F5F5F5F5F5F5F5F5F5F5BEF5F5F5F5F5F5F5F5F5F5F5F5F5F5F5F5F5F5F5F5F5F5F5F5F5F5F5E2F5F5F5F5F5E2E2E2F5F5F5F5F5E2E2F5F5F5F5F5F5F5F5F5F5F5F5F5F5F5F5F5F5F5F5F5F5F5F5F5F5F5F5F5F5F5F5F5F5F5F5F5F5F5F5F5F5F5F5F5BEF5E2E2F5F5F5F528282828282828282828282828
310
F5F5F5F5F5F5F5F5F50A28E2E2E2E2BEE2E2E2E2282828282828282828F5F5F5F5F5F5F5F5F5F5F5F5F5F5E2E2BEF5F5F5F5F5F5F5F5F5F5F5F5F5F5F5F5F5F50AE2E2E2E2E2BEE2E2E2E2E2E2E2F5F5F5F5F5F5F5F5F5F5F5F5F5F5F5F5F5F5F5F5E2F5F5F5F5F5E2E2E2F5F5F5F5F5E2E2F5F5F5F5F5F5F5F5F5F5F52828
310
28282828282828282828282828282828F5F5F5F5F5F5F5F5F5F5F5F5F5F5F5F5BEE2E2E2E2282828F5F5F5F5F5F5F5F5F5F5F5F5F5F5F5F5F5F5F5F5F5F50A28E2E2E2E2BEE2E2E2E228E2E2F5F5F5F5F528F5F5F5F5F5F5F5F5F5F5F5E2E2E20AE2BEE2F5F5F5F5F5F5F5F5F5F5F5F5F5F5F5F5F50AE2E2E2E2E2BEE2E2E2
310
E2E2E2E2F5F5F5F5F5F5F5F5F5F5F5F5F5F5F5F5F5F5F5F5E2F5F5F5F5F5E2E2E2F5F5F5F5F5E2E2F5F5F5F5F5F5F5F5F5F5F5282828282828282828282828282828282828F5F5F5F5F5F5F5F5F5F5F5F5F5F5F5F5BEE2E2E22828F5F5F5F5F5F5F5F5F5F5F5F5F5F5F5F5F5F5F5F5F5F5F5F50A28E2E2E2E2BEE2E2E2E228
310
E2E2F5F5F5282828F5F5F5F5F5F5F5F5F5F5F5E2E20A0A0ABEE2F5F5F5F5F5F5F5F5F5F5F5F5F5F5F5F5F5E2BEE2F5F5F5BEF5F5F5F5BE0AE2F5F5F5F5F5F5F5F5F5F5F5F5F5F5F5F5F5F5F5F5E2F5F5F5F5F5E2E2E2F5F5E2E2E2E2E2F5F5F5F5F5F5F5F5F5F5F5282828282828282828282828282828282828F5F5F5F5F5
310
F5F5F5F5F5F5F5F5BEBEBEBEBEBEBE28BEBEBEF52828282828282828282828F5F5F5F5F5F5F5BEBEBE0ABEE2E2BEBEBEBEBEBEBEBEBEBEBEBEBE282828F5F5F5F5F5F5F5F5BEBEBEBEBEBEBEBEBEBEBEBEF5F5F5F5F5F5F5F5F5F5F5F5BEBEBEE2E2E2BEBEBEBEBEBEBEBEE2E2E2BEBEBEF5F5F5F5F5F5F5F5F5F5F5F5F5F5
310
F5F5F5E2E2E2E2F5F5E2E2E2F5F5F5F5F5E2E2F5F5F5F5F5F5F5F5F5F5F5F5F5F5F5F5F5F5F5F5F5F5F5F5F5F5F5F5F5F5F5F5F5F5F5F5F5F5F5F5F5F5F5F5F5BEE2E2E22828F5F5F5F5F5F5F5F5F5F5F5F5F5F5F5F5F5F5F5F5F5F5F5E2E2BEE2E2F5F5BEE2E2E2E2BE280AE2F5F5282828F5F5F5F5F5F5F5F5F5F5F5E20A
310
0AE2E2BEE2F5F5F5F5F5F5F5F5F5F5F5F5F5F5F5F5E2E228E2E2F5F5BEF5F5F5E2E2E2E2E2F5F5F5F5F5F5F5F5F5F5F5F5F5F5F5F5F5F5F5E2F5F5F5F5F5E2E2E2F5F5F5F5F5E2E2F5F5F5F5F5F5F5F5F5F5F5F5F5F5F5F5F5F5F5F5F5F5F5F5F5F5F5F5F5F5F5F5F5F5F5F5F5F5F5F5F5F5F5F5F5BEE20AE228E22828F528
310
282828282828282828F5F5F5F5F5F5F5F5F5F5F5E2E2E2E2E2E2BEE2E2E2E2E22828E2F5F5F52828F5F5F5F5F5F5F5F5F5F5F5E2E2E2E2E2BEE2F5F5F5F5F5F5F5F5F5F5F5F5F5F5F5F5F5E22828E2E2E2BEE2E2E2E2E2E2E2E2F5F5F5F5F5F5F5F5F5F5F5F5F5F5F5F5F5F5F5E2F5F5F5F5F5E2E2E2F5F5F5F5F5E2E2F5F5
310
F5F5F5F5F5F5F5F5F5F5F5F5F5F5F5F5F5F5F5F5F5F5F5F5F5F5F5F5F5F5F5F5F5F5F5F5F5F5F5F5F5F5F5BEE2E2E2E228E2F52828282828282828282828F5F5F5F5F5F5F5F5F5F5F528E2E2E2E2E2BEE2E2E2E2E2E228282828282828F5F5F5F5F5F5F5F5F5F5F50AE2E2E2E2BEE2F5F5F5F5F5F5F5F5F5F5F5F5F5F5F5F5
310
F5E22828E2E2E2BEE2E2E2E2E2E2E2E2F5F5F5F5F5F5F5F5F5F5F5F5F5F5F5F5F5F5F5E2F5F5F5F5F5E2E2E2F5F5F5F5F5E2E2F5F5F5F5F5F5F5F5F5F5F5F5F5F5F5F5F5F5F5F5F5F5F5F5F5F5F5F5F5F5F5F5F5F5F5F5F5F5F5F5F5F5F5F5F5BEE2E2E2E228F5F5F5F5F5F5F5F5F5F5F5F5F5F5F5F5F5F5F5F5F5F5F5F528
310
E2E2E2E2E2BEE2E2E2E2E2E22828F5F5F5F5F5F5F5F5F5F5F5F5F5F5F5F5E2E2E2E2E2BEF5F5F5F5F5F5F5F5F5F5F5F5F5F5F5F5F5F5E2E228E2E2E2BEE2E2E2E2E2E2E2F5F5F5F5F5F5F5F5F5F5F5F5F5F5F5F5F5F5F5F5E2F5F5F5F5F5E2E2E2F5E2F5F5F5E2E2F5F5F5F5F5F5F5F5F5F5F5F5F5F5F5F5F5F5F5F5F5F5F5
310
F5F5F5F5F5F5F5F5F5F5F5F5F5F5F5F5F5F5F5F5F5F5BEF5F5F5F5F528F5F5F5F5F5F5F5F5F5F5F5F5F5F5F5F5F5F5F5F5F5F5F528F5F5F5F5F5BEF5F5F5F5F5F528F528F5F5F5F5F5F5F5F5F5F5F5F5F5F5F5F5F5F5F5F5BEF5F5F5F5F5F5F5F5F5F5F5F5F5F5F5F5F5F5F5F5F528F5F5BEF5F5F5F5F5F5F5F5F5F5F5F5F5
310
F5F5F5F5F5F5F5F5F5F5F5F5F5F5E2F5F5F5E2F5E2E2E2F5E2F5F5F5E2E2F5F5F5F5F5F5F5F5F5F5F5F5F5F5F5F5F5F5F5F5F5F5F5F5F5F5F5F5F5F5F5F5F5F5F5F5F5F5F5F5F5F5F5F5F5BEF5F5F5F5F528F5F52828282828282828282828F5F5F5F5F5F5F5F5F5F528F5F5F5F5F5BEF5F5F5F5F5F528F528F5F5F5F5F5F5
310
F5F5F5F5F5F5F5F5F5F5F5F5F5F5BEF5F5F5F5F5F5F5F5F5F5F5F5F5F5F5F5F5F5F5F5F5F528F5BEF5F5F5F5F5F5F5F5F5F5F5F5F5F5F5F5F5F5F5F5F5F5F5F5F5F5F5E2F5F5F5E2F5E2E2E2F5E2F5F5F5E2E2F5F5F5F5F5F5F5F5F5F5F5F5F5F5F5F5F5F5F5F5F5F5F5F5F5F5F5F5F5F5F5F5F5F5F5F5F5F5F5F5F5F5F5F5
310
F5F5F5F5F5F5F5F528F5F5F5F5F5F5F5F5F5F5F5F5F5F5F5F5F5F5F5F5F5F528F5F5F5F5F5F5F5F5F5F5F5F528F5F528F5F5F5F5F5F5F5F5F5F5F5F5F5F5F5F5F5F5F5F5F5F5F5F5F5F5F5F5F5F5F5F5F5F5F5F5F5F5F5F5F5F528F5F5F5F5F5F5F5F5F5F5F5F5F5F5F5F5F5F5F5F5F5F5F5F5F5F5F5F5F5E2F5F5F5E2F5E2
310
E2E2F5E2F5F5F5E2E2F5F5F5F5F5F5F5F5F5F5F5F5F5F5F5F5F5F5F5F5F5F5F5F5F5F5F5F5F5F5F5F5F5F5F5F5F5F5F5F5F5F5F5F5F5F5F5F5F5F5F5F528F52828282828282828F5F5F5F5F5F5F5F5F5F5F5F5F52828F5F5F5F5F5F5F5F5F528F528F5F528F5F5F52828282828282828282828282828F5F5F5F5F5F5F5F5F5
310
F5F5F5F5F5F5F5F5F5F5F5F5F5F5F5F5F528F5F5F5F5F5F5F5F5F5F5F5F5F5F5F5F5F5F5F5F5F5F5F5F5F5F5F5F5E2F5F5F5E2F5E2E2E2F5E2F5F5F5E2E2F5F5F5F5F5F5F5F5F5F5F5F5F5F5F5F5F5F5F5F5F5F5F5F5F5F5F5F5F5F5F5F5F5F5F5F5F5F5F5F5F5F5F5F5F5F5F5F5F5F5F5F5F5282828282828282828F5F5F5
310
F5F5F5F5F5F5F5F5F5F52828282828282828282828282828F5F5F52828282828282828282828282828282828F5F5F5F5F5F5F5F5F5F5F5F5F5F5F5F5F5F5F5F5F5F5F5F5F5F528F5F5F528282828282828282828F5F5F5F5F5F5F5F5F5F5F5F5F5F5F5E2F5F5F5E2F5E2E2E2F5E2F5F5F5E2E2F5F5F5F5F5F5F5F5F5F5F5F5
310
F5F5F5F5F5F5F5F5F5F5F5F5F5F5F5F5F5F5F5F5F5F5F5F5F5F5F5F5F5F5F5F5F5F5F5F5F5F5F5F5F5F5F5F5F5F5F5F5F5F5F5F5F5F5F5F5F5F5F5F5F5F5F5F5F5F5F528282828F5F5F5F5F5F5F5F5F5F5F5F5F5F5F5F5F5F5F5F5F5F5F5F5F5F5F5F5F5F5F5F5F5F5F5F5F5F5F5F5F5F5F5F5F5F5F5F5F5F5F5F5F5282828
310
28282828282828282828F5F5F5F5F5F5F5F5F5F5F5F5F5F5F5E2F5F5F5E2F5E2E2E2F5E2F5F5F5E2E2F5F5F5F5F5F5F5F5F5F5F5F5F5F5F5F5F5F5F5F5F5F5F5F5F5F5F5F5F5F5F5F5F5F5F5F5F5F5F5F5F5F5F5F5F5F5F5F5F5F5F5F5F5F5F5F5F5F5F5F5F5F5F5F5F5F5F5F5F5F5F5F5F5F5F5F5F5F5F5F5F5F5F5F5F5F5
310
F5F5F5F5F5F5F5F5F5F5F5F5F5F5F5F5F5F5F5F5F5F5F5F5F5F5F5F5F5F5F5F5F5F5F5F5F5F5F5F5F5F5F5F5F5F5F5F5F5F5F5F5F5F5F5F5F5F5F5F5F5F5F5F5F5F5F5F5F5F5F5F5F5F5F5F5F5F5E2F5F5F5E2F5E2E2E2F5E2F5F5F5E2E2F5F5F5F5F5F5F5F5F5F5F5F5F5F5F5F5F5F5F5F5F5F5F5F5F5F5F5F5F5F5F5F5F5
310
F5F5F5F5F5F5F5F5F5F5F5F5F5F5F5F5F5F5F5F5F5F5F5F5F5F5F5F5F5F5F5F5F5F5F5F5F5F5F5F5F5F5F5F5F5F5F5F5F5F5F5F5F5F5F5F5F5F5F5F5F5F5F5F5F5F5F5F5F5F5F5F5F5F5F5F5F5F5F5F5F5F5F5F5F5F5F5F5F5F5F5F5F5F5F5F5F5F5F5F5F5F5F5F5F5F5F5F5F5F5F5F5F5F5F5F5F5F5F5F5F5F5F5F5F5F5F5
310
F5F5F5F5E2F5F5F5E2F5E2E2E2F5E2F5F5F5E2E2F5F5F5F5F5F5F5F5F5F5F5F5F5F5F5F5F5F5F528282828282828282828282828282828F5F5F5F5F5F5F5F5F5F5F5F5F5F5F5F5F5F5F5F5F5F5F5F5F5F5F5F5F5F5F5F5F5F5F5F5F5F5F5F5F5F5F5F5F5F5F5F5F5F5F5F5F5F5F5F5F5F5F5F5F5F5F5F5F5F5F5F5F5F5F5F5
310
F5F5F5F5F5F5F5F5F5F5F5F5F5F5F5F5F5F5F5F5F5F5F5F5F5F5F5F5F5F5F5F5F5F5F5F5F5F5F5F5F5F5F5F5F5F5F5F5F5F5F5F5F5F5F5F5F5E2F5F5F5E2F5E2E2E2F5E2F5F5F5E2E2F5F5F5F5F5F5F5F5F5F5F5F5F5F5F5F5F5F5F528282828282828282828282828F5F528F5F5F5F5F5F5F5F5F5F5F5F5F5F5F5F5F5F5F5
310
F5F5F5F5F5F5F5F5F5F5F5F5F5F5F5F5F5F5F5F5F5F5F5F5F5F5F5F5F5F5F5F5F5F5F5F5F5F5F5F5F5F5F5F5F5F5F5F5F5F5F5F5F5F5F5F5F5F5F5F5F5F5F5F5F5F5F5F5F5F5F5F5F5F5F5F5F5F5F5F5F5F5F5F5F5F5F5F5F5F5F5F5F5F5F5F5F5F5F5F5F5F5F5F5F5F5F5F5F5F5E2F5F5F5E2F5E2E2E2F5E2F5F5F5E2E2F5
310
F5F5F5F5F5F5F5F5F5F5F5F5F5F5F5F5F5F528282828282828282828282828F5F528F5F5F5F5F5F5F5F5F5F5F5F5F5F5F5F5F5F5F5F5F5F5F5F5F5F5F5F5F5F5F5F5F5F5F5F5F5F5F5F5F5F5F5F5F5F5F5F5F5F5F5F5F5F5F5F5F5F5F5F5F5F5F5F5F5F5F5F5F5F5F5F5F5F5F5F5F5F5F5F5F5F5F5F5F5F5F5F5F5F5F5F5F5
310
F5F5F5F5F5F5F5F5F5F5F5F5F5F5F5F5F5F5F5F5F5F5F5F5F5F5F5F5F5F5F5F5F5F5F5F5E2F5F5F5E2F5E2E2E2F5E2F5F5F5E2E2F5F5F5F5F5F5F5F5F5F5F5F5F5F5F5F5F5F5F528282828282828282828282828F5F528F5F5F5F5F5F5F5F5F5F5F5F5F5F5F5F5F5F5F5F5F5F5F5F5F5F5F5F5F5F5F5F5F5F5F5F5F5F5F5F5
310
F5F5F5F5F5F5F5F5F5F5F5F5F5F5F5F5F5F5F5F5F5F5F5F5F5F5F5F5F5F5F5F5F5F5F5F5F5F5F5F5F5F5F5F5F5F5F5F5F5F5F5F5F5F5F5F5F5F5F5F5F5F5F5F5F5F5F5F5F5F5F5F5F5F5F5F5F5F5F5F5F5F5F5F5F5F5F5F5F5E2F5F5F5E2F5E2E2E2F5E2F5F5F5E2E2F5F5F5F5F5F5F5F5F5F5F5F5F5F5F5F5F5F5F528F5F5
310
F5F5F5F5F5F5F5F5F5F5F5F528F5F5F5F5F5F5F5F5F5F5F5F5F5F5F5F5F5F5F5F5F5F5F5F5F5F5F5F5F5F5F5F5F5F5F5F5F5F5F5F5F5F5F5F5F5F5F5F5F5F5F5F5F5F5F5F5F5F5F5F5F5F5F5F5F5F5F5F5F5F5F5F5F5F5F5F5F5F5F5F5F5F5F5F5F5F5F5F5F5F5F5F5F5F5F5F5F5F5F5F5F5F5F5F5F5F5F5F5F5F5F5F5F5F5
310
F5F5F5F5F5F5F5F5F5F5F5F5F5F5F5E2F5F5F5E2F5E2E2E2F5E2F5F5F5E2E2F5F5F5F5F5F5F5F5F5F5F5F5F5F5F5F5F5F5F528282828282828282828282828282828F5F5F5F5F5F5F5F5F5F5F5F5F5F5F5F5F5F5F5F5F5F5F5F5F5F5F5F5F5F5F5F5F5F5F5F5F5F5F5F5F52828F5F5F5F5F5F5F52828F5F5F5F5F5F5F5F5F5
310
F5F5F5F5F5F5F5F5F5F5F5F5F5F5F5F5F5F5F5F5F5F5F5F5F5F5F5F5F5F5F5F5F5F5F5F5F5F5F5F5F5F5F5F5F5F5F5F5F5F5F5F5F5F5F5F5F5F5F5F5F5F5F5F5F5F5F5F5E2F5F5F5E2F5E2E2E2F5E2F5F5F5E2E2F5F5F5F5F5F5F5F5F5F5F5F5F5F5F5F5F5F5F5F5F5F5F5F5F5F5F5F5F5F5F5F5F5F5F5F5F5F5F5F5F5F5F5
310
F5F5F5F5F5F5F5F5F5F5F5F5F5F5F5F5F5F5F5F5F5F5F5F5F5F5F5F5F5F5F5F5F52828282828282828282828F5F5F5F5F5F5F5F5F5F5F5F5F5F5F5F5F5F5F5F5F5F5F5F5F5F5F5F5F5F5F5F5F5F5F5F5F5F5F5F5F5F5F5F5F5F5F5F5F5F5F5F5F5F5F5F5F5F5F5F5F5F5F5F5F5F5F5F5F5F5F5F5F5F5F5F5F5E2F5F5F5E2F5
310
E2E2E2F5E2F5F5F5E2E2F5F5F5F5F5F5F5F5F5F5F5F5F5F5F5F5F5F5F5F5F5F5F5F5F5F5F5F5BEF5F5F5F5F5F5F5F5F5F5F5F5F5F5F5F5F5F5F5F5F5F5F5F5F5F5F5F5F5F5F5F5F5F5F5F5F5F5F5F528F5F5F5F5F5F528F5F528282828F5F5F528F5F5F5F5F5F5F5F5F5F5F5F5F5F5F5F5F5F5F5F5F5F5F5F5F5F5F5F5F5F5
310
F5F5F5F5F5F5F5F5F5F5F5F5F5F5F5F5F5F5F5F5F5F5F5F5F5F5F5F5F5F5F5F5F5F5F5F5F5F5F5F5F5F5F5F5F5F5F5E2F5F5F5E2F5E2E2E2F5F5F5F5F5E2E2F5F5F5F5F5F5F5F5F5F5F5F5F5F5F5F5F5F5F5F5F5F5F5F5F5F5F5F5BEF5F5F5F5F5F5F5F5F5F5F5F5F5F5F5F5F5F5F5F5F5F5F5F5F5F5F5F5F5F5F5F5F5F5F5
310
F5F5F5F5282828F5F5F5F5F528F5F5F5F5F5F5F5F5F528F5F5F5F5F5F5F5F5F5F5F5F5F5F5F5F5F5F5F5F5F5F5F5F5F5F5F5F5F5F5F5F5F5F5F5F5F5F5F5F5F5F5F5F5F5F5F5F5F5F5F5F5F5F5F5F5F5F5F5F5F5F5F5F5F5F5F5F5F5F5F5F5F5F5F5F5F5E2F5F5F5F5F5E2E2E2F5F5F5F5F5E2E2F5F5F5F5F5F5F5F5F5F5F5
310
F5F5F5F5F5F5F5F5F5F5F5F5F5F5F5F5F5BEF5F5F5F5F5F5F5F5F5F5F5F5F5F5F5F5F5F5F5F5F5F5F5F5F5F5F5F5F5F5F5F5F5F5F5F5F5F52828282828F5F5F5F528F5F5F5F5BEF5F5F5F528F5F5F5F5F5F5F5F5F5F5F5F5F5F5F5F5F5F5F5F5F5F5F5F5F5F5F5F5F5F5F5F5F5F5F5F5F5F5F5F5F5F5F5F5F5F5F5F5F5F5F5
310
F5F5F5F5F5F5F5F5F5F5F5F5F5F5F5F5F5F5F5F5F5F5F5F5F5F5E2F5F5F5F5F5E2E2E2F5F5F5F5F5E2E2F5F5F5F5F5F5F5F5F5F5F5F5F5F5F5F5F5F5F5F5F5F5F5F5F5F5F5F5BEF5E2E2E2E20AE2E2E2F5F5F5F5F5F5F5F5F5F5F5F5F5F5F5F5F5F5F5F5F5F5F5F5F5F5F5F5F5F5F528282828F5F5F528F5F5F5F5BEF5F5F5
310
F528F5F5F5F5F5F5F5F5F5F5F5F5F5F5F5F5F5F5F5F5F5F5F5F5F5F5F5F5F5F5F5F5F5F5F5F5F5F5F5F5F5F5F5F5F5F5F5F5F5F5F5F5F5F5F5F5F5F5F5F5F5F5F5F5F5F5F5F5F5F5F5F5F5F5F5F5F5E2F5F5F5F5F5E2E2E2F5F5F5F5F5E2E2F5F5F5F5F5F5F5F5F5F5F5F5F5F5F5F5F5F5F5F5F5F5F5F5F5F5F5F5BEE2E2E2
310
E2E2E2E2E2E2F5F5F5F5F5F5F5F5F5F5F5F5F5F5F5F5F5F5F5F5F5F5F5F5F5F5F5F5F5F5F5F52828282828F528F5F5F5F5BEF5F5F5F528F5F5F5F5F5F5F5F5F5F5F5F5F5F5F5F5F5F5F5F5F5F5F5F5F5F5F5F5F5F5F5F5F5F5F5F5F5F5F5F5F5F5F5F5F5F5F5F5F5F5F5F5F5F5F5F5F5F5F5F5F5F5F5F5F5F5F5F5F5F5F5F5
310
F5F5F5F5F5E2F5F5F5F5F5E2E2E2F5F5F5F5F5E2E2F5F5F5F5F5F5F5F5F5F5F5F5F5F5F5F5F5F5F5F5F5F5F5F5F5F5E2E2E2E2E2F5E2E2E2E2E2E2E2F5F5F5F5F5F5F5F5F5F5F5F5F5F5F5F5F5F5F5F5F5F5F5F5F5F5F5F5F5F5F5F5F5F5F5282828E2E2E2E2BEE2E2E2E228282828282828282828282828F5F5F5F5F5F5F5
310
F5F5F5F5F5F5F5F5F5F5F5F5F5F5F5F5F5F5F5F5F5F5F5F5F5F5F5F5F5F5F5F5F5F5F5F5F5F5F5F5F5F5F5F5F5F5F5F5F5F5F5F5F5F5F5F5F5F5E2F5F5F5F5F5E2E2E2F5F5F5F5F5E2E2F5F5F5F5F5F5F5F5F5F5F5F5F5F5F5F5F5F5F5F5F5F5F5F5F5E2E2E2E2F5E20AE2E2E2E20AE2E2E2F5F5F5F5F5F5F5F5F5F5F5F5F5
310
F5F5F5F5F5F5F5F5F5F5F5F5F5F5F5F5F5F5F5F5F5F5BE28E2E2E2E2BEE2E2E2E2BE2828282828282828F5282828F5F5F5F5F5F5F5F5F5F5F5F5F5F5F5F5F5F5F5F5F5F5F5F5F5F5F5F5F5F5F5F5F5F5F5F5F5F5F5F5F5F5F5F5F5F5F5F5F5F5F5F5F5F5F5F5F5F5F5F5F5F5F5F5F5E2F5F5F5F5F5E2E2E2F5F5F5F5F5E2E2
310
F5F5F5F5F5F5F5F5F5F5F5F5F5F5F5F5F5F5F5F5F5F5F5E2E2E2E2F5E2E2E2E2E20AE20A0AE2E2E2E2F5F5F5F5F5F5F5F5F5F5F5F5F5F5F5F5F5F5F5F5F5F5F5F5F5F5F5F5F5F5F5F5F5F5E2BE28F5F5F5BEF5F5F5F5BEE2E2E2F5F5282828F5282828F5F5F5F5F5F5F5F5F5F5F5F5F5F5F5F5F5F5F5F5F5F5F5F5F5F5F5F5
310
F5F5F5F5F5F5F5F5F5F5F5F5F5F5F5F5F5F5F5F5F5F5F5F5F5F5F5F5F5F5F5F5F5F5F5F5F5E2F5F5F5F5F5E2E2E2F5F5F5F5F5E2E2F5F5F5F5F5F5F5F5F5F5F5F5F5F5F5F5F5F5F5F5F5E2E2E2E2F5E2E2E2E2E2E2E2E2E20AE2E2E2E2E2F5F5F5F5F5F5F5F5F5F5F5F5F5F5F5F5F5F5F5F5F5F5F5F5F5F5F5F5F5F5F5F5F5
310
F5E2E2F528F5F5BEF5F5F5F5E2E2E2E2F5F5282828F5282828F5F5F5F5F5F5F5F5F5F5F5F5F5F5F5F5F5F5F5F5F5F5F5F5F5F5F5F5F5F5F5F5F5F5F5F5F5F5F5F5F5F5F5F5F5F5F5F5F5F5F5F5F5F5F5F5F5F5F5F5F5F5F5F5F5E2F5F5F5F5F5E2E2E2F5E2F5F5F5E2E2F5F5F5F5F5F5F5F5F5F5F5F5F5F5F5F5F5F5F5E2E2
310
E2E2F5F5E2E2E2E2E2E2E20AE2E2E2E2E2E2E2E2F5F5F5F5F5F5F5F5F5F5F5F5F5F5F5F5F5F5F5F5F5F5F5F5F5F5F5F5F5F5F5F5F50AE2E2E2E2E2E2BEE2E2E2E2E20AE2E2F5F5F52828F5F5F528F5F5F5F5F5F5F5F5F5F5F5F5F5F5F5F5F5F5F5F5F5F5F5F5F5F5F5F5F5F5F5F5F5F5F5F5F5F5F5F5F5F5F5F5F5F5F5F5F5
310
F5F5F5F5F5F5F5F5F5F5F5F5F5F5F5F5E2F5F5F5E2F5E2E2E2F5E2F5F5F5E2E2F5F5F5F5F5F5F5F5F5F5F5F5F5F5F5F5F5E2E2E2E2F5F5E2E2E2E2E2E2E2E20AE20AE20AE2E2E2E2E2F5F5F5F5F5F5F5F5F5F5F5F5F5F5F5F5F5F5F5F5F5F5F5F5F5F5F5F5F5F5F5BEBEBEBEBEBEBEBEBEBEBEBEBEBEBEBEBEBEBE28282828
310
28282828F5F5F5F5F5F5F5F5F5F5F5F5F5F5F5F5F5F5F5F5F5F5F5F5F5F5F5F5F5F5F5F5F5F5F5F5F5F5F5F5F5F5F5F5F5F5F5F5F5F5F5F5F5F5F5F5F5F5F5F5F5F5F5F5F5E2F5F5F5E2F5E2E2E2F5E2F5F5F5E2E2F5F5F5F5F5F5F5F5F5F5F5F5F5F5F5E2E2E2E2F5F5E2E2E2E2E2E2F50AE2E2E2E2E2E2E2E2E2E2E2E2F5
310
F5F5F5F5F5F5F5F5F5F5F5F5F5F5F5F5F5F5F5F5F5F5F5F5F5F5F5F5F5F5F5F5E2E2E2E2E2E2E2BEE2E2E2E2E2E2E2F5F5F5F5F5F5F5F5F5F5F5F5F5F5F5F5F5F5F5F5F5F5F5F5F5F5F5F5F5F5F5F5F5F5F5F5F5F5F5F5F5F5F5F5F5F5F5F5F5F5F5F5F5F5F5F5F5F5F5F5F5F5F5F5F5F5F5F5F5F5F5F5F5F5F5E2F5F5F5E2
310
F5E2E2E2F5E2F5F5F5E2E2F5F5F5F5F5F5F5F5F5F5F5F5F5F5F5E2E2F5F5F5E2E2E2E2E2E2E2E2E2E2E2E2E2E2E2E2E20AE20AE2F5F5F5F5F5F5F5F5F5F5F5F5F5F5F5F5F5F5F5F5F5F5F5F5F5F5F5F5F5F5F5F5F5F5F5F5F5F5F5F5BEF5F5F5F5F5F5F5F5F5F5F5F5F5F5F5F5F5F5F5F5F5F5F5F5F5F5F5F5F5F5F5F5F5F5
310
F5F5F5F5F5F5F5F5F5F5F5F5F5F5F5F5F5F5F5F5F5F5F5F5F5F5F5F5F5F5F5F5F5F5F5F5F5F5F5F5F5F5F5F5F5F5F5F5E2F5F5F5E2F5E2E2E2F5E2F5F5F5E2E2F5F5F5F5F5F5F5F5F5F5F5F5F5F5F5E2E2F5E2E2E2E2E2F5E2E2E2E2E2E2E2F5F5E2E2E2E20A0A0AE2F5F5F5F5F5F5F5F5F5F5F5F5F5F5F5F5F5F5F5F5F5F5
310
F5F5F5F5F5F5F5F5F5F5F5F5F5F5F5F5F5F5BEF5F5F5F5F5F5F5F5F5F5F5F5F5F5F5F5F5F5F5F5F5F5F5F5F5F5F5F5F5F5F5F5F5F5F5F5F5F5F5F5F5F5F5F5F5F5F5F5F5F5F5F5F5F5F5F5F5F5F5F5F5F5F5F5F5F5F5F5F5F5F5F5F5F5F5F5F5F5F5F5F5F5E2F5F5F5E2F5E2E2E2F5E2F5F5F5E2E2F5F5F5F5F5F5F5F5F5F5
310
F5F5F5F5E2E2E2E2E2E2E2F5F5F50AE2E2E2E2E2E2E20AE2E2F5E20A0A0AF5F5F5F5F5F5F5F5F5F5F5F5F5F5F5F5F5F5F5F5F5F5F5F5F5F5F5F5F5F5F5F5F5F5F5F5F5F5F5F5F5F5F5F5F5F5F5F5F5F5F5F5F5F5F5F5F5F5F5F5F5F5F5F5F5F5F5F5F5F5F5F5F5F5F5F5F5F5F5F5F5F5F5F5F5F5F5F5F5F5F5F5F5F5F5F5F5
310
F5F5F5F5F5F5F5F5F5F5F5F5F5F5F5F5F5F5F5F5F5F5F5F5F5F5F5E2F5F5F5E2F5E2E2E2F5E2F5F5F5E2E2F5F5F5F5F5F5F5F5F5F5F5F5F5F5E2E2E2E2E2F5F5F5F5F5E2E2E2E2BEF5E2E2E2E2E2F5E2E2E20AE2F5F5F5F5F5F5F5F5F5F5F5F5F5F5F5F5F5F5F5F5F5F5F5F5F5F5F5F5F5F5F5F5F5F5F5F5F5F5F5F5F5F5F5
310
F5F5F5F5F5F5F5F5F5F5F5F5F5F5F5F5F5F5F5F5F5F5F5F5F5F5F5F5F5F5F5F5F5F5F5F5F5F5F5F5F5F5F5F5F5F5F5F5F5F5F5F5F5F5F5F5F5F5F5F5F5F5F5F5F5F5F5F5F5F5F5F5F5F5F5F5F5F5F5F5E2F5F5F5E2F5E2E2E2F5E2F5F5F5E2E2F5F5F5F5F5F5F5F5F5F5F5F5F5F50AE2E2E2E20AE2E2F5F5E2E2E2F5BEF5E2
310
E2E2E2E2E2E2E2E2E2F5F5F5F5F5F5F5F5F5F5F5F5F5F5F5F5F5F5F5F5F5F5F5F5F5F5F5F5F5F5F5F5F5F5F5F5F5F5F5F5F5F5F5F5F5F5F5F5F5F5F5F5F5F5F5F5F5F5F5F5F5F5F5F5F5F5F5F5F5F5F5F5F5F5F5F5F5F5F5F5F5F5F5F5F5F5F5F5F5F5F5F5F5F5F5F5F5F5F5F5F5F5F5F5F5F5F5F5F5F5F5F5F5F5F5F5F5F5
310
F5F5F5F5F5F5E2F5F5F5E2F5E2E2E2F5E2F5F5F5E2E2F5F5F5F5F5F5F5F5F5F5F5F5F5F5E2E2E2E2E2E2E2E2E2F5E2E2E2E2BEF5E2E2E2E2E2E2E2E2F5F5F5F5F5F5F5F5F5F5F5F5F5F5F5F5F5F5F5F5F5F5F5F5F5F5F5F5F5F5F5F5F5F5F5F5F5F5F5F5F5F5F5F5F5F5F5F5F5F5F5F5F5F5F5F5F5F5F5F5F5F5F5F5F5F5F5
310
F5F5F5F5F5F5F5F5F5F5F5F5F5F5F5F5F5F5F5F5F5F5F5F5F5F5F5F5F5F5F5F5F5F5F5F5F5F5F5F5F5F5F5F5F5F5F5F5F5F5F5F5F5F5F5F5F5F5F5E2F5F5F5E2F5E2E2E2F5E2F5F5F5E2E2F5F5F5F5F5F5F5F5F5F5F5F5F5F5F5F5E2E2E2E2E2E2E2E2E2E2F5E2BEE2E2E2E2E2E2E2F5F5F5F5F5F5F5F5F5F5F5F5F5F5F5F5
310
F5F5F5F5F5F5F5F5F5F5F5F5F5F5F5F5F5F5F5F5F5F5F5F5F5F5F5F5F5F5F5F5F5F5F5F5F5F5F5F5F5F5F5F5F5F5F5F5F5F5F5F5F5F5F5F5F5F5F5F5F5F5F5F5F5F5F5F5F5F5F5F5F5F5F5F5F5F5F5F5F5F5F5F5F5F5F5F5F5F5F5F5F5F5F5F5F5F5F5F5F5F5F5F5F5F5F5F5F5F5F5F5E2F5F5F5E2F5E2E2E2F5E2F5F5F5E2
310
E2F5F5F5F5F5F5F5F5F5F5F5F5F5F5F5F5F5E20AE2E2E2E2E2E2F5F5F5BEE2E2E2E2E2F5F5F5F5F5F5F5F5F5F5F5F5F5F5F5F5F5F5F5F5F5F5F5F5F5F5F5F5F5F5F5F5F5F5F5F5F5F5F5F5F5F5F5F5F5F5F5F5F5F5F5F5F5F5F5F5F5F5F5F5F5F5F5F5F5F5F5F5F5F5F5F5F5F5F5F5F5F5F5F5F5F5F5F5F5F5F5F5F5F5F5F5
310
F5F5F5F5F5F5F5F5F5F5F5F5F5F5F5F5F5F5F5F5F5F5F5F5F5F5F5F5F5F5F5F5F5F5F5F5F5F5E2F5F5F5E2F5E2E2E2F5E2F5F5F5E2E2F5F5F5F5F5F5F5F5F5F5F5F5F5F5F5F5F5E2E2E2E2E2E2F5F5F528282828282828F5F5F5F5F5F5F5F5F5F5F5F5F5F5F5F5F5F5F5F5F5F5F5F5F5F5F5F5F5F5F5F5F5F5F5F5F5F5F5F5
310
F5F5F5F5F5F5F5F5F5F5F5F5F5F5F5F5F5F5F5F5F5F5F5F5F5F5F5F5F5F5F5F5F5F5F5F5F5F5F5F5F5F5F5F5F5F5F5F5F5F5F5F5F5F5F5F5F5F5F5F5F5F5F5F5F5F5F5F5F5F5F5F5F5F5F5F5F5F5F5F5F5F5F5F5F5F5F5F5F5F5F5E2F5F5F5E2F5E2E2E2F5E2F5F5F5E2E2F5F5F5F5F5F5F5F5F5F5F5F5F5F5F5F5F5F5F5F5
310
E2E20A2828282828BEE2E228282828F5F5F5F5F5F5F5F5F5F5F5F5F5F5F5F5F5F5F5F5F5F5F5F5F5F5F5F5F5F5F5F5F5F5F5F5F5F5F5F5F5F5F5F5F5F5F5F5F5F5F5F5F5F5F5F5F5F5F5F5F5F5F5F5F5F5F5F5F5F5F5F5F5F5F5F5F5F5F5F5F5F5F5F5F5F5F5F5F5F5F5F5F5F5F5F5F5F5F5F5F5F5F5F5F5F5F5F5F5F5F5F5
310
F5F5F5F5F5F5F5F5F5F5F5F5F5F5F5F5F5E2F5F5F5E2F5E2E2E2F5E2F5F5F5E2E2F5F5F5F5F5F5F5F5F5F5F5F5F5F5F5F5F5F5F5F5E2E22828282828E2BEF5F5F52828282828F5F5F5F5F5F5F5F5F5F5F5F5F5F5F5F5F5F5F5F5F5F5F5F5F5F5F5F5F5F5F5F5F5F5F5F5F5F5F5F5F5F5F5F5F5F5F5F5F5F5F5F5F5F5F5F5F5
310
F5F5F5F5F5F5F5F5F5F5F5F5F5F5F5F5F5F5F5F5F5F5F5F5F5F5F5F5F5F5F5F5F5F5F5F5F5F5F5F5F5F5F5F5F5F5F5F5F5F5F5F5F5F5F5F5F5F5F5F5F5F5F5F5F5F5F5F5F5F5E2F5F5F5E2F5E2E2E2F5E2F5F5F5E2E2F5F5F5F5F5F5F5F5F5F5F5F5F5F5F5F5F5F5F5F5E2282828E2E2E2E2BEF5F5F5F5F528282828F5F5F5
310
F5F5F5F5F5F5F5F5F5F5F5F5F5F5F5F5F5F5F5F5F5F5F5F5F5F5F5F5F5F5F5F5F5F5F5F5F5F5F5F5F5F5F5F5F5F5F5F5F5F5F5F5F5F5F5F5F5F5F5F5F5F5F5F5F5F5F5F5F5F5F5F5F5F5F5F5F5F5F5F5F5F5F5F5F5F5F5F5F5F5F5F5F5F5F5F5F5F5F5F5F5F5F5F5F5F5F5F5F5F5F5F5F5F5F5F5F5F5F5F5F5F5F5E2F5F5F5
310
E2F5E2E2E2F5E2F5F5F5E2E2F5F5F5F5F5F5F5F5F5F5F5F5F5F5F5F5F5F5F5F50A28280AE2E2F5F5BEF5F5F5F5F5F52828F5F5F5F5F5F5F5F5F5F5F5F5F5F5F5F5F5F5F5F5F5F5F5F5F5F5F5F5F5F5F5F5F5F5F5F5F5F5F5F5F5F5F5F5F5F5F5F5F5F5F5F5F5F5F5F5F5F5F5F5F5F5F5F5F5F5F5F5F5F5F5F5F5F5F5F5F5F5
310
F5F5F5F5F5F5F5F5F5F5F5F5F5F5F5F5F5F5F5F5F5F5F5F5F5F5F5F5F5F5F5F5F5F5F5F5F5F5F5F5F5F5F5F5F5F5F5F5F5E2F5F5F5E2F5E2E2E2F5F5F5F5F5E2E2F5F5F5F5F5F5F5F5F5F5F5F5F5F5F5F5F5F5F5F5E228E2E2F5F5F5F5F5F5F5F5F5F5F5282828F5F5F5F5F5F5F5F5F5F5F5F5F5F5F5F5F5F5F5F5F5F5F5F5
310
F5F5F5F5F5F5F5F5F5F5F5F5F5F5F5F5F5F5F5F5F5F5F5F5F5F5F5F5F5F5F5F5F5F5F5F5F5F5F5F5F5F5F5F5F5F5F5F5F5F5F5F5F5F5F5F5F5F5F5F5F5F5F5F5F5F5F5F5F5F5F5F5F5F5F5F5F5F5F5F5F5F5F5F5F5F5F5F5F5F5F5F5F5F5F5F5F5F5F5F5F5F5E2F5F5F5F5F5E2E2E2F5F5F5F5F5E2E2F5F5F5F5F5F5F5F5F5
310
F5F5F5F5F5F5F5F5F5F5F5F5282828F5F5F5F5F5F5F5F5F5F5F528282828F5F5F5F5F5F5F5F5F5F5F5F5F5F5F5F5F5F5F5F5F5F5F5F5F5F5F5F5F5F5F5F5F5F5F5F5F5F5F5F5F5F5F5F5F5F5F5F5F5F5F5F5F5F5F5F5F5F5F5F5F5F5F5F5F5F5F5F5F5F5F5F5F5F5F5F5F5F5F5F5F5F5F5F5F5F5F5F5F5F5F5F5F5F5F5F5F5
310
F5F5F5F5F5F5F5F5F5F5F5F5F5F5F5F5F5F5F5F5F5F5F5F5F5F5F5F5E2F5F5F5F5F5E2E2E2F5F5F5F5F5E2E2F5F5F5F5F5F5F5F5F5F5F5F5F5F5F5F5F5F5F5F5F528282828F5F5F5F5F5F5F5F5F5F5282828F5F5F5F5F5F5F5F5F5F5F5F5F5F5F5F5F5F5F5F5F5F5F5F5F5F5F5F5F5F5F5F5F5F5F5F5F5F5F5F5F5F5F5F5F5
310
F5F5F5F5F5F5F5F5F5F5F5F5F5F5F5F5F5F5F5F5F5F5F5F5F5F5F5F5F5F5F5F5F5F5F5F5F5F5F5F5F5F5F5F5F5F5F5F5F5F5F5F5F5F5F5F5F5F5F5F5F5F5F5F5F5F5F5F5F5F5F5F5F5F5F5F5F5F5F5F5F5E2F5F5F5F5F5E2E2E2F5F5F5F5F5E2E2F5F5F5F5F5F5F5F5F5F5F5F5F5F5F5F5F5F5F5F5F5F52828282828F5F528
310
28282828F52828F5F5F5F5F5F5F5F5F5F5F5F5F5F5F5F5F5F5F5F5F5F5F5F5F5F5F5F5F5F5F5F5F5F5F5F5F5F5F5F5F5F5F5F5F5F5F5F5F5F5F5F5F5F5F5F5F5F5F5F5F5F5F5F5F5F5F5F5F5F5F5F5F5F5F5F5F5F5F5F5F5F5F5F5F5F5F5F5F5F5F5F5F5F5F5F5F5F5F5F5F5F5F5F5F5F5F5F5F5F5F5F5F5F5F5F5F5F5F5F5
310
F5F5F5F5F5F5F5E2F5F5F5F5F5E2E2E2F5F5F5F5F5E2E2F5F5F5F5F5F5F5F5F5F5F5F5F5F5F5F5F5F5F5F5F5F5F528F52828282828282828F5F5F5F5F5F5F5F5F5F5F5F5F5F5F5F5F5F5F5F5F5F5F5F5F5F5F5F5F5F5F5F5F5F5F5F5F5F5F5F5F5F5F5F5F5F5F5F5F5F5F5F5F5F5F5F5F5F5F5F5F5F5F5F5F5F5F5F5F5F5F5
310
F5F5F5F5F5F5F5F5F5F5F5F5F5F5F5F5F5F5F5F5F5F5F5F5F5F5F5F5F5F5F5F5F5F5F5F5F5F5F5F5F5F5F5F5F5F5F5F5F5F5F5F5F5F5F5F5F5F5F5F5E2F5F5F5F5F5E2E2E2F5F5F5F5F5E2E2F5F5F5F5F5F5F5F5F5F5F5F5F5F5F5F5F5F5F5F5F5F5F5F5F5F528F5F5282828F5F5F5F5F5F5F5F5F5F5F5F5F5F5F5F5F5F5F5
310
F5F5F5F5F5F5F5F5F5F5F5F5F5F5F5F5F5F5F5F5F5F5F5F5F5F5F5F5F5F5F5F5F5F5F5F5F5F5F5F5F5F5F5F5F5F5F5F5F5F5F5F5F5F5F5F5F5F5F5F5F5F5F5F5F5F5F5F5F5F5F5F5F5F5F5F5F5F5F5F5F5F5F5F5F5F5F5F5F5F5F5F5F5F5F5F5F5F5F5F5F5F5F5F5F5F5F5F5F5F5F5F5F5E2F5F5F5F5F5E2E2E2F5F5F5F5F5
310
E2E2F5F5F5F5F5F5F5F5F5F5F5F5F5F5F5F5F5F5F5F5F5F5F5F5F5F5F5F5F528F5F5F5F5F5F5F5F5F5F5F5F5F5F5F5F5F5F5F5F5F5F5F5F5F5F5F5F5F5F5F5F5F5F5F5F5F5F5F5F5F5F5F5F5F5F5F5F5F5F5F5F5F5F5F5F5F5F5F5F5F5F5F5F5F5F5F5F5F5F5F5F5F5F5F5F5F5F5F5F5F5F5F5F5F5F5F5F5F5F5F5F5F5F5F5
310
F5F5F5F5F5F5F5F5F5F5F5F5F5F5F5F5F5F5F5F5F5F5F5F5F5F5F5F5F5F5F5F5F5F5F5F5F5F5F5E2F5F5F5F5F5E2E2E2F5F5F5F5F5E2E2F5F5F5F5F5F5F5F5F5F5F5F5F5F5F5F5F5F5F5F5F5F5F5F5F5F5F5F5F5F5F5F5F5F5F5F5F5F5F5F5F5F5F5F5F5F5F5F5F5F5F5F5F5F5F5F5F5F5F5F5F5F5F5F5F5F5F5F5F5F5F5F5
310
F5F5F5F5F5F5F5F5F5F5F5F5F5F5F5F5F5F5F5F5F5F5F5F5F5F5F5F5F5F5F5F5F5F5F5F5F5F5F5F5F5F5F5F5F5F5F5F5F5F5F5F5F5F5F5F5F5F5F5F5F5F5F5F5F5F5F5F5F5F5F5F5F5F5F5F5F5F5F5F5F5F5F5F5F5F5F5F5F5F5F5F5E2F5F5F5F5F5E2E2E2F5F5F5F5F5E2E2F5F5F5F5F5F5F5F5F5F5F5F5F5F5F5F5F5F5F5
310
F5F5F5F5F5F5F5F5F5F5F5F5F5F5F5F5F5F5F5F5F5F5F5F5F5F5F5F5F5F5F5F5F5F5F5F5F5F5F5F5F5F5F5F5F5F5F5F5F5F5F5F5F5F5F5F5F5F5F5F5F5F5F5F5F5F5F5F5F5F5F5F5F5F5F5F5F5F5F5F5F5F5F5F5F5F5F5F5F5F5F5F5F5F5F5F5F5F5F5F5F5F5F5F5F5F5F5F5F5F5F5F5F5F5F5F5F5F5F5F5F5F5F5F5F5F5F5
310
F5F5F5F5F5F5F5F5F5F5F5F5F5F5F5F5F5F5E2F5F5F5F5F5E2E2E2F5E2F5F5F5E2E2F5F5F5F5F5F5F5F5F5F5F5F5F5F5F5F5F5F5F5F5F5F5F5F5F5F5F5F5F5F5F5F5F5F5F5F5F5F5F5F5F5F5F5F5F5F5F5F5F5F5F5F5F5F5F5F5F5F5F5F5F5F5F5F5F5F5F5F5F5F5F5F5F5F5F5F5F5F5F5F5F5F5F5F5F5F5F5F5F5F5F5F5F5
310
F5F5F5F5F5F5F5F5F5F5F5F5F5F5F5F5F5F5F5F5F5F5F5F5F5F5F5F5F5F5F5F5F5F5F5F5F5F5F5F5F5F5F5F5F5F5F5F5F5F5F5F5F5F5F5F5F5F5F5F5F5F5F5F5F5F5F5F5F5F5F5E2F5F5F5E2F5E2E2E2F5E2F5F5F5E2E2F5F5F5F5F5F5F5F5F5F5F5F5F5F5F5F5F5F5F5F5F5F5F5F5F5F5F5F5F5F5F5F5F5F5F5F5F5F5F5F5
310
F5F5F5F5F5F5F5F5F5F5F5F5F5F5F5F5F5F5F5F5F5F5F5F5F5F5F5F5F5F5F5F5F5F5F5F5F5F5F5F5F5F5F5F5F5F5F5F5F5F5F5F5F5F5F5F5F5F5F5F5F5F5F5F5F5F5F5F5F5F5F5F5F5F5F5F5F5F5F5F5F5F5F5F5F5F5F5F5F5F5F5F5F5F5F5F5F5F5F5F5F5F5F5F5F5F5F5F5F5F5F5F5F5F5F5F5F5F5F5F5F5F5F5F5E2F5F5
310
F5E2F5E2E2E2F5E2F5F5F5E2E2F5F5F5F5F5F5F5F5F5F5F5F5F5F5F5F5F5F5F5F5E2E2E2E2E2E2E2E2E2E2E2E2E2E2E2E2F5F5F5F5F5F5F5F5F5F5F5F5F5F5F5F5F5F5F5F5F5F5F5F5F5F5F5F5F5F5F5F5F5F5F5F5F5F5F5F5F5F5F5F5F5F5F5F5F5F5F5F5F5F5F5F5F5F5F5F5F5F5F5F5F5F5F5F5F5F5F5F5F5F5F5F5F5F5
310
F5F5F5F5F5F5F5F5F5F5F5F5F5F5F5F5F5F5F5F5F5F5F5F5F5F5F5F5F5F5F5F5F5F5F5F5F5F5F5F5F5F5F5F5F5F5F5F5F5F5E2F5F5F5E2F5E2E2E2F5E2F5F5F5E2E2E2E2E2E2E2E2E2E2E2E2E2E2E2E2E2E2E2E2E2E2F5E2E2E2E2E2E2E2E2E2E2E2E2E2E2E2E2E2E2E2E2E2E2E2E2E2E2E2E2E2E2E2E2E2E2E2E2E2E2E2E2
310
E2E2E2E2E2E2E2E2E2E2E2E2E2E2E2E2E2E2E2E2E2E2E2E2E2E2E2E2E2E2E2E2E2E2E2E2E2E2E2E2E2E2E2E2E2E2E2E2E2E2E2E2E2E2E2E2E2E2E2E2E2E2E2E2E2E2E2E2E2E2E2E2E2E2E2E2E2E2E2E2E2E2E2E2E2E2E2E2E2E2E2E2E2E2E2E2E2E2E2E2E2E2E2E2F5F5F5E2F5E2E2E2F5E2F5F5F5F5F5F5F5F5F5F5F5F5F5
310
F5F5F5F5F5F5F5F5F5F5F5F5F5E2E2E2E2E2E2E2F5E2E2E2E2E2E2E2F5F5F5F5F5F5F5F5F5F5F5F5F5F5F5F5F5F5F5F5F5F5F5F5F5F5F5F5F5F5F5F5F5F5F5F5F5F5F5F5F5F5F5F5F5E2F5F5F5F5F5F5F5F5F5F5F5F5F5F5F5F5F5F5F5F5F5F5F5F5F5F5F5F5F5F5F5F5F5F5F5F5F5F5F5F5F5F5F5F5F5F5F5F5F5F5F5F5F5
310
F5F5F5F5F5F5F5F5F5F5F5F5F5F5F5F5F5F5F5F5F5F5F5F5F5F5F5F5F5F5F5F5F5E2F5E2E2E2F5E2F5F5F5F5F5F5F5F5F5F5F5F5F5F5F5F5F5F5F5F5F5F5F5F5F5F5F5F5F5E2E2F5F5F5F5F5F5F5F5E2F5F5F5F5F5F5F5F5F5F5F5F5F5F5F5F5F5F5F5F5F5F5F5F5F5F5F5F5F5F5F5F5F5F5F5F5F5F5F5F5F5F5F5F5F5F5E2
310
F5F5F5F5F5F5F5F5F5F5F5F5F5F5F5F5F5F5F5F5F5F5F5F5F5F5F5F5F5F5F5F5F5F5F5F5F5F5F5F5F5F5F5F5F5F5F5F5F5F5F5F5F5F5F5F5F5F5F5F5F5F5F5F5F5F5F5F5F5F5F5F5F5F5F5F5F5F5F5F5F5F5F5F5F5F5E2F5E2E2E2F5E2F5F5F5F5F5F5F5F5F5F5F5F5F5F5F5F5F5F5F5F5F5F5F5F5F5F5F5F5F5F5F5F5F5F5
310
F5F5F5F5F5F5F5F5F5F5F5F5F5F5F5F5F5F5F5F5F5F5F5F5F5F5F5F5F5F5F5F5F5F5F5F5F5F5F5F5F5F5F5F5F5F5F5F5F5F5F5F5E2F5F5F5F5F5F5F5F5F5F5F5F5F5F5F5F5F5F5F5F5F5F5F5F5F5F5F5F5F5F5F5F5F5F5F5F5F5F5F5F5F5F5F5F5F5F5F5F5F5F5F5F5F5F5F5F5F5F5F5F5F5F5F5F5F5F5F5F5F5F5F5F5F5F5
310
F5F5F5F5F5F5F5F5F5F5F5F5E2F5E2E2E2F5E2E2E2E2E2E2E2E2F5F5F5F5F5F5F5F5F5E2E2E2E2E2E2E2E2E2E2E2E2E2E2E2E2F5F5F5F5F5F5F5F5F5E2E2E2E2E2E2E2E2E2E2E2E2E2E2E2E2F5F5F5F5F5F5F5F5F5E2E2E2E2E2E2E2E2E2E2E2E2E2E2E2E2F5F5F5F5F5F5F5F5F5E2E2E2E2E2E2E2E2E2E2E2E2E2E2E2E2F5
310
F5F5F5F5F5F5F5F5E2E2E2E2E2E2E2E2E2E2E2E2E2E2E2E2F5F5F5F5F5F5F5F5F5E2E2E2E2E2E2E2E2E2E2E2E2E2E2E2E2F5F5F5F5F5F5F5F5F5E2E2E2E2E2E2E2E2F5E2E2E2F5F5F5F5F5F5F5F5F5F5F5F5F5F5F5F5F5F5F5F5F5F5F5F5F5F5F5F5F5F5F5F5F5F5F5F5F5F5F5F5F5F5F5F5F5F5F5F5F5F5F5F5F5F5F5F5F5
310
F5F5F5F5F5F5F5F5F5F5F5F5F5F5F5F5F5F5F5F5F5F5F5F5F5F5F5F5F5F5F5F5F5F5F5F5F5F5F5F5F5F5F5F5F5F5F5F5F5F5F5F5F5F5F5F5F5F5F5F5F5F5F5F5F5F5F5F5F5F5F5F5F5F5F5F5F5F5F5F5F5F5F5F5F5F5F5F5F5F5F5F5F5F5F5F5F5F5F5F5F5F5F5F5F5F5F5F5F5F5F5F5F5F5F5F5F5F5F5F5E2EFE2E2E2E2E2
310
E2E2E2E2E2E2E2E2E2E2E2E2E2E2E2E2E2E2E2E2E2E2E2E2E2E2E2E2E2E2E2E2E2E2E2E2E2E2E2E2E2E2E2E2E2E2E2E2E2E2E2E2E2E2E2E2E2E2E2E2E2E2E2E2E2E2E2E2E2E2E2E2E2E2E2E2E2E2E2E2E2E2E2E2E2E2E2E2E2E2E2E2E2E2E2E2E2E2E2E2E2E2E2E2E2E2E2E2E2E2E2E2E2E2E2E2E2E2E2E2E2E2E2E2E2E2E2
310
E2E2E2E2E2E2E2E2E2E2E2E2E2E2E2E2E2E2E2E2E2E2E2E2E2E2E2E2E2E2E2E2E2E2E2E2E2E2E2E2E2E2E2E2E2E2E2EF
  0
XRECORD
  5
6D7
102
{ACAD_REACTORS
330
6D6
102
}
330
6D6
100
AcDbXrecord
280
     1
102
SHADEPLOT
 70
     0
102
SHADEPLOTRESLEVEL
 70
     2
102
SHADEPLOTCUSTOMDPI
 70
   300
  0
XRECORD
  5
6DC
102
{ACAD_REACTORS
330
6DB
102
}
330
6DB
100
AcDbXrecord
280
     1
102
MATERIAL
148
0.0
149
0.0
149
0.0
 93
        0
 94
       63
282
     0
 72
     1
 77
     1
171
     1
175
     1
179
     1
273
     0
  0
XRECORD
  5
6DA
102
{ACAD_REACTORS
330
6D9
102
}
330
6D9
100
AcDbXrecord
280
     1
102
MATERIAL
148
0.0
149
0.0
149
0.0
 93
        0
 94
       63
282
     0
 72
     1
 77
     1
171
     1
175
     1
179
     1
273
     0
  0
XRECORD
  5
6D5
102
{ACAD_REACTORS
330
6D4
102
}
330
6D4
100
AcDbXrecord
280
     1
102
MATERIAL
148
0.0
149
0.0
149
0.0
 93
        0
 94
       63
282
     0
 72
     1
 77
     1
171
     1
175
     1
179
     1
273
     0
  0
XRECORD
  5
6DE
102
{ACAD_REACTORS
330
6DD
102
}
330
6DD
100
AcDbXrecord
280
     1
102
ACAD_ROUNDTRIP_PRE2007_TABLESTYLE
 90
        4
 91
        0
  1

 92
        4
 93
        0
  2

 94
        4
 95
        0
  3

  0
ENDSEC
  0
EOF
