  0
SECTION
  2
HEADER
  9
$ACADVER
  1
AC1015
  9
$ACADMAINTVER
 70
    20
  9
$DWGCODEPAGE
  3
ANSI_932
  9
$INSBASE
 10
0.0
 20
0.0
 30
0.0
  9
$EXTMIN
 10
0.0
 20
0.0
 30
0.0
  9
$EXTMAX
 10
297.0
 20
210.0
 30
0.0
  9
$LIMMIN
 10
0.0
 20
0.0
  9
$LIMMAX
 10
297.0
 20
210.0
  9
$ORTHOMODE
 70
     0
  9
$REGENMODE
 70
     1
  9
$FILLMODE
 70
     1
  9
$QTEXTMODE
 70
     0
  9
$MIRRTEXT
 70
     0
  9
$LTSCALE
 40
3.0
  9
$ATTMODE
 70
     1
  9
$TEXTSIZE
 40
1.0
  9
$TRACEWID
 40
0.05
  9
$TEXTSTYLE
  7
Standard
  9
$CLAYER
  8
01-MODEL
  9
$CELTYPE
  6
ByLayer
  9
$CECOLOR
 62
   256
  9
$CELTSCALE
 40
1.0
  9
$DISPSILH
 70
     0
  9
$DIMSCALE
 40
0.0
  9
$DIMASZ
 40
2.0
  9
$DIMEXO
 40
0.3
  9
$DIMDLI
 40
3.0
  9
$DIMRND
 40
0.0
  9
$DIMDLE
 40
0.0
  9
$DIMEXE
 40
0.5
  9
$DIMTP
 40
0.0
  9
$DIMTM
 40
0.0
  9
$DIMTXT
 40
2.5
  9
$DIMCEN
 40
0.2
  9
$DIMTSZ
 40
0.0
  9
$DIMTOL
 70
     0
  9
$DIMLIM
 70
     0
  9
$DIMTIH
 70
     0
  9
$DIMTOH
 70
     0
  9
$DIMSE1
 70
     0
  9
$DIMSE2
 70
     0
  9
$DIMTAD
 70
     1
  9
$DIMZIN
 70
     0
  9
$DIMBLK
  1
Open30
  9
$DIMASO
 70
     1
  9
$DIMSHO
 70
     1
  9
$DIMPOST
  1

  9
$DIMAPOST
  1

  9
$DIMALT
 70
     0
  9
$DIMALTD
 70
     2
  9
$DIMALTF
 40
25.4
  9
$DIMLFAC
 40
1.0
  9
$DIMTOFL
 70
     1
  9
$DIMTVP
 40
0.0
  9
$DIMTIX
 70
     0
  9
$DIMSOXD
 70
     0
  9
$DIMSAH
 70
     0
  9
$DIMBLK1
  1

  9
$DIMBLK2
  1

  9
$DIMSTYLE
  2
Standard
  9
$DIMCLRD
 70
   256
  9
$DIMCLRE
 70
   256
  9
$DIMCLRT
 70
   256
  9
$DIMTFAC
 40
1.0
  9
$DIMGAP
 40
0.5
  9
$DIMJUST
 70
     0
  9
$DIMSD1
 70
     0
  9
$DIMSD2
 70
     0
  9
$DIMTOLJ
 70
     1
  9
$DIMTZIN
 70
     0
  9
$DIMALTZ
 70
     0
  9
$DIMALTTZ
 70
     0
  9
$DIMUPT
 70
     0
  9
$DIMDEC
 70
     3
  9
$DIMTDEC
 70
     3
  9
$DIMALTU
 70
     2
  9
$DIMALTTD
 70
     2
  9
$DIMTXSTY
  7
Standard
  9
$DIMAUNIT
 70
     0
  9
$DIMADEC
 70
     3
  9
$DIMALTRND
 40
0.0
  9
$DIMAZIN
 70
     0
  9
$DIMDSEP
 70
    46
  9
$DIMATFIT
 70
     2
  9
$DIMFRAC
 70
     0
  9
$DIMLDRBLK
  1
Open30
  9
$DIMLUNIT
 70
     2
  9
$DIMLWD
 70
    15
  9
$DIMLWE
 70
    15
  9
$DIMTMOVE
 70
     0
  9
$LUNITS
 70
     2
  9
$LUPREC
 70
     4
  9
$SKETCHINC
 40
0.1
  9
$FILLETRAD
 40
3.0
  9
$AUNITS
 70
     0
  9
$AUPREC
 70
     0
  9
$MENU
  1
ACAD
  9
$ELEVATION
 40
0.0
  9
$PELEVATION
 40
0.0
  9
$THICKNESS
 40
0.0
  9
$LIMCHECK
 70
     0
  9
$CHAMFERA
 40
0.5
  9
$CHAMFERB
 40
0.5
  9
$CHAMFERC
 40
0.0
  9
$CHAMFERD
 40
0.0
  9
$SKPOLY
 70
     0
  9
$TDCREATE
 40
2453314.561093206
  9
$TDUCREATE
 40
2453314.186093206
  9
$TDUPDATE
 40
2453645.535901505
  9
$TDUUPDATE
 40
2453645.160901505
  9
$TDINDWG
 40
0.7677334259
  9
$TDUSRTIMER
 40
0.7677332523
  9
$USRTIMER
 70
     1
  9
$ANGBASE
 50
0.0
  9
$ANGDIR
 70
     0
  9
$PDMODE
 70
     0
  9
$PDSIZE
 40
0.0
  9
$PLINEWID
 40
0.0
  9
$SPLFRAME
 70
     0
  9
$SPLINETYPE
 70
     6
  9
$SPLINESEGS
 70
     8
  9
$HANDSEED
  5
65E
  9
$SURFTAB1
 70
     6
  9
$SURFTAB2
 70
     6
  9
$SURFTYPE
 70
     6
  9
$SURFU
 70
     6
  9
$SURFV
 70
     6
  9
$UCSBASE
  2

  9
$UCSNAME
  2

  9
$UCSORG
 10
0.0
 20
0.0
 30
0.0
  9
$UCSXDIR
 10
1.0
 20
0.0
 30
0.0
  9
$UCSYDIR
 10
0.0
 20
1.0
 30
0.0
  9
$UCSORTHOREF
  2

  9
$UCSORTHOVIEW
 70
     0
  9
$UCSORGTOP
 10
0.0
 20
0.0
 30
0.0
  9
$UCSORGBOTTOM
 10
0.0
 20
0.0
 30
0.0
  9
$UCSORGLEFT
 10
0.0
 20
0.0
 30
0.0
  9
$UCSORGRIGHT
 10
0.0
 20
0.0
 30
0.0
  9
$UCSORGFRONT
 10
0.0
 20
0.0
 30
0.0
  9
$UCSORGBACK
 10
0.0
 20
0.0
 30
0.0
  9
$PUCSBASE
  2

  9
$PUCSNAME
  2

  9
$PUCSORG
 10
0.0
 20
0.0
 30
0.0
  9
$PUCSXDIR
 10
1.0
 20
0.0
 30
0.0
  9
$PUCSYDIR
 10
0.0
 20
1.0
 30
0.0
  9
$PUCSORTHOREF
  2

  9
$PUCSORTHOVIEW
 70
     0
  9
$PUCSORGTOP
 10
0.0
 20
0.0
 30
0.0
  9
$PUCSORGBOTTOM
 10
0.0
 20
0.0
 30
0.0
  9
$PUCSORGLEFT
 10
0.0
 20
0.0
 30
0.0
  9
$PUCSORGRIGHT
 10
0.0
 20
0.0
 30
0.0
  9
$PUCSORGFRONT
 10
0.0
 20
0.0
 30
0.0
  9
$PUCSORGBACK
 10
0.0
 20
0.0
 30
0.0
  9
$USERI1
 70
     0
  9
$USERI2
 70
     0
  9
$USERI3
 70
     0
  9
$USERI4
 70
     0
  9
$USERI5
 70
     0
  9
$USERR1
 40
0.0
  9
$USERR2
 40
0.0
  9
$USERR3
 40
0.0
  9
$USERR4
 40
0.0
  9
$USERR5
 40
0.0
  9
$WORLDVIEW
 70
     1
  9
$SHADEDGE
 70
     3
  9
$SHADEDIF
 70
    70
  9
$TILEMODE
 70
     1
  9
$MAXACTVP
 70
    64
  9
$PINSBASE
 10
0.0
 20
0.0
 30
0.0
  9
$PLIMCHECK
 70
     0
  9
$PEXTMIN
 10
0.0
 20
0.0
 30
0.0
  9
$PEXTMAX
 10
0.0
 20
0.0
 30
0.0
  9
$PLIMMIN
 10
0.0
 20
0.0
  9
$PLIMMAX
 10
12.0
 20
9.0
  9
$UNITMODE
 70
     0
  9
$VISRETAIN
 70
     1
  9
$PLINEGEN
 70
     0
  9
$PSLTSCALE
 70
     1
  9
$TREEDEPTH
 70
  3020
  9
$CMLSTYLE
  2
Standard
  9
$CMLJUST
 70
     0
  9
$CMLSCALE
 40
1.0
  9
$PROXYGRAPHICS
 70
     1
  9
$MEASUREMENT
 70
     1
  9
$CELWEIGHT
370
    -1
  9
$ENDCAPS
280
     0
  9
$JOINSTYLE
280
     0
  9
$LWDISPLAY
290
     0
  9
$INSUNITS
 70
     0
  9
$HYPERLINKBASE
  1

  9
$STYLESHEET
  1

  9
$XEDIT
290
     1
  9
$CEPSNTYPE
380
     0
  9
$PSTYLEMODE
290
     1
  9
$FINGERPRINTGUID
  2
{76AE1ECD-C1F4-4F8C-ABF9-643675AF5B0F}
  9
$VERSIONGUID
  2
{96B15F84-BD8E-476E-87ED-854C422F3404}
  9
$EXTNAMES
290
     1
  9
$PSVPSCALE
 40
0.0
  9
$OLESTARTUP
290
     0
  0
ENDSEC
  0
SECTION
  2
CLASSES
  0
CLASS
  1
ACDBDICTIONARYWDFLT
  2
AcDbDictionaryWithDefault
  3
ObjectDBX Classes
 90
        0
280
     0
281
     0
  0
CLASS
  1
TABLESTYLE
  2
AcDbTableStyle
  3
ObjectDBX Classes
 90
     2047
280
     0
281
     0
  0
CLASS
  1
VAACXREFPANELOBJECT
  2
VaAcXREFPanelObject
  3
VAAC_ADDIN
 90
    32768
280
     1
281
     0
  0
CLASS
  1
VAACIMAGEINVENTORY
  2
VaAcImageInventory
  3
VAAC_ADDIN
 90
    32768
280
     1
281
     0
  0
CLASS
  1
DICTIONARYVAR
  2
AcDbDictionaryVar
  3
ObjectDBX Classes
 90
        0
280
     0
281
     0
  0
CLASS
  1
SORTENTSTABLE
  2
AcDbSortentsTable
  3
ObjectDBX Classes
 90
        0
280
     0
281
     0
  0
CLASS
  1
PLOTSETTINGS
  2
AcDbPlotSettings
  3
ObjectDBX Classes
 90
    32768
280
     0
281
     0
  0
CLASS
  1
ACDBPLACEHOLDER
  2
AcDbPlaceHolder
  3
ObjectDBX Classes
 90
        0
280
     0
281
     0
  0
CLASS
  1
LAYOUT
  2
AcDbLayout
  3
ObjectDBX Classes
 90
        0
280
     0
281
     0
  0
ENDSEC
  0
SECTION
  2
TABLES
  0
TABLE
  2
VPORT
  5
23
330
0
100
AcDbSymbolTable
 70
     2
  0
VPORT
  5
657
330
23
100
AcDbSymbolTableRecord
100
AcDbViewportTableRecord
  2
*Active
 70
     0
 10
0.0
 20
0.0
 11
1.0
 21
1.0
 12
190.2228071825362
 22
139.3832968333012
 13
0.0
 23
0.0
 14
1.0
 24
1.0
 15
0.0
 25
0.0
 16
0.0
 26
0.0
 36
1.0
 17
0.0
 27
0.0
 37
0.0
 40
359.0508039011674
 41
1.58893280632411
 42
50.0
 43
0.0
 44
0.0
 50
0.0
 51
0.0
 71
     0
 72
  2000
 73
     1
 74
     1
 75
     0
 76
     0
 77
     0
 78
     0
281
     0
 65
     1
110
0.0
120
0.0
130
0.0
111
1.0
121
0.0
131
0.0
112
0.0
122
1.0
132
0.0
 79
     0
146
0.0
  0
ENDTAB
  0
TABLE
  2
LTYPE
  5
1E
330
0
100
AcDbSymbolTable
 70
     2
  0
LTYPE
  5
1F
330
1E
100
AcDbSymbolTableRecord
100
AcDbLinetypeTableRecord
  2
ByBlock
 70
     0
  3

 72
    65
 73
     0
 40
0.0
  0
LTYPE
  5
20
330
1E
100
AcDbSymbolTableRecord
100
AcDbLinetypeTableRecord
  2
ByLayer
 70
     0
  3

 72
    65
 73
     0
 40
0.0
  0
LTYPE
  5
A
330
1E
100
AcDbSymbolTableRecord
100
AcDbLinetypeTableRecord
  2
CONTINUOUS
 70
     0
  3
Solid line
 72
    65
 73
     0
 40
0.0
  0
LTYPE
  5
84
330
1E
100
AcDbSymbolTableRecord
100
AcDbLinetypeTableRecord
  2
CENTER2
 70
     0
  3
Center (.5x) ___ _ ___ _ ___ _ ___ _ ___ _ ___
 72
    65
 73
     4
 40
1.125
 49
0.75
 74
     0
 49
-0.125
 74
     0
 49
0.125
 74
     0
 49
-0.125
 74
     0
  0
ENDTAB
  0
TABLE
  2
LAYER
  5
15
102
{ACAD_XDICTIONARY
360
16
102
}
330
0
100
AcDbSymbolTable
 70
     6
  0
LAYER
  5
6
330
15
100
AcDbSymbolTableRecord
100
AcDbLayerTableRecord
  2
0
 70
     0
 62
     7
  6
CONTINUOUS
370
    -3
390
7
  0
LAYER
  5
B8
330
15
100
AcDbSymbolTableRecord
100
AcDbLayerTableRecord
  2
Defpoints
 70
     0
 62
     7
  6
CONTINUOUS
290
     0
370
    -3
390
7
  0
LAYER
  5
39
330
15
100
AcDbSymbolTableRecord
100
AcDbLayerTableRecord
  2
TITLE
 70
     0
 62
     7
  6
CONTINUOUS
370
    -3
390
7
  0
LAYER
  5
AE
330
15
100
AcDbSymbolTableRecord
100
AcDbLayerTableRecord
  2
03-DIMMENTION
 70
     0
 62
     3
  6
CONTINUOUS
370
    15
390
7
  0
LAYER
  5
83
330
15
100
AcDbSymbolTableRecord
100
AcDbLayerTableRecord
  2
02-CENTER
 70
     0
 62
     1
  6
CENTER2
370
    15
390
7
  0
LAYER
  5
35
330
15
100
AcDbSymbolTableRecord
100
AcDbLayerTableRecord
  2
01-MODEL
 70
     0
 62
     7
  6
CONTINUOUS
370
    35
390
7
  0
ENDTAB
  0
TABLE
  2
STYLE
  5
1B
330
0
100
AcDbSymbolTable
 70
     1
  0
STYLE
  5
1C
330
1B
100
AcDbSymbolTableRecord
100
AcDbTextStyleTableRecord
  2
Standard
 70
     0
 40
0.0
 41
1.0
 50
0.0
 71
     0
 42
1.0
  3
MS Gothic.ttf
  4

1001
ACAD
1000
MS Gothic
1071
    32817
  0
ENDTAB
  0
TABLE
  2
VIEW
  5
21
330
0
100
AcDbSymbolTable
 70
     0
  0
ENDTAB
  0
TABLE
  2
UCS
  5
22
330
0
100
AcDbSymbolTable
 70
     0
  0
ENDTAB
  0
TABLE
  2
APPID
  5
25
330
0
100
AcDbSymbolTable
 70
     2
  0
APPID
  5
1A
330
25
100
AcDbSymbolTableRecord
100
AcDbRegAppTableRecord
  2
ACAD
 70
     0
  0
APPID
  5
E
330
25
100
AcDbSymbolTableRecord
100
AcDbRegAppTableRecord
  2
ACAD_PSEXT
 70
     0
  0
ENDTAB
  0
TABLE
  2
DIMSTYLE
  5
26
330
0
100
AcDbSymbolTable
 70
     1
100
AcDbDimStyleTable
 71
     1
340
27
  0
DIMSTYLE
105
27
102
{ACAD_REACTORS
330
AD
330
BC
330
CB
330
D8
330
E7
330
105
330
112
330
11F
330
12C
330
139
330
146
330
153
330
160
330
16D
102
}
330
26
100
AcDbSymbolTableRecord
100
AcDbDimStyleTableRecord
  2
Standard
 70
     0
 40
0.0
 41
2.0
 42
0.3
 43
3.0
 44
0.5
 73
     0
 74
     0
 77
     1
140
2.5
141
0.2
147
0.5
172
     1
176
   256
177
   256
178
   256
179
     3
271
     3
272
     3
289
     2
340
1C
341
28
342
28
371
    15
372
    15
  0
ENDTAB
  0
TABLE
  2
BLOCK_RECORD
  5
1
330
0
100
AcDbSymbolTable
 70
    30
  0
BLOCK_RECORD
  5
2
102
{ACAD_XDICTIONARY
360
3
102
}
330
1
100
AcDbSymbolTableRecord
100
AcDbBlockTableRecord
  2
*Model_Space
340
C
  0
BLOCK_RECORD
  5
64F
330
1
100
AcDbSymbolTableRecord
100
AcDbBlockTableRecord
  2
*Paper_Space
340
650
  0
BLOCK_RECORD
  5
28
330
1
100
AcDbSymbolTableRecord
100
AcDbBlockTableRecord
  2
_Open30
340
0
102
{BLKREFS
331
B4
331
B5
331
C4
331
C5
331
D1
331
D2
331
E0
331
E1
331
EF
331
F0
331
10B
331
10C
331
118
331
119
331
125
331
126
331
132
331
133
331
13F
331
140
331
14C
331
14D
331
159
331
15A
331
166
331
167
331
172
331
173
331
5A7
331
5A8
331
5B5
331
5B6
331
5C1
331
5C2
331
5CF
331
5D0
331
5DD
331
5DE
331
5E9
331
5EA
331
5F5
331
5F6
331
601
331
602
331
60D
331
60E
331
619
331
61A
331
625
331
626
331
631
331
632
331
63D
331
63E
331
648
331
649
102
}
  0
BLOCK_RECORD
  5
5A3
330
1
100
AcDbSymbolTableRecord
100
AcDbBlockTableRecord
  2
*D15
340
0
  0
BLOCK_RECORD
  5
5AF
330
1
100
AcDbSymbolTableRecord
100
AcDbBlockTableRecord
  2
*D16
340
0
  0
BLOCK_RECORD
  5
5BD
330
1
100
AcDbSymbolTableRecord
100
AcDbBlockTableRecord
  2
*D17
340
0
  0
BLOCK_RECORD
  5
5C9
330
1
100
AcDbSymbolTableRecord
100
AcDbBlockTableRecord
  2
*D18
340
0
  0
BLOCK_RECORD
  5
5D7
330
1
100
AcDbSymbolTableRecord
100
AcDbBlockTableRecord
  2
*D19
340
0
  0
BLOCK_RECORD
  5
5E5
330
1
100
AcDbSymbolTableRecord
100
AcDbBlockTableRecord
  2
*D20
340
0
  0
BLOCK_RECORD
  5
5F1
330
1
100
AcDbSymbolTableRecord
100
AcDbBlockTableRecord
  2
*D21
340
0
  0
BLOCK_RECORD
  5
5FD
330
1
100
AcDbSymbolTableRecord
100
AcDbBlockTableRecord
  2
*D22
340
0
  0
BLOCK_RECORD
  5
609
330
1
100
AcDbSymbolTableRecord
100
AcDbBlockTableRecord
  2
*D23
340
0
  0
BLOCK_RECORD
  5
615
330
1
100
AcDbSymbolTableRecord
100
AcDbBlockTableRecord
  2
*D24
340
0
  0
BLOCK_RECORD
  5
621
330
1
100
AcDbSymbolTableRecord
100
AcDbBlockTableRecord
  2
*D25
340
0
  0
BLOCK_RECORD
  5
62D
330
1
100
AcDbSymbolTableRecord
100
AcDbBlockTableRecord
  2
*D26
340
0
  0
BLOCK_RECORD
  5
639
330
1
100
AcDbSymbolTableRecord
100
AcDbBlockTableRecord
  2
*D27
340
0
  0
BLOCK_RECORD
  5
645
330
1
100
AcDbSymbolTableRecord
100
AcDbBlockTableRecord
  2
*D28
340
0
  0
ENDTAB
  0
ENDSEC
  0
SECTION
  2
BLOCKS
  0
BLOCK
  5
5
330
2
100
AcDbEntity
  8
0
100
AcDbBlockBegin
  2
*Model_Space
 70
     0
 10
0.0
 20
0.0
 30
0.0
  3
*Model_Space
  1

  0
ENDBLK
  5
B
330
2
100
AcDbEntity
  8
0
100
AcDbBlockEnd
  0
BLOCK
  5
651
330
64F
100
AcDbEntity
 67
     1
  8
0
100
AcDbBlockBegin
  2
*Paper_Space
 70
     0
 10
0.0
 20
0.0
 30
0.0
  3
*Paper_Space
  1

  0
ENDBLK
  5
652
330
64F
100
AcDbEntity
 67
     1
  8
0
100
AcDbBlockEnd
  0
BLOCK
  5
29
330
28
100
AcDbEntity
  8
0
370
    15
100
AcDbBlockBegin
  2
_Open30
 70
     0
 10
0.0
 20
0.0
 30
0.0
  3
_Open30
  1

  0
LINE
  5
2A
330
28
100
AcDbEntity
  8
0
  6
ByBlock
 62
     0
370
    -2
100
AcDbLine
 10
-1.0
 20
0.26794919
 30
0.0
 11
0.0
 21
0.0
 31
0.0
  0
LINE
  5
2B
330
28
100
AcDbEntity
  8
0
  6
ByBlock
 62
     0
370
    -2
100
AcDbLine
 10
0.0
 20
0.0
 30
0.0
 11
-1.0
 21
-0.26794919
 31
0.0
  0
LINE
  5
2C
330
28
100
AcDbEntity
  8
0
  6
ByBlock
 62
     0
370
    -2
100
AcDbLine
 10
0.0
 20
0.0
 30
0.0
 11
-1.0
 21
0.0
 31
0.0
  0
ENDBLK
  5
2D
330
28
100
AcDbEntity
  8
0
370
    15
100
AcDbBlockEnd
  0
BLOCK
  5
5AD
330
5A3
100
AcDbEntity
  8
0
100
AcDbBlockBegin
  2
*D15
 70
     1
 10
0.0
 20
0.0
 30
0.0
  3
*D15
  1

  0
LINE
  5
5A4
330
5A3
100
AcDbEntity
  8
03-DIMMENTION
370
    15
100
AcDbLine
 10
188.600018
 20
100.0
 30
0.0
 11
172.2500179999999
 21
100.0
 31
0.0
  0
LINE
  5
5A5
330
5A3
100
AcDbEntity
  8
03-DIMMENTION
370
    15
100
AcDbLine
 10
188.600018
 20
109.9999999999999
 30
0.0
 11
172.2500179999999
 21
109.9999999999999
 31
0.0
  0
LINE
  5
5A6
330
5A3
100
AcDbEntity
  8
03-DIMMENTION
370
    15
100
AcDbLine
 10
172.7500179999999
 20
101.5
 30
0.0
 11
172.7500179999999
 21
108.4999999999999
 31
0.0
  0
INSERT
  5
5A7
330
5A3
100
AcDbEntity
  8
03-DIMMENTION
370
    15
100
AcDbBlockReference
  2
_Open30
 10
172.7500179999999
 20
100.0
 30
0.0
 41
1.5
 42
1.5
 43
1.5
 50
270.0
  0
INSERT
  5
5A8
330
5A3
100
AcDbEntity
  8
03-DIMMENTION
370
    15
100
AcDbBlockReference
  2
_Open30
 10
172.7500179999999
 20
109.9999999999999
 30
0.0
 41
1.5
 42
1.5
 43
1.5
 50
90.0
  0
MTEXT
  5
5A9
330
5A3
100
AcDbEntity
  8
03-DIMMENTION
100
AcDbMText
 10
170.7000179999998
 20
105.0
 30
0.0
 40
2.5
 41
0.0
 71
     5
 72
     1
  1
\A1;10.0
 11
0.0000000000000001
 21
1.0
 31
0.0
 73
     1
 44
1.0
1001
ACAD
1000
MTEXTBEGIN
1070
    73
1070
     1
1070
    44
1040
1.0
1070
    74
1070
     0
1000
MTEXTEND
  0
POINT
  5
5AA
330
5A3
100
AcDbEntity
  8
Defpoints
 62
     0
100
AcDbPoint
 10
188.750018
 20
100.0
 30
0.0
  0
POINT
  5
5AB
330
5A3
100
AcDbEntity
  8
Defpoints
 62
     0
100
AcDbPoint
 10
188.750018
 20
109.9999999999999
 30
0.0
  0
POINT
  5
5AC
330
5A3
100
AcDbEntity
  8
Defpoints
 62
     0
100
AcDbPoint
 10
172.7500179999999
 20
109.9999999999999
 30
0.0
  0
ENDBLK
  5
5AE
330
5A3
100
AcDbEntity
  8
0
100
AcDbBlockEnd
  0
BLOCK
  5
5BB
330
5AF
100
AcDbEntity
  8
0
100
AcDbBlockBegin
  2
*D16
 70
     1
 10
0.0
 20
0.0
 30
0.0
  3
*D16
  1

  0
LINE
  5
5B0
330
5AF
100
AcDbEntity
  8
03-DIMMENTION
370
    15
100
AcDbLine
 10
191.2500179999999
 20
101.8499999999961
 30
0.0
 11
191.2500179999999
 21
82.49999999999223
 31
0.0
  0
LINE
  5
5B1
330
5AF
100
AcDbEntity
  8
03-DIMMENTION
370
    15
100
AcDbLine
 10
193.2500179999999
 20
101.8499999999961
 30
0.0
 11
193.2500179999999
 21
82.49999999999223
 31
0.0
  0
LINE
  5
5B2
330
5AF
100
AcDbEntity
  8
03-DIMMENTION
370
    15
100
AcDbLine
 10
194.7500179999999
 20
82.99999999999224
 30
0.0
 11
196.2500179999999
 21
82.99999999999224
 31
0.0
  0
LINE
  5
5B3
330
5AF
100
AcDbEntity
  8
03-DIMMENTION
370
    15
100
AcDbLine
 10
189.7500179999999
 20
82.99999999999224
 30
0.0
 11
181.6744922567077
 21
82.99999999999224
 31
0.0
  0
LINE
  5
5B4
330
5AF
100
AcDbEntity
  8
03-DIMMENTION
370
    15
100
AcDbLine
 10
193.2500179999999
 20
82.99999999999224
 30
0.0
 11
191.2500179999999
 21
82.99999999999224
 31
0.0
  0
INSERT
  5
5B5
330
5AF
100
AcDbEntity
  8
03-DIMMENTION
370
    15
100
AcDbBlockReference
  2
_Open30
 10
193.2500179999999
 20
82.99999999999224
 30
0.0
 41
1.5
 42
1.5
 43
1.5
 50
180.0
  0
INSERT
  5
5B6
330
5AF
100
AcDbEntity
  8
03-DIMMENTION
370
    15
100
AcDbBlockReference
  2
_Open30
 10
191.2500179999999
 20
82.99999999999224
 30
0.0
 41
1.5
 42
1.5
 43
1.5
  0
MTEXT
  5
5B7
330
5AF
100
AcDbEntity
  8
03-DIMMENTION
100
AcDbMText
 10
184.7714465714285
 20
85.04999999999224
 30
0.0
 40
2.5
 41
0.0
 71
     5
 72
     1
  1
\A1;2.0
 73
     1
 44
1.0
1001
ACAD
1000
MTEXTBEGIN
1070
    73
1070
     1
1070
    44
1040
1.0
1070
    74
1070
     0
1000
MTEXTEND
  0
POINT
  5
5B8
330
5AF
100
AcDbEntity
  8
Defpoints
 62
     0
100
AcDbPoint
 10
191.2500179999999
 20
101.9999999999961
 30
0.0
  0
POINT
  5
5B9
330
5AF
100
AcDbEntity
  8
Defpoints
 62
     0
100
AcDbPoint
 10
193.2500179999999
 20
101.9999999999961
 30
0.0
  0
POINT
  5
5BA
330
5AF
100
AcDbEntity
  8
Defpoints
 62
     0
100
AcDbPoint
 10
193.2500179999999
 20
82.99999999999224
 30
0.0
  0
ENDBLK
  5
5BC
330
5AF
100
AcDbEntity
  8
0
100
AcDbBlockEnd
  0
BLOCK
  5
5C7
330
5BD
100
AcDbEntity
  8
0
100
AcDbBlockBegin
  2
*D17
 70
     1
 10
0.0
 20
0.0
 30
0.0
  3
*D17
  1

  0
LINE
  5
5BE
330
5BD
100
AcDbEntity
  8
03-DIMMENTION
370
    15
100
AcDbLine
 10
184.7500180000002
 20
115.1499999999999
 30
0.0
 11
184.7500180000002
 21
133.4999999999922
 31
0.0
  0
LINE
  5
5BF
330
5BD
100
AcDbEntity
  8
03-DIMMENTION
370
    15
100
AcDbLine
 10
193.2500179999999
 20
119.149999999996
 30
0.0
 11
193.2500179999999
 21
133.4999999999922
 31
0.0
  0
LINE
  5
5C0
330
5BD
100
AcDbEntity
  8
03-DIMMENTION
370
    15
100
AcDbLine
 10
186.2500180000002
 20
132.9999999999922
 30
0.0
 11
191.7500179999999
 21
132.9999999999922
 31
0.0
  0
INSERT
  5
5C1
330
5BD
100
AcDbEntity
  8
03-DIMMENTION
370
    15
100
AcDbBlockReference
  2
_Open30
 10
184.7500180000002
 20
132.9999999999922
 30
0.0
 41
1.5
 42
1.5
 43
1.5
 50
180.0
  0
INSERT
  5
5C2
330
5BD
100
AcDbEntity
  8
03-DIMMENTION
370
    15
100
AcDbBlockReference
  2
_Open30
 10
193.2500179999999
 20
132.9999999999922
 30
0.0
 41
1.5
 42
1.5
 43
1.5
  0
MTEXT
  5
5C3
330
5BD
100
AcDbEntity
  8
03-DIMMENTION
100
AcDbMText
 10
189.0000180000001
 20
135.0499999999922
 30
0.0
 40
2.5
 41
0.0
 71
     5
 72
     1
  1
\A1;8.5
 73
     1
 44
1.0
1001
ACAD
1000
MTEXTBEGIN
1070
    73
1070
     1
1070
    44
1040
1.0
1070
    74
1070
     0
1000
MTEXTEND
  0
POINT
  5
5C4
330
5BD
100
AcDbEntity
  8
Defpoints
 62
     0
100
AcDbPoint
 10
184.7500180000002
 20
114.9999999999999
 30
0.0
  0
POINT
  5
5C5
330
5BD
100
AcDbEntity
  8
Defpoints
 62
     0
100
AcDbPoint
 10
193.2500179999999
 20
118.999999999996
 30
0.0
  0
POINT
  5
5C6
330
5BD
100
AcDbEntity
  8
Defpoints
 62
     0
100
AcDbPoint
 10
193.2500179999999
 20
132.9999999999922
 30
0.0
  0
ENDBLK
  5
5C8
330
5BD
100
AcDbEntity
  8
0
100
AcDbBlockEnd
  0
BLOCK
  5
5D5
330
5C9
100
AcDbEntity
  8
0
100
AcDbBlockBegin
  2
*D18
 70
     1
 10
0.0
 20
0.0
 30
0.0
  3
*D18
  1

  0
LINE
  5
5CA
330
5C9
100
AcDbEntity
  8
03-DIMMENTION
370
    15
100
AcDbLine
 10
193.2500179999999
 20
119.149999999996
 30
0.0
 11
193.2500179999999
 21
127.4999999999922
 31
0.0
  0
LINE
  5
5CB
330
5C9
100
AcDbEntity
  8
03-DIMMENTION
370
    15
100
AcDbLine
 10
188.750018
 20
110.1499999999999
 30
0.0
 11
188.750018
 21
127.4999999999922
 31
0.0
  0
LINE
  5
5CC
330
5C9
100
AcDbEntity
  8
03-DIMMENTION
370
    15
100
AcDbLine
 10
187.2500180000001
 20
126.9999999999922
 30
0.0
 11
185.750018
 21
126.9999999999922
 31
0.0
  0
LINE
  5
5CD
330
5C9
100
AcDbEntity
  8
03-DIMMENTION
370
    15
100
AcDbLine
 10
194.7500179999999
 20
126.9999999999922
 30
0.0
 11
202.8787223751509
 21
126.9999999999922
 31
0.0
  0
LINE
  5
5CE
330
5C9
100
AcDbEntity
  8
03-DIMMENTION
370
    15
100
AcDbLine
 10
188.750018
 20
126.9999999999922
 30
0.0
 11
193.2500179999999
 21
126.9999999999922
 31
0.0
  0
INSERT
  5
5CF
330
5C9
100
AcDbEntity
  8
03-DIMMENTION
370
    15
100
AcDbBlockReference
  2
_Open30
 10
188.750018
 20
126.9999999999922
 30
0.0
 41
1.5
 42
1.5
 43
1.5
  0
INSERT
  5
5D0
330
5C9
100
AcDbEntity
  8
03-DIMMENTION
370
    15
100
AcDbBlockReference
  2
_Open30
 10
193.2500179999999
 20
126.9999999999922
 30
0.0
 41
1.5
 42
1.5
 43
1.5
 50
180.0
  0
MTEXT
  5
5D1
330
5C9
100
AcDbEntity
  8
03-DIMMENTION
100
AcDbMText
 10
199.7881132380951
 20
129.0499999999922
 30
0.0
 40
2.5
 41
0.0
 71
     5
 72
     1
  1
\A1;4.5
 73
     1
 44
1.0
1001
ACAD
1000
MTEXTBEGIN
1070
    73
1070
     1
1070
    44
1040
1.0
1070
    74
1070
     0
1000
MTEXTEND
  0
POINT
  5
5D2
330
5C9
100
AcDbEntity
  8
Defpoints
 62
     0
100
AcDbPoint
 10
193.2500179999999
 20
118.999999999996
 30
0.0
  0
POINT
  5
5D3
330
5C9
100
AcDbEntity
  8
Defpoints
 62
     0
100
AcDbPoint
 10
188.750018
 20
109.9999999999999
 30
0.0
  0
POINT
  5
5D4
330
5C9
100
AcDbEntity
  8
Defpoints
 62
     0
100
AcDbPoint
 10
188.750018
 20
126.9999999999922
 30
0.0
  0
ENDBLK
  5
5D6
330
5C9
100
AcDbEntity
  8
0
100
AcDbBlockEnd
  0
BLOCK
  5
5E3
330
5D7
100
AcDbEntity
  8
0
100
AcDbBlockBegin
  2
*D19
 70
     1
 10
0.0
 20
0.0
 30
0.0
  3
*D19
  1

  0
LINE
  5
5D8
330
5D7
100
AcDbEntity
  8
03-DIMMENTION
370
    15
100
AcDbLine
 10
251.400018
 20
161.9999999999999
 30
0.0
 11
270.7500180000161
 21
161.9999999999999
 31
0.0
  0
LINE
  5
5D9
330
5D7
100
AcDbEntity
  8
03-DIMMENTION
370
    15
100
AcDbLine
 10
252.6500180000064
 20
159.9999999999983
 30
0.0
 11
270.7500180000161
 21
159.9999999999983
 31
0.0
  0
LINE
  5
5DA
330
5D7
100
AcDbEntity
  8
03-DIMMENTION
370
    15
100
AcDbLine
 10
270.2500180000161
 20
163.4999999999999
 30
0.0
 11
270.2500180000161
 21
164.9999999999999
 31
0.0
  0
LINE
  5
5DB
330
5D7
100
AcDbEntity
  8
03-DIMMENTION
370
    15
100
AcDbLine
 10
270.2500180000161
 20
158.4999999999983
 30
0.0
 11
270.2500180000161
 21
150.8060913705567
 31
0.0
  0
LINE
  5
5DC
330
5D7
100
AcDbEntity
  8
03-DIMMENTION
370
    15
100
AcDbLine
 10
270.2500180000161
 20
161.9999999999999
 30
0.0
 11
270.2500180000161
 21
159.9999999999983
 31
0.0
  0
INSERT
  5
5DD
330
5D7
100
AcDbEntity
  8
03-DIMMENTION
370
    15
100
AcDbBlockReference
  2
_Open30
 10
270.2500180000161
 20
161.9999999999999
 30
0.0
 41
1.5
 42
1.5
 43
1.5
 50
270.0
  0
INSERT
  5
5DE
330
5D7
100
AcDbEntity
  8
03-DIMMENTION
370
    15
100
AcDbBlockReference
  2
_Open30
 10
270.2500180000161
 20
159.9999999999983
 30
0.0
 41
1.5
 42
1.5
 43
1.5
 50
90.0
  0
MTEXT
  5
5DF
330
5D7
100
AcDbEntity
  8
03-DIMMENTION
100
AcDbMText
 10
268.200018000016
 20
153.9030456852775
 30
0.0
 40
2.5
 41
0.0
 71
     5
 72
     1
  1
\A1;2.0
 11
0.0000000000000001
 21
1.0
 31
0.0
 73
     1
 44
1.0
1001
ACAD
1000
MTEXTBEGIN
1070
    73
1070
     1
1070
    44
1040
1.0
1070
    74
1070
     0
1000
MTEXTEND
  0
POINT
  5
5E0
330
5D7
100
AcDbEntity
  8
Defpoints
 62
     0
100
AcDbPoint
 10
251.2500179999999
 20
161.9999999999999
 30
0.0
  0
POINT
  5
5E1
330
5D7
100
AcDbEntity
  8
Defpoints
 62
     0
100
AcDbPoint
 10
252.5000180000064
 20
159.9999999999983
 30
0.0
  0
POINT
  5
5E2
330
5D7
100
AcDbEntity
  8
Defpoints
 62
     0
100
AcDbPoint
 10
270.2500180000161
 20
159.9999999999983
 30
0.0
  0
ENDBLK
  5
5E4
330
5D7
100
AcDbEntity
  8
0
100
AcDbBlockEnd
  0
BLOCK
  5
5EF
330
5E5
100
AcDbEntity
  8
0
100
AcDbBlockBegin
  2
*D20
 70
     1
 10
0.0
 20
0.0
 30
0.0
  3
*D20
  1

  0
LINE
  5
5E6
330
5E5
100
AcDbEntity
  8
03-DIMMENTION
370
    15
100
AcDbLine
 10
251.2500179999999
 20
115.1499999999922
 30
0.0
 11
251.2500179999999
 21
127.4999999999922
 31
0.0
  0
LINE
  5
5E7
330
5E5
100
AcDbEntity
  8
03-DIMMENTION
370
    15
100
AcDbLine
 10
245.2500179999999
 20
115.1499999999922
 30
0.0
 11
245.2500179999999
 21
127.4999999999922
 31
0.0
  0
LINE
  5
5E8
330
5E5
100
AcDbEntity
  8
03-DIMMENTION
370
    15
100
AcDbLine
 10
249.7500179999999
 20
126.9999999999922
 30
0.0
 11
246.7500179999999
 21
126.9999999999922
 31
0.0
  0
INSERT
  5
5E9
330
5E5
100
AcDbEntity
  8
03-DIMMENTION
370
    15
100
AcDbBlockReference
  2
_Open30
 10
251.2500179999999
 20
126.9999999999922
 30
0.0
 41
1.5
 42
1.5
 43
1.5
  0
INSERT
  5
5EA
330
5E5
100
AcDbEntity
  8
03-DIMMENTION
370
    15
100
AcDbBlockReference
  2
_Open30
 10
245.2500179999999
 20
126.9999999999922
 30
0.0
 41
1.5
 42
1.5
 43
1.5
 50
180.0
  0
MTEXT
  5
5EB
330
5E5
100
AcDbEntity
  8
03-DIMMENTION
100
AcDbMText
 10
248.2500179999999
 20
129.0499999999922
 30
0.0
 40
2.5
 41
0.0
 71
     5
 72
     1
  1
\A1;6.0
 73
     1
 44
1.0
1001
ACAD
1000
MTEXTBEGIN
1070
    73
1070
     1
1070
    44
1040
1.0
1070
    74
1070
     0
1000
MTEXTEND
  0
POINT
  5
5EC
330
5E5
100
AcDbEntity
  8
Defpoints
 62
     0
100
AcDbPoint
 10
251.2500179999999
 20
114.9999999999922
 30
0.0
  0
POINT
  5
5ED
330
5E5
100
AcDbEntity
  8
Defpoints
 62
     0
100
AcDbPoint
 10
245.2500179999999
 20
114.9999999999922
 30
0.0
  0
POINT
  5
5EE
330
5E5
100
AcDbEntity
  8
Defpoints
 62
     0
100
AcDbPoint
 10
245.2500179999999
 20
126.9999999999922
 30
0.0
  0
ENDBLK
  5
5F0
330
5E5
100
AcDbEntity
  8
0
100
AcDbBlockEnd
  0
BLOCK
  5
5FB
330
5F1
100
AcDbEntity
  8
0
100
AcDbBlockBegin
  2
*D21
 70
     1
 10
0.0
 20
0.0
 30
0.0
  3
*D21
  1

  0
LINE
  5
5F2
330
5F1
100
AcDbEntity
  8
03-DIMMENTION
370
    15
100
AcDbLine
 10
238.1000179999999
 20
107.9999999999961
 30
0.0
 11
225.750018
 21
107.9999999999961
 31
0.0
  0
LINE
  5
5F3
330
5F1
100
AcDbEntity
  8
03-DIMMENTION
370
    15
100
AcDbLine
 10
238.1000179999999
 20
101.9999999999961
 30
0.0
 11
225.750018
 21
101.9999999999961
 31
0.0
  0
LINE
  5
5F4
330
5F1
100
AcDbEntity
  8
03-DIMMENTION
370
    15
100
AcDbLine
 10
226.2500179999999
 20
106.4999999999961
 30
0.0
 11
226.2500179999999
 21
103.4999999999961
 31
0.0
  0
INSERT
  5
5F5
330
5F1
100
AcDbEntity
  8
03-DIMMENTION
370
    15
100
AcDbBlockReference
  2
_Open30
 10
226.2500179999999
 20
107.9999999999961
 30
0.0
 41
1.5
 42
1.5
 43
1.5
 50
90.0
  0
INSERT
  5
5F6
330
5F1
100
AcDbEntity
  8
03-DIMMENTION
370
    15
100
AcDbBlockReference
  2
_Open30
 10
226.2500179999999
 20
101.9999999999961
 30
0.0
 41
1.5
 42
1.5
 43
1.5
 50
270.0
  0
MTEXT
  5
5F7
330
5F1
100
AcDbEntity
  8
03-DIMMENTION
100
AcDbMText
 10
224.2000179999999
 20
104.9999999999961
 30
0.0
 40
2.5
 41
0.0
 71
     5
 72
     1
  1
\A1;6.0
 11
0.0000000000000001
 21
1.0
 31
0.0
 73
     1
 44
1.0
1001
ACAD
1000
MTEXTBEGIN
1070
    73
1070
     1
1070
    44
1040
1.0
1070
    74
1070
     0
1000
MTEXTEND
  0
POINT
  5
5F8
330
5F1
100
AcDbEntity
  8
Defpoints
 62
     0
100
AcDbPoint
 10
238.2500179999999
 20
107.9999999999961
 30
0.0
  0
POINT
  5
5F9
330
5F1
100
AcDbEntity
  8
Defpoints
 62
     0
100
AcDbPoint
 10
238.2500179999999
 20
101.9999999999961
 30
0.0
  0
POINT
  5
5FA
330
5F1
100
AcDbEntity
  8
Defpoints
 62
     0
100
AcDbPoint
 10
226.2500179999999
 20
101.9999999999961
 30
0.0
  0
ENDBLK
  5
5FC
330
5F1
100
AcDbEntity
  8
0
100
AcDbBlockEnd
  0
BLOCK
  5
607
330
5FD
100
AcDbEntity
  8
0
100
AcDbBlockBegin
  2
*D22
 70
     1
 10
0.0
 20
0.0
 30
0.0
  3
*D22
  1

  0
LINE
  5
5FE
330
5FD
100
AcDbEntity
  8
03-DIMMENTION
370
    15
100
AcDbLine
 10
119.2500180000002
 20
114.1499999999922
 30
0.0
 11
119.2500180000002
 21
133.4999999999922
 31
0.0
  0
LINE
  5
5FF
330
5FD
100
AcDbEntity
  8
03-DIMMENTION
370
    15
100
AcDbLine
 10
139.2500180000003
 20
114.1499999999922
 30
0.0
 11
139.2500180000003
 21
133.4999999999922
 31
0.0
  0
LINE
  5
600
330
5FD
100
AcDbEntity
  8
03-DIMMENTION
370
    15
100
AcDbLine
 10
120.7500180000002
 20
132.9999999999922
 30
0.0
 11
137.7500180000003
 21
132.9999999999922
 31
0.0
  0
INSERT
  5
601
330
5FD
100
AcDbEntity
  8
03-DIMMENTION
370
    15
100
AcDbBlockReference
  2
_Open30
 10
119.2500180000002
 20
132.9999999999922
 30
0.0
 41
1.5
 42
1.5
 43
1.5
 50
180.0
  0
INSERT
  5
602
330
5FD
100
AcDbEntity
  8
03-DIMMENTION
370
    15
100
AcDbBlockReference
  2
_Open30
 10
139.2500180000003
 20
132.9999999999922
 30
0.0
 41
1.5
 42
1.5
 43
1.5
  0
MTEXT
  5
603
330
5FD
100
AcDbEntity
  8
03-DIMMENTION
100
AcDbMText
 10
129.2500180000002
 20
135.0499999999922
 30
0.0
 40
2.5
 41
0.0
 71
     5
 72
     1
  1
\A1;20.0
 73
     1
 44
1.0
1001
ACAD
1000
MTEXTBEGIN
1070
    73
1070
     1
1070
    44
1040
1.0
1070
    74
1070
     0
1000
MTEXTEND
  0
POINT
  5
604
330
5FD
100
AcDbEntity
  8
Defpoints
 62
     0
100
AcDbPoint
 10
119.2500180000002
 20
113.9999999999922
 30
0.0
  0
POINT
  5
605
330
5FD
100
AcDbEntity
  8
Defpoints
 62
     0
100
AcDbPoint
 10
139.2500180000003
 20
113.9999999999922
 30
0.0
  0
POINT
  5
606
330
5FD
100
AcDbEntity
  8
Defpoints
 62
     0
100
AcDbPoint
 10
139.2500180000003
 20
132.9999999999922
 30
0.0
  0
ENDBLK
  5
608
330
5FD
100
AcDbEntity
  8
0
100
AcDbBlockEnd
  0
BLOCK
  5
613
330
609
100
AcDbEntity
  8
0
100
AcDbBlockBegin
  2
*D23
 70
     1
 10
0.0
 20
0.0
 30
0.0
  3
*D23
  1

  0
LINE
  5
60A
330
609
100
AcDbEntity
  8
03-DIMMENTION
370
    15
100
AcDbLine
 10
120.1000180000003
 20
114.9999999999922
 30
0.0
 11
100.7500180000003
 21
114.9999999999922
 31
0.0
  0
LINE
  5
60B
330
609
100
AcDbEntity
  8
03-DIMMENTION
370
    15
100
AcDbLine
 10
120.1000180000003
 20
94.99999999999223
 30
0.0
 11
100.7500180000002
 21
94.99999999999223
 31
0.0
  0
LINE
  5
60C
330
609
100
AcDbEntity
  8
03-DIMMENTION
370
    15
100
AcDbLine
 10
101.2500180000003
 20
113.4999999999922
 30
0.0
 11
101.2500180000003
 21
96.49999999999224
 31
0.0
  0
INSERT
  5
60D
330
609
100
AcDbEntity
  8
03-DIMMENTION
370
    15
100
AcDbBlockReference
  2
_Open30
 10
101.2500180000003
 20
114.9999999999922
 30
0.0
 41
1.5
 42
1.5
 43
1.5
 50
90.0
  0
INSERT
  5
60E
330
609
100
AcDbEntity
  8
03-DIMMENTION
370
    15
100
AcDbBlockReference
  2
_Open30
 10
101.2500180000003
 20
94.99999999999223
 30
0.0
 41
1.5
 42
1.5
 43
1.5
 50
270.0
  0
MTEXT
  5
60F
330
609
100
AcDbEntity
  8
03-DIMMENTION
100
AcDbMText
 10
99.20001800000028
 20
104.9999999999922
 30
0.0
 40
2.5
 41
0.0
 71
     5
 72
     1
  1
\A1;20.0
 11
0.0000000000000001
 21
1.0
 31
0.0
 73
     1
 44
1.0
1001
ACAD
1000
MTEXTBEGIN
1070
    73
1070
     1
1070
    44
1040
1.0
1070
    74
1070
     0
1000
MTEXTEND
  0
POINT
  5
610
330
609
100
AcDbEntity
  8
Defpoints
 62
     0
100
AcDbPoint
 10
120.2500180000003
 20
114.9999999999922
 30
0.0
  0
POINT
  5
611
330
609
100
AcDbEntity
  8
Defpoints
 62
     0
100
AcDbPoint
 10
120.2500180000003
 20
94.99999999999223
 30
0.0
  0
POINT
  5
612
330
609
100
AcDbEntity
  8
Defpoints
 62
     0
100
AcDbPoint
 10
101.2500180000003
 20
94.99999999999223
 30
0.0
  0
ENDBLK
  5
614
330
609
100
AcDbEntity
  8
0
100
AcDbBlockEnd
  0
BLOCK
  5
61F
330
615
100
AcDbEntity
  8
0
100
AcDbBlockBegin
  2
*D24
 70
     1
 10
0.0
 20
0.0
 30
0.0
  3
*D24
  1

  0
LINE
  5
616
330
615
100
AcDbEntity
  8
03-DIMMENTION
370
    15
100
AcDbLine
 10
129.1000180000002
 20
111.999999999996
 30
0.0
 11
106.7500180000002
 21
111.999999999996
 31
0.0
  0
LINE
  5
617
330
615
100
AcDbEntity
  8
03-DIMMENTION
370
    15
100
AcDbLine
 10
129.1000180000002
 20
97.99999999999613
 30
0.0
 11
106.7500180000002
 21
97.99999999999613
 31
0.0
  0
LINE
  5
618
330
615
100
AcDbEntity
  8
03-DIMMENTION
370
    15
100
AcDbLine
 10
107.2500180000002
 20
110.499999999996
 30
0.0
 11
107.2500180000002
 21
99.49999999999613
 31
0.0
  0
INSERT
  5
619
330
615
100
AcDbEntity
  8
03-DIMMENTION
370
    15
100
AcDbBlockReference
  2
_Open30
 10
107.2500180000002
 20
111.999999999996
 30
0.0
 41
1.5
 42
1.5
 43
1.5
 50
90.0
  0
INSERT
  5
61A
330
615
100
AcDbEntity
  8
03-DIMMENTION
370
    15
100
AcDbBlockReference
  2
_Open30
 10
107.2500180000002
 20
97.99999999999613
 30
0.0
 41
1.5
 42
1.5
 43
1.5
 50
270.0
  0
MTEXT
  5
61B
330
615
100
AcDbEntity
  8
03-DIMMENTION
100
AcDbMText
 10
105.2000180000002
 20
104.9999999999961
 30
0.0
 40
2.5
 41
0.0
 71
     5
 72
     1
  1
\A1;14.0
 11
0.0000000000000001
 21
1.0
 31
0.0
 73
     1
 44
1.0
1001
ACAD
1000
MTEXTBEGIN
1070
    73
1070
     1
1070
    44
1040
1.0
1070
    74
1070
     0
1000
MTEXTEND
  0
POINT
  5
61C
330
615
100
AcDbEntity
  8
Defpoints
 62
     0
100
AcDbPoint
 10
129.2500180000002
 20
111.999999999996
 30
0.0
  0
POINT
  5
61D
330
615
100
AcDbEntity
  8
Defpoints
 62
     0
100
AcDbPoint
 10
129.2500180000002
 20
97.99999999999613
 30
0.0
  0
POINT
  5
61E
330
615
100
AcDbEntity
  8
Defpoints
 62
     0
100
AcDbPoint
 10
107.2500180000002
 20
97.99999999999613
 30
0.0
  0
ENDBLK
  5
620
330
615
100
AcDbEntity
  8
0
100
AcDbBlockEnd
  0
BLOCK
  5
62B
330
621
100
AcDbEntity
  8
0
100
AcDbBlockBegin
  2
*D25
 70
     1
 10
0.0
 20
0.0
 30
0.0
  3
*D25
  1

  0
LINE
  5
622
330
621
100
AcDbEntity
  8
03-DIMMENTION
370
    15
100
AcDbLine
 10
122.2500180000003
 20
105.1499999999961
 30
0.0
 11
122.2500180000003
 21
127.4999999999922
 31
0.0
  0
LINE
  5
623
330
621
100
AcDbEntity
  8
03-DIMMENTION
370
    15
100
AcDbLine
 10
136.2500180000003
 20
105.1499999999961
 30
0.0
 11
136.2500180000003
 21
127.4999999999922
 31
0.0
  0
LINE
  5
624
330
621
100
AcDbEntity
  8
03-DIMMENTION
370
    15
100
AcDbLine
 10
123.7500180000003
 20
126.9999999999922
 30
0.0
 11
134.7500180000003
 21
126.9999999999922
 31
0.0
  0
INSERT
  5
625
330
621
100
AcDbEntity
  8
03-DIMMENTION
370
    15
100
AcDbBlockReference
  2
_Open30
 10
122.2500180000003
 20
126.9999999999922
 30
0.0
 41
1.5
 42
1.5
 43
1.5
 50
180.0
  0
INSERT
  5
626
330
621
100
AcDbEntity
  8
03-DIMMENTION
370
    15
100
AcDbBlockReference
  2
_Open30
 10
136.2500180000003
 20
126.9999999999922
 30
0.0
 41
1.5
 42
1.5
 43
1.5
  0
MTEXT
  5
627
330
621
100
AcDbEntity
  8
03-DIMMENTION
100
AcDbMText
 10
129.2500180000003
 20
129.0499999999922
 30
0.0
 40
2.5
 41
0.0
 71
     5
 72
     1
  1
\A1;14.0
 73
     1
 44
1.0
1001
ACAD
1000
MTEXTBEGIN
1070
    73
1070
     1
1070
    44
1040
1.0
1070
    74
1070
     0
1000
MTEXTEND
  0
POINT
  5
628
330
621
100
AcDbEntity
  8
Defpoints
 62
     0
100
AcDbPoint
 10
122.2500180000003
 20
104.9999999999961
 30
0.0
  0
POINT
  5
629
330
621
100
AcDbEntity
  8
Defpoints
 62
     0
100
AcDbPoint
 10
136.2500180000003
 20
104.9999999999961
 30
0.0
  0
POINT
  5
62A
330
621
100
AcDbEntity
  8
Defpoints
 62
     0
100
AcDbPoint
 10
136.2500180000003
 20
126.9999999999922
 30
0.0
  0
ENDBLK
  5
62C
330
621
100
AcDbEntity
  8
0
100
AcDbBlockEnd
  0
BLOCK
  5
637
330
62D
100
AcDbEntity
  8
0
100
AcDbBlockBegin
  2
*D26
 70
     1
 10
0.0
 20
0.0
 30
0.0
  3
*D26
  1

  0
LINE
  5
62E
330
62D
100
AcDbEntity
  8
03-DIMMENTION
370
    15
100
AcDbLine
 10
241.250018
 20
96.84999999999234
 30
0.0
 11
241.250018
 21
82.49999999999223
 31
0.0
  0
LINE
  5
62F
330
62D
100
AcDbEntity
  8
03-DIMMENTION
370
    15
100
AcDbLine
 10
255.2500179999999
 20
96.84999999999234
 30
0.0
 11
255.2500179999999
 21
82.49999999999223
 31
0.0
  0
LINE
  5
630
330
62D
100
AcDbEntity
  8
03-DIMMENTION
370
    15
100
AcDbLine
 10
242.750018
 20
82.99999999999224
 30
0.0
 11
253.7500179999999
 21
82.99999999999224
 31
0.0
  0
INSERT
  5
631
330
62D
100
AcDbEntity
  8
03-DIMMENTION
370
    15
100
AcDbBlockReference
  2
_Open30
 10
241.250018
 20
82.99999999999224
 30
0.0
 41
1.5
 42
1.5
 43
1.5
 50
180.0
  0
INSERT
  5
632
330
62D
100
AcDbEntity
  8
03-DIMMENTION
370
    15
100
AcDbBlockReference
  2
_Open30
 10
255.2500179999999
 20
82.99999999999224
 30
0.0
 41
1.5
 42
1.5
 43
1.5
  0
MTEXT
  5
633
330
62D
100
AcDbEntity
  8
03-DIMMENTION
100
AcDbMText
 10
248.250018
 20
85.04999999999224
 30
0.0
 40
2.5
 41
0.0
 71
     5
 72
     1
  1
\A1;14.0
 73
     1
 44
1.0
1001
ACAD
1000
MTEXTBEGIN
1070
    73
1070
     1
1070
    44
1040
1.0
1070
    74
1070
     0
1000
MTEXTEND
  0
POINT
  5
634
330
62D
100
AcDbEntity
  8
Defpoints
 62
     0
100
AcDbPoint
 10
241.250018
 20
96.99999999999235
 30
0.0
  0
POINT
  5
635
330
62D
100
AcDbEntity
  8
Defpoints
 62
     0
100
AcDbPoint
 10
255.2500179999999
 20
96.99999999999235
 30
0.0
  0
POINT
  5
636
330
62D
100
AcDbEntity
  8
Defpoints
 62
     0
100
AcDbPoint
 10
255.2500179999999
 20
82.99999999999224
 30
0.0
  0
ENDBLK
  5
638
330
62D
100
AcDbEntity
  8
0
100
AcDbBlockEnd
  0
BLOCK
  5
643
330
639
100
AcDbEntity
  8
0
100
AcDbBlockBegin
  2
*D27
 70
     1
 10
0.0
 20
0.0
 30
0.0
  3
*D27
  1

  0
LINE
  5
63A
330
639
100
AcDbEntity
  8
03-DIMMENTION
370
    15
100
AcDbLine
 10
254.4000179999999
 20
95.99999999999232
 30
0.0
 11
270.7500180000161
 21
95.99999999999232
 31
0.0
  0
LINE
  5
63B
330
639
100
AcDbEntity
  8
03-DIMMENTION
370
    15
100
AcDbLine
 10
254.4000179999999
 20
113.9999999999922
 30
0.0
 11
270.7500180000161
 21
113.9999999999922
 31
0.0
  0
LINE
  5
63C
330
639
100
AcDbEntity
  8
03-DIMMENTION
370
    15
100
AcDbLine
 10
270.2500180000161
 20
97.49999999999232
 30
0.0
 11
270.2500180000161
 21
112.4999999999922
 31
0.0
  0
INSERT
  5
63D
330
639
100
AcDbEntity
  8
03-DIMMENTION
370
    15
100
AcDbBlockReference
  2
_Open30
 10
270.2500180000161
 20
95.99999999999232
 30
0.0
 41
1.5
 42
1.5
 43
1.5
 50
270.0
  0
INSERT
  5
63E
330
639
100
AcDbEntity
  8
03-DIMMENTION
370
    15
100
AcDbBlockReference
  2
_Open30
 10
270.2500180000161
 20
113.9999999999922
 30
0.0
 41
1.5
 42
1.5
 43
1.5
 50
90.0
  0
MTEXT
  5
63F
330
639
100
AcDbEntity
  8
03-DIMMENTION
100
AcDbMText
 10
268.2000180000161
 20
104.9999999999923
 30
0.0
 40
2.5
 41
0.0
 71
     5
 72
     1
  1
\A1;18.0
 11
0.0000000000000001
 21
1.0
 31
0.0
 73
     1
 44
1.0
1001
ACAD
1000
MTEXTBEGIN
1070
    73
1070
     1
1070
    44
1040
1.0
1070
    74
1070
     0
1000
MTEXTEND
  0
POINT
  5
640
330
639
100
AcDbEntity
  8
Defpoints
 62
     0
100
AcDbPoint
 10
254.2500179999999
 20
95.99999999999232
 30
0.0
  0
POINT
  5
641
330
639
100
AcDbEntity
  8
Defpoints
 62
     0
100
AcDbPoint
 10
254.2500179999999
 20
113.9999999999922
 30
0.0
  0
POINT
  5
642
330
639
100
AcDbEntity
  8
Defpoints
 62
     0
100
AcDbPoint
 10
270.2500180000161
 20
113.9999999999922
 30
0.0
  0
ENDBLK
  5
644
330
639
100
AcDbEntity
  8
0
100
AcDbBlockEnd
  0
BLOCK
  5
64D
330
645
100
AcDbEntity
  8
0
100
AcDbBlockBegin
  2
*D28
 70
     1
 10
0.0
 20
0.0
 30
0.0
  3
*D28
  1

  0
LINE
  5
646
330
645
100
AcDbEntity
  8
03-DIMMENTION
370
    15
100
AcDbLine
 10
126.3839555066033
 20
106.0431614371394
 30
0.0
 11
132.1160804933972
 21
103.9568385628527
 31
0.0
  0
LINE
  5
647
330
645
100
AcDbEntity
  8
03-DIMMENTION
370
    15
100
AcDbLine
 10
133.995465734969
 20
103.2727982762013
 30
0.0
 11
157.3842750477793
 21
94.759967871409
 31
0.0
  0
INSERT
  5
648
330
645
100
AcDbEntity
  8
03-DIMMENTION
370
    15
100
AcDbBlockReference
  2
_Open30
 10
124.5045702650316
 20
106.7272017237909
 30
0.0
 41
2.0
 42
2.0
 43
2.0
 50
159.9999999999975
  0
INSERT
  5
649
330
645
100
AcDbEntity
  8
03-DIMMENTION
370
    15
100
AcDbBlockReference
  2
_Open30
 10
133.995465734969
 20
103.2727982762013
 30
0.0
 41
2.0
 42
2.0
 43
2.0
 50
339.9999999999975
  0
MTEXT
  5
64A
330
645
100
AcDbEntity
  8
03-DIMMENTION
100
AcDbMText
 10
154.0248917600354
 20
97.84499449547221
 30
0.0
 40
2.5
 41
0.0
 71
     5
 72
     1
  1
\A1;%%C10.1
 11
0.9396926207858935
 21
-0.3420201433257092
 31
0.0
 73
     1
 44
1.0
1001
ACAD
1000
MTEXTBEGIN
1070
    73
1070
     1
1070
    44
1040
1.0
1070
    74
1070
     0
1000
MTEXTEND
  0
POINT
  5
64B
330
645
100
AcDbEntity
  8
Defpoints
 62
     0
100
AcDbPoint
 10
133.995465734969
 20
103.2727982762013
 30
0.0
  0
POINT
  5
64C
330
645
100
AcDbEntity
  8
Defpoints
 62
     0
100
AcDbPoint
 10
124.5045702650316
 20
106.7272017237909
 30
0.0
  0
ENDBLK
  5
64E
330
645
100
AcDbEntity
  8
0
100
AcDbBlockEnd
  0
ENDSEC
  0
SECTION
  2
ENTITIES
  0
LWPOLYLINE
  5
38
330
2
100
AcDbEntity
  8
TITLE
100
AcDbPolyline
 90
        4
 70
     1
 43
0.0
 10
0.0
 20
0.0
 10
297.0
 20
0.0
 10
297.0
 20
210.0
 10
0.0
 20
210.0
  0
LINE
  5
3A
330
2
100
AcDbEntity
  8
TITLE
100
AcDbLine
 10
173.9999749999998
 20
16.5999882393161
 30
0.0
 11
101.9999749999998
 21
16.59998331623919
 31
0.0
  0
LINE
  5
3B
330
2
100
AcDbEntity
  8
TITLE
100
AcDbLine
 10
123.9999749999998
 20
10.60000199999988
 30
0.0
 11
123.9999749999998
 21
20.59998578356988
 31
0.0
  0
LINE
  5
3C
330
2
100
AcDbEntity
  8
TITLE
100
AcDbLine
 10
173.9999749999998
 20
20.59998983712988
 30
0.0
 11
173.9999749999998
 21
10.60000399999988
 31
0.0
  0
LINE
  5
3D
330
2
100
AcDbEntity
  8
TITLE
100
AcDbLine
 10
245.9999749999998
 20
20.59998983712988
 30
0.0
 11
245.9999749999998
 21
10.60000399999988
 31
0.0
  0
LINE
  5
3E
330
2
100
AcDbEntity
  8
TITLE
100
AcDbLine
 10
145.9999749999998
 20
10.59999999999988
 30
0.0
 11
145.9999749999998
 21
20.59998756713988
 31
0.0
  0
TEXT
  5
3F
330
2
100
AcDbEntity
  8
TITLE
100
AcDbText
 10
107.0952985010282
 20
17.09998475213987
 30
0.0
 40
3.0
  1
尺  度
 72
     1
 11
112.9430142370688
 21
17.09998475213987
 31
0.0
100
AcDbText
  0
TEXT
  5
40
330
2
100
AcDbEntity
  8
TITLE
100
AcDbText
 10
129.2317649410221
 20
17.09998625640988
 30
0.0
 40
3.0
  1
単  位
 72
     1
 11
135.0794806770627
 21
17.09998625640988
 31
0.0
100
AcDbText
  0
TEXT
  5
41
330
2
100
AcDbEntity
  8
TITLE
100
AcDbText
 10
154.2317649410222
 20
17.09998796580988
 30
0.0
 40
3.0
  1
日  付
 72
     1
 11
160.0794806770628
 21
17.09998796580988
 31
0.0
100
AcDbText
  0
LINE
  5
42
330
2
100
AcDbEntity
  8
TITLE
100
AcDbLine
 10
245.9999749999998
 20
20.59999567426553
 30
0.0
 11
101.9999749999998
 21
20.59998399999988
 31
0.0
  0
LINE
  5
43
330
2
100
AcDbEntity
  8
TITLE
100
AcDbLine
 10
196.9999749999998
 20
20.59999170176988
 30
0.0
 11
196.9999749999998
 21
30.60000699999989
 31
0.0
  0
LINE
  5
44
330
2
100
AcDbEntity
  8
TITLE
100
AcDbLine
 10
245.9999749999998
 20
20.59999567426988
 30
0.0
 11
245.9999749999998
 21
30.60001099999988
 31
0.0
  0
LINE
  5
45
330
2
100
AcDbEntity
  8
TITLE
100
AcDbLine
 10
101.9999749999998
 20
30.59999899999988
 30
0.0
 11
101.9999749999998
 21
10.39999999999988
 31
0.0
  0
LINE
  5
46
330
2
100
AcDbEntity
  8
TITLE
100
AcDbLine
 10
286.3999999999998
 20
30.59999899999988
 30
0.0
 11
101.9999749999998
 21
30.59999899999988
 31
0.0
  0
LINE
  5
47
330
2
100
AcDbEntity
  8
TITLE
100
AcDbLine
 10
245.9999749999998
 20
26.59999567426553
 30
0.0
 11
101.9999749999998
 21
26.59998399999989
 31
0.0
  0
ELLIPSE
  5
48
330
2
100
AcDbEntity
  8
TITLE
  6
Continuous
100
AcDbEllipse
 10
54.02637022461731
 20
200.1504202828182
 30
0.0
 11
0.8689064294734992
 21
1.231830042267542
 31
0.0
210
0.0
220
0.0
230
1.0
 40
0.8395560122375155
 41
0.0
 42
6.283185307179585
  0
ELLIPSE
  5
49
330
2
100
AcDbEntity
  8
TITLE
  6
Continuous
100
AcDbEllipse
 10
53.99236059616292
 20
200.1022055606854
 30
0.0
 11
1.551775802911215
 21
2.191120744445877
 31
0.0
210
0.0
220
0.0
230
1.0
 40
0.8609347890889099
 41
0.0
 42
6.283185307179585
  0
LWPOLYLINE
  5
4A
330
2
100
AcDbEntity
  8
TITLE
  6
Continuous
100
AcDbPolyline
 90
       14
 70
     0
 43
0.0
 10
65.52358003411621
 20
200.5284462054793
 42
0.4292409730472437
 10
64.53560329263531
 20
201.4400950885267
 10
62.42165845494461
 20
201.4400950885267
 10
62.57050081596857
 20
202.3331492546704
 10
64.88930812455226
 20
202.3331492546704
 42
-0.3930573527614118
 10
66.42199976947992
 20
200.4751359896762
 42
-0.3356983166534925
 10
64.16076393638237
 20
197.8678784239518
 10
61.71661569219957
 20
197.8678784239518
 10
62.27955573301712
 20
200.8233137291804
 10
63.43758481000097
 20
200.8233137291804
 10
63.10172939062546
 20
198.9761089226149
 42
0.4679280380114159
 10
63.34769686815045
 20
198.6813875630649
 10
63.87089438499408
 20
198.6813875630649
 42
0.3336014498526429
 10
65.52400035279589
 20
200.5351113815891
  0
LWPOLYLINE
  5
4B
330
2
100
AcDbEntity
  8
TITLE
100
AcDbPolyline
 90
       13
 70
     1
 43
0.0
 10
59.71898451413632
 20
200.1503584978288
 42
0.7303512939853354
 10
60.19159524859392
 20
200.2094559304776
 10
60.58854727180754
 20
202.3331492546704
 10
61.76361854304926
 20
202.3331492546704
 10
60.91756722775521
 20
197.8678784239518
 10
59.67061007844111
 20
197.8678784239518
 10
58.63617157546485
 20
200.065976136825
 42
0.7285881840456191
 10
58.16414796791209
 20
200.0050458582092
 10
57.76837622082739
 20
197.8678784239518
 10
56.59330494958566
 20
197.8678784239518
 10
56.68731065128501
 20
198.1498955290497
 10
57.45664466978993
 20
202.3331492546704
 10
58.70843323782078
 20
202.3331492546704
  0
LWPOLYLINE
  5
4C
330
2
100
AcDbEntity
  8
TITLE
  6
Continuous
100
AcDbPolyline
 90
        4
 70
     1
 43
0.0
 10
47.61576043729885
 20
197.8678784239518
 10
46.44068916605712
 20
197.8678784239518
 10
47.28674048135117
 20
202.3331492546704
 10
48.46181175259291
 20
202.3331492546704
  0
LWPOLYLINE
  5
4D
330
2
100
AcDbEntity
  8
TITLE
  6
Continuous
100
AcDbPolyline
 90
        7
 70
     1
 43
0.0
 10
49.58988017298493
 20
197.8678784239518
 10
51.37598850527236
 20
197.8678784239518
 10
49.68388587468429
 20
200.2650238172849
 10
52.03402841716776
 20
202.3331492546704
 10
50.43593148827898
 20
202.3331492546704
 10
48.77891076368584
 20
200.8885670845122
 10
48.53796242673269
 20
199.3826399785551
  0
ELLIPSE
  5
4E
330
2
100
AcDbEntity
  8
TITLE
  6
Continuous
100
AcDbEllipse
 10
69.36781549993267
 20
200.0836071732722
 30
0.0
 11
1.551775802911215
 21
2.191120744445877
 31
0.0
210
0.0
220
0.0
230
1.0
 40
0.8609347890889099
 41
0.0
 42
6.283185307179585
  0
ELLIPSE
  5
4F
330
2
100
AcDbEntity
  8
TITLE
  6
Continuous
100
AcDbEllipse
 10
69.40182512838704
 20
200.1318218954051
 30
0.0
 11
0.8689064294735002
 21
1.231830042267543
 31
0.0
210
0.0
220
0.0
230
1.0
 40
0.8395560122375151
 41
0.0
 42
6.283185307179585
  0
LWPOLYLINE
  5
50
330
2
100
AcDbEntity
  8
TITLE
100
AcDbPolyline
 90
        6
 70
     0
 43
0.0
 10
45.40001800000004
 20
200.0
 10
10.0
 20
200.0
 10
10.0
 20
10.0
 10
287.0
 20
10.0
 10
287.0
 20
200.0
 10
72.78867726088922
 20
200.0
  0
LWPOLYLINE
  5
51
330
2
100
AcDbEntity
  8
TITLE
100
AcDbPolyline
 90
        6
 70
     0
 43
0.0
 10
45.40001800000004
 20
199.7
 10
10.29999999999995
 20
199.7
 10
10.3
 20
10.29999999999987
 10
286.7
 20
10.3
 10
286.7
 20
199.7
 10
72.78867726088922
 20
199.7
  0
LWPOLYLINE
  5
52
330
2
100
AcDbEntity
  8
TITLE
100
AcDbPolyline
 90
        6
 70
     0
 43
0.0
 10
45.40001800000004
 20
199.4
 10
10.59999999999991
 20
199.4
 10
10.6
 20
10.59999999999976
 10
286.3999999999998
 20
10.6
 10
286.3999999999998
 20
199.4
 10
72.78867726088922
 20
199.4
  0
MTEXT
  5
53
330
2
100
AcDbEntity
  8
TITLE
100
AcDbMText
 10
250.0209577232791
 20
21.7159378167452
 30
0.0
 40
3.0
 41
40.40002499999999
 71
     1
 72
     5
  1
＊禁転載・再配布＊
 73
     1
 44
1.0
1001
ACAD
1000
MTEXTBEGIN
1070
    73
1070
     1
1070
    44
1040
1.0
1070
    74
1070
     0
1000
MTEXTEND
  0
MTEXT
  5
54
330
2
100
AcDbEntity
  8
TITLE
100
AcDbMText
 10
149.499975162143
 20
23.5999878508849
 30
0.0
 40
4.0
 41
94.99999967571364
 71
     5
 72
     5
  1
サーボマウントＢ　寸法図
 73
     1
 44
1.0
1001
ACAD
1000
MTEXTBEGIN
1070
    73
1070
     1
1070
    44
1040
1.0
1070
    74
1070
     0
1000
MTEXTEND
  0
MTEXT
  5
55
330
2
100
AcDbEntity
  8
TITLE
100
AcDbMText
 10
112.9999749999998
 20
13.59999265811953
 30
0.0
 40
3.0
 41
22.00000000000003
 71
     5
 72
     5
  1
1 / 1
 73
     1
 44
1.0
1001
ACAD
1000
MTEXTBEGIN
1070
    73
1070
     1
1070
    44
1040
1.0
1070
    74
1070
     0
1000
MTEXTEND
  0
MTEXT
  5
56
330
2
100
AcDbEntity
  8
TITLE
100
AcDbMText
 10
134.9999749999998
 20
13.59999265811953
 30
0.0
 40
3.0
 41
22.00000000000003
 71
     5
 72
     5
  1
mm
 73
     1
 44
1.0
1001
ACAD
1000
MTEXTBEGIN
1070
    73
1070
     1
1070
    44
1040
1.0
1070
    74
1070
     0
1000
MTEXTEND
  0
MTEXT
  5
57
330
2
100
AcDbEntity
  8
TITLE
100
AcDbMText
 10
159.0406344098061
 20
13.59999265811953
 30
0.0
 40
3.0
 41
28.0
 71
     5
 72
     5
  1
05,09,29
 73
     1
 44
1.0
1001
ACAD
1000
MTEXTBEGIN
1070
    73
1070
     1
1070
    44
1040
1.0
1070
    74
1070
     0
1000
MTEXTEND
  0
MTEXT
  5
58
330
2
100
AcDbEntity
  8
TITLE
100
AcDbMText
 10
149.4999749999998
 20
28.59999535088613
 30
0.0
 40
3.0
 41
95.00000000000005
 71
     5
 72
     5
  1
名称
 73
     1
 44
1.0
1001
ACAD
1000
MTEXTBEGIN
1070
    73
1070
     1
1070
    44
1040
1.0
1070
    74
1070
     0
1000
MTEXTEND
  0
MTEXT
  5
59
330
2
100
AcDbEntity
  8
TITLE
100
AcDbMText
 10
221.4999749999998
 20
28.59999733713272
 30
0.0
 40
3.0
 41
48.99999999999997
 71
     5
 72
     5
  1
図面用途
 73
     1
 44
1.0
1001
ACAD
1000
MTEXTBEGIN
1070
    73
1070
     1
1070
    44
1040
1.0
1070
    74
1070
     0
1000
MTEXTEND
  0
MTEXT
  5
5A
330
2
100
AcDbEntity
  8
TITLE
100
AcDbMText
 10
221.4999749999998
 20
23.78849386493437
 30
0.0
 40
4.0
 41
48.99999999999997
 71
     5
 72
     5
  1
参考図
 73
     1
 44
1.0
1001
ACAD
1000
MTEXTBEGIN
1070
    73
1070
     1
1070
    44
1040
1.0
1070
    74
1070
     0
1000
MTEXTEND
  0
MTEXT
  5
5B
330
2
100
AcDbEntity
  8
TITLE
100
AcDbMText
 10
209.9999749999998
 20
15.59999691856488
 30
0.0
 40
5.0
 41
71.99999999999997
 71
     5
 72
     5
  1
近藤科学株式会社
 73
     1
 44
1.0
1001
ACAD
1000
MTEXTBEGIN
1070
    73
1070
     1
1070
    44
1040
1.0
1070
    74
1070
     0
1000
MTEXTEND
  0
LINE
  5
5C
330
2
100
AcDbEntity
  8
TITLE
100
AcDbLine
 10
148.5
 20
205.0
 30
0.0
 11
148.5
 21
200.0
 31
0.0
  0
LINE
  5
5D
330
2
100
AcDbEntity
  8
TITLE
100
AcDbLine
 10
148.5
 20
5.0
 30
0.0
 11
148.5
 21
10.0
 31
0.0
  0
LINE
  5
5E
330
2
100
AcDbEntity
  8
TITLE
100
AcDbLine
 10
292.0
 20
105.0
 30
0.0
 11
287.0
 21
105.0
 31
0.0
  0
LINE
  5
5F
330
2
100
AcDbEntity
  8
TITLE
100
AcDbLine
 10
5.0
 20
105.0
 30
0.0
 11
10.0
 21
105.0
 31
0.0
  0
CIRCLE
  5
60
330
2
100
AcDbEntity
  8
01-MODEL
100
AcDbCircle
 10
188.750018
 20
109.9999999999999
 30
0.0
 40
1.35
  0
CIRCLE
  5
61
330
2
100
AcDbEntity
  8
01-MODEL
100
AcDbCircle
 10
188.7500179999999
 20
109.9999999999999
 30
0.0
 40
1.85
  0
CIRCLE
  5
62
330
2
100
AcDbEntity
  8
01-MODEL
100
AcDbCircle
 10
188.7500179999999
 20
100.0
 30
0.0
 40
1.85
  0
CIRCLE
  5
63
330
2
100
AcDbEntity
  8
01-MODEL
100
AcDbCircle
 10
188.750018
 20
100.0
 30
0.0
 40
1.35
  0
LINE
  5
64
330
2
100
AcDbEntity
  8
01-MODEL
100
AcDbLine
 10
193.2500179999999
 20
96.0
 30
0.0
 11
193.2500179999999
 21
101.9999999999961
 31
0.0
  0
LINE
  5
65
330
2
100
AcDbEntity
  8
01-MODEL
100
AcDbLine
 10
193.2500179999999
 20
107.9999999999962
 30
0.0
 11
193.2500179999999
 21
113.9999999999999
 31
0.0
  0
LINE
  5
66
330
2
100
AcDbEntity
  8
01-MODEL
100
AcDbLine
 10
184.7500179999999
 20
96.0
 30
0.0
 11
184.7500179999999
 21
113.9999999999999
 31
0.0
  0
LINE
  5
67
330
2
100
AcDbEntity
  8
01-MODEL
100
AcDbLine
 10
193.2500180000002
 20
114.9999999999999
 30
0.0
 11
184.7500180000002
 21
114.9999999999999
 31
0.0
  0
LINE
  5
68
330
2
100
AcDbEntity
  8
01-MODEL
100
AcDbLine
 10
184.7500180000002
 20
95.0
 30
0.0
 11
184.7500179999999
 21
96.0
 31
0.0
  0
LINE
  5
69
330
2
100
AcDbEntity
  8
01-MODEL
100
AcDbLine
 10
184.7500179999999
 20
113.9999999999999
 30
0.0
 11
184.7500180000002
 21
114.9999999999999
 31
0.0
  0
LINE
  5
6A
330
2
100
AcDbEntity
  8
01-MODEL
100
AcDbLine
 10
184.7500180000002
 20
95.0
 30
0.0
 11
193.2500180000002
 21
95.0
 31
0.0
  0
LINE
  5
6B
330
2
100
AcDbEntity
  8
01-MODEL
100
AcDbLine
 10
193.2500179999999
 20
96.0
 30
0.0
 11
193.2500180000002
 21
95.0
 31
0.0
  0
LINE
  5
6C
330
2
100
AcDbEntity
  8
01-MODEL
100
AcDbLine
 10
193.2500180000002
 20
114.9999999999999
 30
0.0
 11
193.2500179999999
 21
113.9999999999999
 31
0.0
  0
LINE
  5
6D
330
2
100
AcDbEntity
  8
01-MODEL
100
AcDbLine
 10
238.2500179999999
 20
113.9999999999922
 30
0.0
 11
238.2500179999999
 21
95.99999999999232
 31
0.0
  0
LINE
  5
6E
330
2
100
AcDbEntity
  8
01-MODEL
100
AcDbLine
 10
258.250018
 20
95.99999999999232
 30
0.0
 11
258.250018
 21
113.9999999999922
 31
0.0
  0
LINE
  5
6F
330
2
100
AcDbEntity
  8
01-MODEL
100
AcDbLine
 10
239.2500179999999
 20
94.99999999999223
 30
0.0
 11
257.250018
 21
94.99999999999223
 31
0.0
  0
LINE
  5
70
330
2
100
AcDbEntity
  8
01-MODEL
100
AcDbLine
 10
257.250018
 20
114.9999999999922
 30
0.0
 11
239.2500179999999
 21
114.9999999999922
 31
0.0
  0
ARC
  5
71
330
2
100
AcDbEntity
  8
01-MODEL
100
AcDbCircle
 10
257.250018
 20
95.99999999999232
 30
0.0
 40
1.000000000000001
100
AcDbArc
 50
270.0
 51
0.0
  0
ARC
  5
72
330
2
100
AcDbEntity
  8
01-MODEL
100
AcDbCircle
 10
257.250018
 20
113.9999999999922
 30
0.0
 40
1.0
100
AcDbArc
 50
0.0
 51
90.0
  0
ARC
  5
73
330
2
100
AcDbEntity
  8
01-MODEL
100
AcDbCircle
 10
239.2500179999999
 20
113.9999999999922
 30
0.0
 40
1.0
100
AcDbArc
 50
90.0
 51
180.0
  0
ARC
  5
74
330
2
100
AcDbEntity
  8
01-MODEL
100
AcDbCircle
 10
239.2500179999999
 20
95.99999999999232
 30
0.0
 40
1.0
100
AcDbArc
 50
180.0
 51
270.0
  0
LINE
  5
75
330
2
100
AcDbEntity
  8
01-MODEL
100
AcDbLine
 10
241.2500179999999
 20
106.9999999999922
 30
0.0
 11
241.2500179999999
 21
112.9999999999922
 31
0.0
  0
LINE
  5
76
330
2
100
AcDbEntity
  8
01-MODEL
100
AcDbLine
 10
242.250018
 20
113.9999999999922
 30
0.0
 11
254.2500179999999
 21
113.9999999999922
 31
0.0
  0
ARC
  5
77
330
2
100
AcDbEntity
  8
01-MODEL
100
AcDbCircle
 10
242.250018
 20
112.9999999999922
 30
0.0
 40
1.0
100
AcDbArc
 50
90.0
 51
180.0
  0
LINE
  5
78
330
2
100
AcDbEntity
  8
01-MODEL
100
AcDbLine
 10
255.2500179999999
 20
112.9999999999922
 30
0.0
 11
255.2500179999999
 21
106.9999999999922
 31
0.0
  0
ARC
  5
79
330
2
100
AcDbEntity
  8
01-MODEL
100
AcDbCircle
 10
254.2500179999999
 20
112.9999999999922
 30
0.0
 40
1.0
100
AcDbArc
 50
0.0
 51
90.0
  0
ARC
  5
7A
330
2
100
AcDbEntity
  8
01-MODEL
100
AcDbCircle
 10
255.2500179999999
 20
104.9999999999922
 30
0.0
 40
2.0
100
AcDbArc
 50
270.0
 51
90.0
  0
LINE
  5
7B
330
2
100
AcDbEntity
  8
01-MODEL
100
AcDbLine
 10
255.2500179999999
 20
102.9999999999922
 30
0.0
 11
255.2500179999999
 21
96.99999999999231
 31
0.0
  0
LINE
  5
7C
330
2
100
AcDbEntity
  8
01-MODEL
100
AcDbLine
 10
254.2500179999999
 20
95.99999999999232
 30
0.0
 11
242.250018
 21
95.99999999999235
 31
0.0
  0
ARC
  5
7D
330
2
100
AcDbEntity
  8
01-MODEL
100
AcDbCircle
 10
254.2500179999999
 20
96.99999999999231
 30
0.0
 40
1.0
100
AcDbArc
 50
270.0
 51
0.0
  0
LINE
  5
7E
330
2
100
AcDbEntity
  8
01-MODEL
100
AcDbLine
 10
241.2500179999999
 20
96.99999999999235
 30
0.0
 11
241.2500179999999
 21
102.9999999999922
 31
0.0
  0
ARC
  5
7F
330
2
100
AcDbEntity
  8
01-MODEL
100
AcDbCircle
 10
242.250018
 20
96.99999999999235
 30
0.0
 40
1.0
100
AcDbArc
 50
180.0
 51
270.0
  0
CIRCLE
  5
80
330
2
100
AcDbEntity
  8
01-MODEL
100
AcDbCircle
 10
248.2500179999999
 20
97.99999999999613
 30
0.0
 40
1.05
  0
ARC
  5
81
330
2
100
AcDbEntity
  8
01-MODEL
100
AcDbCircle
 10
241.2500179999999
 20
104.9999999999922
 30
0.0
 40
1.999999999999999
100
AcDbArc
 50
90.0
 51
270.0
  0
LINE
  5
82
330
2
100
AcDbEntity
  8
02-CENTER
100
AcDbLine
 10
248.2500179999999
 20
118.9999999999922
 30
0.0
 11
248.2500179999999
 21
90.99999999999225
 31
0.0
  0
CIRCLE
  5
85
330
2
100
AcDbEntity
  8
01-MODEL
100
AcDbCircle
 10
241.2500179999999
 20
104.9999999999961
 30
0.0
 40
1.05
  0
CIRCLE
  5
86
330
2
100
AcDbEntity
  8
01-MODEL
100
AcDbCircle
 10
255.2500179999999
 20
104.9999999999961
 30
0.0
 40
1.05
  0
LINE
  5
87
330
2
100
AcDbEntity
  8
02-CENTER
100
AcDbLine
 10
234.2500179999999
 20
104.9999999999961
 30
0.0
 11
262.250018
 21
104.9999999999961
 31
0.0
  0
CIRCLE
  5
88
330
2
100
AcDbEntity
  8
01-MODEL
100
AcDbCircle
 10
248.2500179999999
 20
111.999999999996
 30
0.0
 40
1.05
  0
CIRCLE
  5
89
330
2
100
AcDbEntity
  8
01-MODEL
100
AcDbCircle
 10
248.2500179999999
 20
104.9999999999961
 30
0.0
 40
5.049999999999999
  0
LINE
  5
8A
330
2
100
AcDbEntity
  8
02-CENTER
100
AcDbLine
 10
197.2500179999999
 20
105.0
 30
0.0
 11
180.7500179999999
 21
105.0
 31
0.0
  0
LINE
  5
8B
330
2
100
AcDbEntity
  8
02-CENTER
100
AcDbLine
 10
248.2500179999999
 20
155.9999999999999
 30
0.0
 11
248.2500179999999
 21
172.4999999999946
 31
0.0
  0
LINE
  5
8C
330
2
100
AcDbEntity
  8
01-MODEL
100
AcDbLine
 10
258.2500180000129
 20
159.9999999999907
 30
0.0
 11
258.2500180000161
 21
168.4999999999908
 31
0.0
  0
LINE
  5
8D
330
2
100
AcDbEntity
  8
01-MODEL
100
AcDbLine
 10
257.2500180000128
 20
159.9999999999912
 30
0.0
 11
258.2500180000129
 21
159.9999999999907
 31
0.0
  0
LINE
  5
8E
330
2
100
AcDbEntity
  8
01-MODEL
100
AcDbLine
 10
258.2500180000161
 20
168.4999999999908
 30
0.0
 11
256.3000180000161
 21
168.4999999999916
 31
0.0
  0
LINE
  5
8F
330
2
100
AcDbEntity
  8
01-MODEL
100
AcDbLine
 10
254.2000180000161
 20
168.4999999999923
 30
0.0
 11
253.2750180000161
 21
168.4999999999926
 31
0.0
  0
LINE
  5
90
330
2
100
AcDbEntity
  8
01-MODEL
100
AcDbLine
 10
243.2250180000161
 20
168.4999999999966
 30
0.0
 11
242.3000180000161
 21
168.4999999999968
 31
0.0
  0
LINE
  5
91
330
2
100
AcDbEntity
  8
01-MODEL
100
AcDbLine
 10
238.2500180000161
 20
168.4999999999984
 30
0.0
 11
238.2500180000128
 21
159.9999999999984
 31
0.0
  0
LINE
  5
92
330
2
100
AcDbEntity
  8
01-MODEL
100
AcDbLine
 10
240.2000180000162
 20
168.4999999999976
 30
0.0
 11
238.2500180000161
 21
168.4999999999984
 31
0.0
  0
LINE
  5
93
330
2
100
AcDbEntity
  8
01-MODEL
100
AcDbLine
 10
238.2500180000128
 20
159.9999999999984
 30
0.0
 11
239.2500180000128
 21
159.999999999998
 31
0.0
  0
LINE
  5
94
330
2
100
AcDbEntity
  8
01-MODEL
100
AcDbLine
 10
257.2500180000128
 20
159.9999999999912
 30
0.0
 11
255.2500180000128
 21
159.9999999999931
 31
0.0
  0
LINE
  5
95
330
2
100
AcDbEntity
  8
01-MODEL
100
AcDbLine
 10
253.7500180000129
 20
159.9999999999978
 30
0.0
 11
251.2500179999999
 21
159.9999999999988
 31
0.0
  0
LINE
  5
96
330
2
100
AcDbEntity
  8
01-MODEL
100
AcDbLine
 10
245.2500179999999
 20
160.0000000000011
 30
0.0
 11
242.7500180000128
 21
160.000000000002
 31
0.0
  0
LINE
  5
97
330
2
100
AcDbEntity
  8
01-MODEL
100
AcDbLine
 10
241.2500180000129
 20
159.9999999999984
 30
0.0
 11
239.2500180000128
 21
159.999999999998
 31
0.0
  0
LINE
  5
98
330
2
100
AcDbEntity
  8
01-MODEL
100
AcDbLine
 10
240.2000180000162
 20
168.4999999999976
 30
0.0
 11
242.3000180000161
 21
168.4999999999968
 31
0.0
  0
LINE
  5
99
330
2
100
AcDbEntity
  8
01-MODEL
100
AcDbLine
 10
254.2000180000161
 20
168.4999999999923
 30
0.0
 11
256.3000180000161
 21
168.4999999999916
 31
0.0
  0
LINE
  5
9A
330
2
100
AcDbEntity
  8
01-MODEL
100
AcDbLine
 10
243.2250180000161
 20
168.4999999999966
 30
0.0
 11
253.2750180000161
 21
168.4999999999926
 31
0.0
  0
LINE
  5
9B
330
2
100
AcDbEntity
  8
01-MODEL
100
AcDbLine
 10
253.7500180000129
 20
159.9999999999978
 30
0.0
 11
255.2500180000128
 21
159.9999999999963
 31
0.0
  0
LINE
  5
9C
330
2
100
AcDbEntity
  8
01-MODEL
100
AcDbLine
 10
241.2500180000129
 20
160.0000000000016
 30
0.0
 11
242.7500180000128
 21
160.000000000002
 31
0.0
  0
LINE
  5
9D
330
2
100
AcDbEntity
  8
02-CENTER
100
AcDbLine
 10
193.2500179999999
 20
90.9999999999961
 30
0.0
 11
193.2500179999999
 21
118.999999999996
 31
0.0
  0
LINE
  5
9E
330
2
100
AcDbEntity
  8
01-MODEL
100
AcDbLine
 10
245.2500179999999
 20
94.99999999999223
 30
0.0
 11
245.2500179999999
 21
95.99999999999232
 31
0.0
  0
LINE
  5
9F
330
2
100
AcDbEntity
  8
01-MODEL
100
AcDbLine
 10
245.2500179999999
 20
113.9999999999922
 30
0.0
 11
245.2500179999999
 21
114.9999999999922
 31
0.0
  0
LINE
  5
A0
330
2
100
AcDbEntity
  8
01-MODEL
100
AcDbLine
 10
245.2500179999999
 20
159.9999999999999
 30
0.0
 11
245.2500179999999
 21
161.9999999999999
 31
0.0
  0
LINE
  5
A1
330
2
100
AcDbEntity
  8
01-MODEL
100
AcDbLine
 10
251.2500179999999
 20
94.99999999999223
 30
0.0
 11
251.2500179999999
 21
95.99999999999232
 31
0.0
  0
LINE
  5
A2
330
2
100
AcDbEntity
  8
01-MODEL
100
AcDbLine
 10
251.2500179999999
 20
113.9999999999922
 30
0.0
 11
251.2500179999999
 21
114.9999999999922
 31
0.0
  0
LINE
  5
A3
330
2
100
AcDbEntity
  8
01-MODEL
100
AcDbLine
 10
251.2500179999999
 20
159.9999999999988
 30
0.0
 11
251.2500179999999
 21
161.9999999999999
 31
0.0
  0
LINE
  5
A4
330
2
100
AcDbEntity
  8
01-MODEL
100
AcDbLine
 10
251.2500179999999
 20
161.9999999999999
 30
0.0
 11
245.2500179999999
 21
161.9999999999999
 31
0.0
  0
LINE
  5
A5
330
2
100
AcDbEntity
  8
01-MODEL
100
AcDbLine
 10
255.2500179999999
 20
107.9999999999961
 30
0.0
 11
258.250018
 21
107.9999999999961
 31
0.0
  0
LINE
  5
A6
330
2
100
AcDbEntity
  8
01-MODEL
100
AcDbLine
 10
255.2500179999999
 20
101.9999999999961
 30
0.0
 11
258.250018
 21
101.9999999999961
 31
0.0
  0
LINE
  5
A7
330
2
100
AcDbEntity
  8
01-MODEL
100
AcDbLine
 10
241.2500179999999
 20
101.9999999999961
 30
0.0
 11
238.2500179999999
 21
101.9999999999961
 31
0.0
  0
LINE
  5
A8
330
2
100
AcDbEntity
  8
01-MODEL
100
AcDbLine
 10
241.2500179999999
 20
107.9999999999961
 30
0.0
 11
238.2500179999999
 21
107.9999999999961
 31
0.0
  0
LINE
  5
A9
330
2
100
AcDbEntity
  8
01-MODEL
100
AcDbLine
 10
193.2500179999999
 20
101.9999999999961
 30
0.0
 11
191.2500179999999
 21
101.9999999999961
 31
0.0
  0
LINE
  5
AA
330
2
100
AcDbEntity
  8
01-MODEL
100
AcDbLine
 10
191.2500179999999
 20
101.9999999999961
 30
0.0
 11
191.2500179999999
 21
107.9999999999961
 31
0.0
  0
LINE
  5
AB
330
2
100
AcDbEntity
  8
01-MODEL
100
AcDbLine
 10
191.2500179999999
 20
107.9999999999961
 30
0.0
 11
193.2500179999999
 21
107.9999999999961
 31
0.0
  0
LINE
  5
AC
330
2
100
AcDbEntity
  8
02-CENTER
100
AcDbLine
 10
234.2500179999999
 20
159.9999999999999
 30
0.0
 11
262.250018
 21
159.9999999999999
 31
0.0
  0
DIMENSION
  5
AD
330
2
100
AcDbEntity
  8
03-DIMMENTION
100
AcDbDimension
  2
*D15
 10
172.7500179999999
 20
109.9999999999999
 30
0.0
 11
170.7000179999998
 21
105.0
 31
0.0
 70
    32
 71
     5
 42
9.9999999999999
  3
Standard
100
AcDbAlignedDimension
 13
188.750018
 23
100.0
 33
0.0
 14
188.750018
 24
109.9999999999999
 34
0.0
 50
270.0
100
AcDbRotatedDimension
1001
ACAD
1000
DSTYLE
1002
{
1070
    40
1040
1.0
1070
    41
1040
1.5
1070
    42
1040
0.15
1070
   147
1040
0.8
1070
   271
1070
     1
1070
   272
1070
     1
1002
}
  0
DIMENSION
  5
BC
330
2
100
AcDbEntity
  8
03-DIMMENTION
100
AcDbDimension
  2
*D16
 10
193.2500179999999
 20
82.99999999999224
 30
0.0
 11
184.7714465714285
 21
82.99999999999224
 31
0.0
 70
   160
 71
     5
 42
2.0
  3
Standard
100
AcDbAlignedDimension
 13
191.2500179999999
 23
101.9999999999961
 33
0.0
 14
193.2500179999999
 24
101.9999999999961
 34
0.0
 50
180.0
100
AcDbRotatedDimension
1001
ACAD
1000
DSTYLE
1002
{
1070
    40
1040
1.0
1070
    41
1040
1.5
1070
    42
1040
0.15
1070
   147
1040
0.8
1070
   271
1070
     1
1070
   272
1070
     1
1002
}
  0
DIMENSION
  5
CB
330
2
100
AcDbEntity
  8
03-DIMMENTION
100
AcDbDimension
  2
*D17
 10
193.2500179999999
 20
132.9999999999922
 30
0.0
 11
189.0000180000001
 21
135.0499999999922
 31
0.0
 70
    32
 71
     5
 42
8.499999999999744
  3
Standard
100
AcDbAlignedDimension
 13
184.7500180000002
 23
114.9999999999999
 33
0.0
 14
193.2500179999999
 24
118.999999999996
 34
0.0
 50
180.0
100
AcDbRotatedDimension
1001
ACAD
1000
DSTYLE
1002
{
1070
    40
1040
1.0
1070
    41
1040
1.5
1070
    42
1040
0.15
1070
   147
1040
0.8
1070
   271
1070
     1
1070
   272
1070
     1
1002
}
  0
DIMENSION
  5
D8
330
2
100
AcDbEntity
  8
03-DIMMENTION
100
AcDbDimension
  2
*D18
 10
188.750018
 20
126.9999999999922
 30
0.0
 11
199.7881132380951
 21
126.9999999999922
 31
0.0
 70
   160
 71
     5
 42
4.499999999999857
  3
Standard
100
AcDbAlignedDimension
 13
193.2500179999999
 23
118.999999999996
 33
0.0
 14
188.750018
 24
109.9999999999999
 34
0.0
 50
180.0
100
AcDbRotatedDimension
1001
ACAD
1000
DSTYLE
1002
{
1070
    40
1040
1.0
1070
    41
1040
1.5
1070
    42
1040
0.15
1070
   147
1040
0.8
1070
   271
1070
     1
1070
   272
1070
     1
1002
}
  0
DIMENSION
  5
E7
330
2
100
AcDbEntity
  8
03-DIMMENTION
100
AcDbDimension
  2
*D19
 10
270.2500180000161
 20
159.9999999999983
 30
0.0
 11
268.200018000016
 21
153.9030456852775
 31
0.0
 70
    32
 71
     5
 42
2.000000000001591
  3
Standard
100
AcDbAlignedDimension
 13
251.2500179999999
 23
161.9999999999999
 33
0.0
 14
252.5000180000064
 24
159.9999999999983
 34
0.0
 50
270.0
100
AcDbRotatedDimension
1001
ACAD
1000
DSTYLE
1002
{
1070
    40
1040
1.0
1070
    41
1040
1.5
1070
    42
1040
0.15
1070
   147
1040
0.8
1070
   271
1070
     1
1070
   272
1070
     1
1002
}
  0
LINE
  5
F6
330
2
100
AcDbEntity
  8
01-MODEL
100
AcDbLine
 10
139.2500180000003
 20
113.9999999999922
 30
0.0
 11
139.2500180000003
 21
95.99999999999232
 31
0.0
  0
LINE
  5
F7
330
2
100
AcDbEntity
  8
01-MODEL
100
AcDbLine
 10
119.2500180000002
 20
95.99999999999232
 30
0.0
 11
119.2500180000002
 21
113.9999999999922
 31
0.0
  0
LINE
  5
F8
330
2
100
AcDbEntity
  8
01-MODEL
100
AcDbLine
 10
138.2500180000003
 20
94.99999999999223
 30
0.0
 11
120.2500180000003
 21
94.99999999999223
 31
0.0
  0
LINE
  5
F9
330
2
100
AcDbEntity
  8
01-MODEL
100
AcDbLine
 10
120.2500180000003
 20
114.9999999999922
 30
0.0
 11
138.2500180000003
 21
114.9999999999922
 31
0.0
  0
ARC
  5
FA
330
2
100
AcDbEntity
  8
01-MODEL
100
AcDbCircle
 10
120.2500180000003
 20
95.99999999999232
 30
0.0
 40
1.000000000000001
100
AcDbArc
 50
180.0
 51
270.0
  0
ARC
  5
FB
330
2
100
AcDbEntity
  8
01-MODEL
100
AcDbCircle
 10
120.2500180000003
 20
113.9999999999922
 30
0.0
 40
1.0
100
AcDbArc
 50
90.0
 51
180.0
  0
ARC
  5
FC
330
2
100
AcDbEntity
  8
01-MODEL
100
AcDbCircle
 10
138.2500180000003
 20
113.9999999999922
 30
0.0
 40
1.0
100
AcDbArc
 50
0.0
 51
90.0
  0
ARC
  5
FD
330
2
100
AcDbEntity
  8
01-MODEL
100
AcDbCircle
 10
138.2500180000003
 20
95.99999999999232
 30
0.0
 40
1.0
100
AcDbArc
 50
270.0
 51
0.0
  0
CIRCLE
  5
FE
330
2
100
AcDbEntity
  8
01-MODEL
100
AcDbCircle
 10
129.2500180000002
 20
97.99999999999613
 30
0.0
 40
1.05
  0
LINE
  5
FF
330
2
100
AcDbEntity
  8
02-CENTER
100
AcDbLine
 10
129.2500180000002
 20
118.9999999999922
 30
0.0
 11
129.2500180000002
 21
90.99999999999225
 31
0.0
  0
CIRCLE
  5
100
330
2
100
AcDbEntity
  8
01-MODEL
100
AcDbCircle
 10
136.2500180000003
 20
104.9999999999961
 30
0.0
 40
1.05
  0
CIRCLE
  5
101
330
2
100
AcDbEntity
  8
01-MODEL
100
AcDbCircle
 10
122.2500180000003
 20
104.9999999999961
 30
0.0
 40
1.05
  0
LINE
  5
102
330
2
100
AcDbEntity
  8
02-CENTER
100
AcDbLine
 10
143.2500180000003
 20
104.9999999999961
 30
0.0
 11
115.2500180000002
 21
104.9999999999961
 31
0.0
  0
CIRCLE
  5
103
330
2
100
AcDbEntity
  8
01-MODEL
100
AcDbCircle
 10
129.2500180000002
 20
111.999999999996
 30
0.0
 40
1.05
  0
CIRCLE
  5
104
330
2
100
AcDbEntity
  8
01-MODEL
100
AcDbCircle
 10
129.2500180000002
 20
104.9999999999961
 30
0.0
 40
5.049999999999999
  0
DIMENSION
  5
105
330
2
100
AcDbEntity
  8
03-DIMMENTION
100
AcDbDimension
  2
*D20
 10
245.2500179999999
 20
126.9999999999922
 30
0.0
 11
248.2500179999999
 21
126.9999999999922
 31
0.0
 70
   160
 71
     5
 42
6.0
  3
Standard
100
AcDbAlignedDimension
 13
251.2500179999999
 23
114.9999999999922
 33
0.0
 14
245.2500179999999
 24
114.9999999999922
 34
0.0
100
AcDbRotatedDimension
1001
ACAD
1000
DSTYLE
1002
{
1070
    40
1040
1.0
1070
    41
1040
1.5
1070
    42
1040
0.15
1070
   147
1040
0.8
1070
   271
1070
     1
1070
   272
1070
     1
1002
}
  0
DIMENSION
  5
112
330
2
100
AcDbEntity
  8
03-DIMMENTION
100
AcDbDimension
  2
*D21
 10
226.2500179999999
 20
101.9999999999961
 30
0.0
 11
226.2500179999999
 21
104.9999999999961
 31
0.0
 70
   160
 71
     5
 42
5.999999999999957
  3
Standard
100
AcDbAlignedDimension
 13
238.2500179999999
 23
107.9999999999961
 33
0.0
 14
238.2500179999999
 24
101.9999999999961
 34
0.0
 50
90.0
100
AcDbRotatedDimension
1001
ACAD
1000
DSTYLE
1002
{
1070
    40
1040
1.0
1070
    41
1040
1.5
1070
    42
1040
0.15
1070
   147
1040
0.8
1070
   271
1070
     1
1070
   272
1070
     1
1002
}
  0
DIMENSION
  5
11F
330
2
100
AcDbEntity
  8
03-DIMMENTION
100
AcDbDimension
  2
*D22
 10
139.2500180000003
 20
132.9999999999922
 30
0.0
 11
129.2500180000002
 21
135.0499999999922
 31
0.0
 70
    32
 71
     5
 42
20.00000000000008
  3
Standard
100
AcDbAlignedDimension
 13
119.2500180000002
 23
113.9999999999922
 33
0.0
 14
139.2500180000003
 24
113.9999999999922
 34
0.0
100
AcDbRotatedDimension
1001
ACAD
1000
DSTYLE
1002
{
1070
    40
1040
1.0
1070
    41
1040
1.5
1070
    42
1040
0.15
1070
   147
1040
0.8
1070
   271
1070
     1
1070
   272
1070
     1
1002
}
  0
DIMENSION
  5
12C
330
2
100
AcDbEntity
  8
03-DIMMENTION
100
AcDbDimension
  2
*D23
 10
101.2500180000003
 20
94.99999999999223
 30
0.0
 11
99.20001800000028
 21
104.9999999999922
 31
0.0
 70
    32
 71
     5
 42
19.99999999999996
  3
Standard
100
AcDbAlignedDimension
 13
120.2500180000003
 23
114.9999999999922
 33
0.0
 14
120.2500180000003
 24
94.99999999999223
 34
0.0
 50
90.0
100
AcDbRotatedDimension
1001
ACAD
1000
DSTYLE
1002
{
1070
    40
1040
1.0
1070
    41
1040
1.5
1070
    42
1040
0.15
1070
   147
1040
0.8
1070
   271
1070
     1
1070
   272
1070
     1
1002
}
  0
DIMENSION
  5
139
330
2
100
AcDbEntity
  8
03-DIMMENTION
100
AcDbDimension
  2
*D24
 10
107.2500180000002
 20
97.99999999999613
 30
0.0
 11
105.2000180000002
 21
104.9999999999961
 31
0.0
 70
    32
 71
     5
 42
13.99999999999986
  3
Standard
100
AcDbAlignedDimension
 13
129.2500180000002
 23
111.999999999996
 33
0.0
 14
129.2500180000002
 24
97.99999999999613
 34
0.0
 50
90.0
100
AcDbRotatedDimension
1001
ACAD
1000
DSTYLE
1002
{
1070
    40
1040
1.0
1070
    41
1040
1.5
1070
    42
1040
0.15
1070
   147
1040
0.8
1070
   271
1070
     1
1070
   272
1070
     1
1002
}
  0
DIMENSION
  5
146
330
2
100
AcDbEntity
  8
03-DIMMENTION
100
AcDbDimension
  2
*D25
 10
136.2500180000003
 20
126.9999999999922
 30
0.0
 11
129.2500180000003
 21
129.0499999999922
 31
0.0
 70
    32
 71
     5
 42
13.99999999999998
  3
Standard
100
AcDbAlignedDimension
 13
122.2500180000003
 23
104.9999999999961
 33
0.0
 14
136.2500180000003
 24
104.9999999999961
 34
0.0
100
AcDbRotatedDimension
1001
ACAD
1000
DSTYLE
1002
{
1070
    40
1040
1.0
1070
    41
1040
1.5
1070
    42
1040
0.15
1070
   147
1040
0.8
1070
   271
1070
     1
1070
   272
1070
     1
1002
}
  0
DIMENSION
  5
153
330
2
100
AcDbEntity
  8
03-DIMMENTION
100
AcDbDimension
  2
*D26
 10
255.2500179999999
 20
82.99999999999224
 30
0.0
 11
248.250018
 21
85.04999999999224
 31
0.0
 70
    32
  1
14.0
 71
     5
 42
13.99999999999991
  3
Standard
100
AcDbAlignedDimension
 13
241.250018
 23
96.99999999999235
 33
0.0
 14
255.2500179999999
 24
96.99999999999235
 34
0.0
100
AcDbRotatedDimension
1001
ACAD
1000
DSTYLE
1002
{
1070
    40
1040
1.0
1070
    41
1040
1.5
1070
    42
1040
0.15
1070
   147
1040
0.8
1070
   271
1070
     1
1070
   272
1070
     1
1002
}
  0
DIMENSION
  5
160
330
2
100
AcDbEntity
  8
03-DIMMENTION
100
AcDbDimension
  2
*D27
 10
270.2500180000161
 20
113.9999999999922
 30
0.0
 11
268.2000180000161
 21
104.9999999999923
 31
0.0
 70
    32
  1
18.0
 71
     5
 42
17.99999999999988
  3
Standard
100
AcDbAlignedDimension
 13
254.2500179999999
 23
95.99999999999232
 33
0.0
 14
254.2500179999999
 24
113.9999999999922
 34
0.0
 50
90.0
100
AcDbRotatedDimension
1001
ACAD
1000
DSTYLE
1002
{
1070
    40
1040
1.0
1070
    41
1040
1.5
1070
    42
1040
0.15
1070
   147
1040
0.8
1070
   271
1070
     1
1070
   272
1070
     1
1002
}
  0
DIMENSION
  5
16D
330
2
100
AcDbEntity
  8
03-DIMMENTION
100
AcDbDimension
  2
*D28
 10
124.5045702650316
 20
106.7272017237909
 30
0.0
 11
153.4263565092154
 21
96.2005324090969
 31
0.0
 70
   163
  1
%%C10.1
 71
     5
 42
10.09999999999995
  3
Standard
100
AcDbDiametricDimension
 15
133.995465734969
 25
103.2727982762013
 35
0.0
 40
0.0
1001
ACAD
1000
DSTYLE
1002
{
1070
    40
1040
1.0
1002
}
  0
LEADER
  5
178
330
2
100
AcDbEntity
  8
03-DIMMENTION
100
AcDbLeader
  3
Standard
 73
     0
 40
2.5
 41
9.010152284263957
 76
     3
 10
136.2500180000003
 20
104.9999999999961
 30
0.0
 10
145.4371001431791
 20
117.7470518576358
 30
0.0
 10
149.6811406604552
 20
117.7470518576358
 30
0.0
340
179
213
0.0
223
-1.25
233
0.0
1001
ACAD
1000
DSTYLE
1002
{
1070
    40
1040
1.0
1070
    77
1070
     0
1002
}
  0
MTEXT
  5
179
102
{ACAD_REACTORS
330
178
102
}
330
2
100
AcDbEntity
  8
03-DIMMENTION
100
AcDbMText
 10
150.1811406604551
 20
118.9970518576358
 30
0.0
 40
2.5
 41
0.0
 71
     1
 72
     1
  1
\A1;4-%%C2.1
 73
     1
 44
1.0
1001
ACAD
1000
MTEXTBEGIN
1070
    73
1070
     1
1070
    44
1040
1.0
1070
    74
1070
     0
1000
MTEXTEND
  0
MTEXT
  5
17A
330
2
100
AcDbEntity
  8
TITLE
100
AcDbMText
 10
43.98717121060803
 20
186.8925602202575
 30
0.0
 40
3.0
 41
30.0
 71
     1
 72
     5
  1
適合機種
 73
     1
 44
1.0
1001
ACAD
1000
MTEXTBEGIN
1070
    73
1070
     1
1070
    44
1040
1.0
1070
    74
1070
     0
1000
MTEXTEND
  0
MTEXT
  5
17B
330
2
100
AcDbEntity
  8
TITLE
100
AcDbMText
 10
25.7809147605858
 20
172.9780750324664
 30
0.0
 40
3.0
 41
33.12449862354203
 71
     1
 72
     5
  1
KRS-2350ICS
 73
     1
 44
1.0
1001
ACAD
1000
MTEXTBEGIN
1070
    73
1070
     1
1070
    44
1040
1.0
1070
    74
1070
     0
1000
MTEXTEND
  0
LINE
  5
17C
330
2
100
AcDbEntity
  8
TITLE
100
AcDbLine
 10
85.59999999999991
 20
179.4
 30
0.0
 11
20.5999999999999
 21
179.4
 31
0.0
  0
ELLIPSE
  5
17D
330
2
100
AcDbEntity
  8
01-MODEL
370
    15
100
AcDbEllipse
 10
56.50988024955107
 20
169.0496602686199
 30
0.0
 11
0.2495161057923187
 21
-0.4332917180725313
 31
0.0
210
0.0
220
0.0
230
1.0
 40
0.5780931159156398
 41
5.499720852204878
 42
5.888090147178221
  0
LINE
  5
17E
330
2
100
AcDbEntity
  8
01-MODEL
370
    15
100
AcDbLine
 10
56.64376372603435
 20
168.7179850727002
 30
0.0
 11
56.50988024955118
 21
168.6408867061987
 31
0.0
  0
POLYLINE
  5
17F
330
2
100
AcDbEntity
  8
01-MODEL
370
    15
100
AcDb2dPolyline
 66
     1
 10
0.0
 20
0.0
 30
0.0
 70
   128
  0
VERTEX
  5
180
330
17F
100
AcDbEntity
  8
01-MODEL
370
    15
100
AcDbVertex
100
AcDb2dVertex
 10
56.3509612076861
 20
168.5288038994674
 30
0.0
  0
VERTEX
  5
181
330
17F
100
AcDbEntity
  8
01-MODEL
370
    15
100
AcDbVertex
100
AcDb2dVertex
 10
56.36444398452475
 20
168.5213842029773
 30
0.0
  0
VERTEX
  5
182
330
17F
100
AcDbEntity
  8
01-MODEL
370
    15
100
AcDbVertex
100
AcDb2dVertex
 10
56.37827910901694
 20
168.5144340715303
 30
0.0
  0
VERTEX
  5
183
330
17F
100
AcDbEntity
  8
01-MODEL
370
    15
100
AcDbVertex
100
AcDb2dVertex
 10
56.39235784229355
 20
168.5079902969855
 30
0.0
  0
VERTEX
  5
184
330
17F
100
AcDbEntity
  8
01-MODEL
370
    15
100
AcDbVertex
100
AcDb2dVertex
 10
56.40656975961136
 20
168.5020906420321
 30
0.0
  0
VERTEX
  5
185
330
17F
100
AcDbEntity
  8
01-MODEL
370
    15
100
AcDbVertex
100
AcDb2dVertex
 10
56.42080612210138
 20
168.4967721421771
 30
0.0
  0
VERTEX
  5
186
330
17F
100
AcDbEntity
  8
01-MODEL
370
    15
100
AcDbVertex
100
AcDb2dVertex
 10
56.43495566208347
 20
168.4920735328211
 30
0.0
  0
VERTEX
  5
187
330
17F
100
AcDbEntity
  8
01-MODEL
370
    15
100
AcDbVertex
100
AcDb2dVertex
 10
56.44890964068849
 20
168.4880313621748
 30
0.0
  0
VERTEX
  5
188
330
17F
100
AcDbEntity
  8
01-MODEL
370
    15
100
AcDbVertex
100
AcDb2dVertex
 10
56.46255763317325
 20
168.4846838802237
 30
0.0
  0
VERTEX
  5
189
330
17F
100
AcDbEntity
  8
01-MODEL
370
    15
100
AcDbVertex
100
AcDb2dVertex
 10
56.47579090066868
 20
168.4820678788266
 30
0.0
  0
VERTEX
  5
18A
330
17F
100
AcDbEntity
  8
01-MODEL
370
    15
100
AcDbVertex
100
AcDb2dVertex
 10
56.48849901843173
 20
168.4802213643209
 30
0.0
  0
VERTEX
  5
18B
330
17F
100
AcDbEntity
  8
01-MODEL
370
    15
100
AcDbVertex
100
AcDb2dVertex
 10
56.50086406084782
 20
168.479145473934
 30
0.0
  0
VERTEX
  5
18C
330
17F
100
AcDbEntity
  8
01-MODEL
370
    15
100
AcDbVertex
100
AcDb2dVertex
 10
56.51334289975499
 20
168.4787798278333
 30
0.0
  0
VERTEX
  5
18D
330
17F
100
AcDbEntity
  8
01-MODEL
370
    15
100
AcDbVertex
100
AcDb2dVertex
 10
56.52585629907785
 20
168.479106462904
 30
0.0
  0
VERTEX
  5
18E
330
17F
100
AcDbEntity
  8
01-MODEL
370
    15
100
AcDbVertex
100
AcDb2dVertex
 10
56.53831069281282
 20
168.4801098205355
 30
0.0
  0
VERTEX
  5
18F
330
17F
100
AcDbEntity
  8
01-MODEL
370
    15
100
AcDbVertex
100
AcDb2dVertex
 10
56.55061082908222
 20
168.4817743383556
 30
0.0
  0
VERTEX
  5
190
330
17F
100
AcDbEntity
  8
01-MODEL
370
    15
100
AcDbVertex
100
AcDb2dVertex
 10
56.56266314188239
 20
168.4840842141056
 30
0.0
  0
VERTEX
  5
191
330
17F
100
AcDbEntity
  8
01-MODEL
370
    15
100
AcDbVertex
100
AcDb2dVertex
 10
56.57437322227268
 20
168.4870236436464
 30
0.0
  0
VERTEX
  5
192
330
17F
100
AcDbEntity
  8
01-MODEL
370
    15
100
AcDbVertex
100
AcDb2dVertex
 10
56.58564750424932
 20
168.4905768247193
 30
0.0
  0
VERTEX
  5
193
330
17F
100
AcDbEntity
  8
01-MODEL
370
    15
100
AcDbVertex
100
AcDb2dVertex
 10
56.59639157887174
 20
168.4947284404809
 30
0.0
  0
VERTEX
  5
194
330
17F
100
AcDbEntity
  8
01-MODEL
370
    15
100
AcDbVertex
100
AcDb2dVertex
 10
56.60651188013615
 20
168.4994617140808
 30
0.0
  0
VERTEX
  5
195
330
17F
100
AcDbEntity
  8
01-MODEL
370
    15
100
AcDbVertex
100
AcDb2dVertex
 10
56.61604971195418
 20
168.5048352132121
 30
0.0
  0
VERTEX
  5
196
330
17F
100
AcDbEntity
  8
01-MODEL
370
    15
100
AcDbVertex
100
AcDb2dVertex
 10
56.62541474169328
 20
168.511072059016
 30
0.0
  0
VERTEX
  5
197
330
17F
100
AcDbEntity
  8
01-MODEL
370
    15
100
AcDbVertex
100
AcDb2dVertex
 10
56.63458336711833
 20
168.5181276112366
 30
0.0
  0
VERTEX
  5
198
330
17F
100
AcDbEntity
  8
01-MODEL
370
    15
100
AcDbVertex
100
AcDb2dVertex
 10
56.64348562446081
 20
168.5259337359554
 30
0.0
  0
SEQEND
  5
199
330
17F
100
AcDbEntity
  8
01-MODEL
370
    15
  0
ELLIPSE
  5
19A
330
2
100
AcDbEntity
  8
01-MODEL
370
    15
100
AcDbEllipse
 10
57.3937637260344
 20
168.1318920639584
 30
0.0
 11
-1.249999999999872
 21
-0.0000000000003206
 31
0.0
210
0.0
220
0.0
230
1.0
 40
0.5758617009854836
 41
5.497787143782136
 42
5.69914548462195
  0
ELLIPSE
  5
19B
330
2
100
AcDbEntity
  8
01-MODEL
370
    15
100
AcDbEllipse
 10
71.71267604506407
 20
160.294952422086
 30
0.0
 11
-0.2495161057922888
 21
0.43329171807254
 31
0.0
210
0.0
220
0.0
230
1.0
 40
0.5780931159156381
 41
0.7873318718204665
 42
2.358128198615306
  0
ELLIPSE
  5
19C
330
2
100
AcDbEntity
  8
01-MODEL
370
    15
100
AcDbEllipse
 10
70.82879256858085
 20
160.8039470643264
 30
0.0
 11
-0.7499999999999246
 21
-0.0000000000001479
 31
0.0
210
0.0
220
0.0
230
1.0
 40
0.5758617009854837
 41
2.01635758073837
 42
2.356194490192585
  0
POLYLINE
  5
19D
330
2
100
AcDbEntity
  8
01-MODEL
370
    15
100
AcDb2dPolyline
 66
     1
 10
0.0
 20
0.0
 30
0.0
 70
   128
  0
VERTEX
  5
19E
330
19D
100
AcDbEntity
  8
01-MODEL
370
    15
100
AcDbVertex
100
AcDb2dVertex
 10
71.15201602488513
 20
160.4142171977083
 30
0.0
  0
VERTEX
  5
19F
330
19D
100
AcDbEntity
  8
01-MODEL
370
    15
100
AcDbVertex
100
AcDb2dVertex
 10
71.15292976856085
 20
160.3873977305832
 30
0.0
  0
VERTEX
  5
1A0
330
19D
100
AcDbEntity
  8
01-MODEL
370
    15
100
AcDbVertex
100
AcDb2dVertex
 10
71.15558586295399
 20
160.3586877879337
 30
0.0
  0
VERTEX
  5
1A1
330
19D
100
AcDbEntity
  8
01-MODEL
370
    15
100
AcDbVertex
100
AcDb2dVertex
 10
71.15985828898759
 20
160.3288104795596
 30
0.0
  0
VERTEX
  5
1A2
330
19D
100
AcDbEntity
  8
01-MODEL
370
    15
100
AcDbVertex
100
AcDb2dVertex
 10
71.16561892024207
 20
160.2984903724461
 30
0.0
  0
VERTEX
  5
1A3
330
19D
100
AcDbEntity
  8
01-MODEL
370
    15
100
AcDbVertex
100
AcDb2dVertex
 10
71.17274173764039
 20
160.2684508200411
 30
0.0
  0
VERTEX
  5
1A4
330
19D
100
AcDbEntity
  8
01-MODEL
370
    15
100
AcDbVertex
100
AcDb2dVertex
 10
71.18111547350257
 20
160.2393613624942
 30
0.0
  0
VERTEX
  5
1A5
330
19D
100
AcDbEntity
  8
01-MODEL
370
    15
100
AcDbVertex
100
AcDb2dVertex
 10
71.19122144483855
 20
160.2097326788249
 30
0.0
  0
VERTEX
  5
1A6
330
19D
100
AcDbEntity
  8
01-MODEL
370
    15
100
AcDbVertex
100
AcDb2dVertex
 10
71.20310179849671
 20
160.1791104595046
 30
0.0
  0
VERTEX
  5
1A7
330
19D
100
AcDbEntity
  8
01-MODEL
370
    15
100
AcDbVertex
100
AcDb2dVertex
 10
71.21643706136556
 20
160.1481857084133
 30
0.0
  0
VERTEX
  5
1A8
330
19D
100
AcDbEntity
  8
01-MODEL
370
    15
100
AcDbVertex
100
AcDb2dVertex
 10
71.23090818180182
 20
160.1176484557784
 30
0.0
  0
VERTEX
  5
1A9
330
19D
100
AcDbEntity
  8
01-MODEL
370
    15
100
AcDbVertex
100
AcDb2dVertex
 10
71.24619568669372
 20
160.0881894618318
 30
0.0
  0
VERTEX
  5
1AA
330
19D
100
AcDbEntity
  8
01-MODEL
370
    15
100
AcDbVertex
100
AcDb2dVertex
 10
71.26201297747137
 20
160.0604423028747
 30
0.0
  0
VERTEX
  5
1AB
330
19D
100
AcDbEntity
  8
01-MODEL
370
    15
100
AcDbVertex
100
AcDb2dVertex
 10
71.27922406452931
 20
160.032989169803
 30
0.0
  0
VERTEX
  5
1AC
330
19D
100
AcDbEntity
  8
01-MODEL
370
    15
100
AcDbVertex
100
AcDb2dVertex
 10
71.2980139725324
 20
160.0053702243551
 30
0.0
  0
VERTEX
  5
1AD
330
19D
100
AcDbEntity
  8
01-MODEL
370
    15
100
AcDbVertex
100
AcDb2dVertex
 10
71.31794437425627
 20
159.9781643707524
 30
0.0
  0
VERTEX
  5
1AE
330
19D
100
AcDbEntity
  8
01-MODEL
370
    15
100
AcDbVertex
100
AcDb2dVertex
 10
71.33857652100778
 20
159.951950024979
 30
0.0
  0
VERTEX
  5
1AF
330
19D
100
AcDbEntity
  8
01-MODEL
370
    15
100
AcDbVertex
100
AcDb2dVertex
 10
71.35947124262559
 20
159.9273063330233
 30
0.0
  0
VERTEX
  5
1B0
330
19D
100
AcDbEntity
  8
01-MODEL
370
    15
100
AcDbVertex
100
AcDb2dVertex
 10
71.38019990566021
 20
159.9048012565756
 30
0.0
  0
VERTEX
  5
1B1
330
19D
100
AcDbEntity
  8
01-MODEL
370
    15
100
AcDbVertex
100
AcDb2dVertex
 10
71.40171039273472
 20
159.8835137283707
 30
0.0
  0
VERTEX
  5
1B2
330
19D
100
AcDbEntity
  8
01-MODEL
370
    15
100
AcDbVertex
100
AcDb2dVertex
 10
71.42448865701242
 20
159.8628461895623
 30
0.0
  0
VERTEX
  5
1B3
330
19D
100
AcDbEntity
  8
01-MODEL
370
    15
100
AcDbVertex
100
AcDb2dVertex
 10
71.44802303575248
 20
159.8432129183093
 30
0.0
  0
VERTEX
  5
1B4
330
19D
100
AcDbEntity
  8
01-MODEL
370
    15
100
AcDbVertex
100
AcDb2dVertex
 10
71.47180060180835
 20
159.8250286772454
 30
0.0
  0
VERTEX
  5
1B5
330
19D
100
AcDbEntity
  8
01-MODEL
370
    15
100
AcDbVertex
100
AcDb2dVertex
 10
71.4953109568447
 20
159.8087075037029
 30
0.0
  0
VERTEX
  5
1B6
330
19D
100
AcDbEntity
  8
01-MODEL
370
    15
100
AcDbVertex
100
AcDb2dVertex
 10
71.51804117371511
 20
159.7946639166674
 30
0.0
  0
SEQEND
  5
1B7
330
19D
100
AcDbEntity
  8
01-MODEL
370
    15
  0
ELLIPSE
  5
1B8
330
2
100
AcDbEntity
  8
01-MODEL
370
    15
100
AcDbEllipse
 10
70.82879256858091
 20
160.3951735019052
 30
0.0
 11
1.249999999999965
 21
0.0000000000003207
 31
0.0
210
0.0
220
0.0
230
1.0
 40
0.5758617009854836
 41
5.296429222991799
 42
5.497787143782131
  0
ELLIPSE
  5
1B9
330
2
100
AcDbEntity
  8
01-MODEL
370
    15
100
AcDbEllipse
 10
77.72308368514888
 20
163.7561159893235
 30
0.0
 11
-0.2495161057922893
 21
0.43329171807254
 31
0.0
210
0.0
220
0.0
230
1.0
 40
0.5780931159156398
 41
0.787331871820464
 42
2.358128198615306
  0
LINE
  5
1BA
330
2
100
AcDbEntity
  8
01-MODEL
370
    15
100
AcDbLine
 10
77.36953029455553
 20
163.9597138462196
 30
0.0
 11
71.35912265447074
 21
160.4985502789822
 31
0.0
  0
LINE
  5
1BB
330
2
100
AcDbEntity
  8
01-MODEL
370
    15
100
AcDbLine
 10
71.71267604506418
 20
159.8861788596649
 30
0.0
 11
77.72308368514898
 21
163.3473424269023
 31
0.0
  0
POLYLINE
  5
1BC
330
2
100
AcDbEntity
  8
01-MODEL
370
    15
100
AcDb2dPolyline
 66
     1
 10
0.0
 20
0.0
 30
0.0
 70
   128
  0
VERTEX
  5
1BD
330
1BC
100
AcDbEntity
  8
01-MODEL
370
    15
100
AcDbVertex
100
AcDb2dVertex
 10
77.88200203580569
 20
163.4594252437181
 30
0.0
  0
VERTEX
  5
1BE
330
1BC
100
AcDbEntity
  8
01-MODEL
370
    15
100
AcDbVertex
100
AcDb2dVertex
 10
77.85927181893531
 20
163.4734688307536
 30
0.0
  0
VERTEX
  5
1BF
330
1BC
100
AcDbEntity
  8
01-MODEL
370
    15
100
AcDbVertex
100
AcDb2dVertex
 10
77.83576146389894
 20
163.4897900042961
 30
0.0
  0
VERTEX
  5
1C0
330
1BC
100
AcDbEntity
  8
01-MODEL
370
    15
100
AcDbVertex
100
AcDb2dVertex
 10
77.81198389784302
 20
163.50797424536
 30
0.0
  0
VERTEX
  5
1C1
330
1BC
100
AcDbEntity
  8
01-MODEL
370
    15
100
AcDbVertex
100
AcDb2dVertex
 10
77.78844951910302
 20
163.527607516613
 30
0.0
  0
VERTEX
  5
1C2
330
1BC
100
AcDbEntity
  8
01-MODEL
370
    15
100
AcDbVertex
100
AcDb2dVertex
 10
77.76567125482532
 20
163.5482750554215
 30
0.0
  0
VERTEX
  5
1C3
330
1BC
100
AcDbEntity
  8
01-MODEL
370
    15
100
AcDbVertex
100
AcDb2dVertex
 10
77.74416076775081
 20
163.5695625836264
 30
0.0
  0
VERTEX
  5
1C4
330
1BC
100
AcDbEntity
  8
01-MODEL
370
    15
100
AcDbVertex
100
AcDb2dVertex
 10
77.72343210471612
 20
163.592067660074
 30
0.0
  0
VERTEX
  5
1C5
330
1BC
100
AcDbEntity
  8
01-MODEL
370
    15
100
AcDbVertex
100
AcDb2dVertex
 10
77.70253738309837
 20
163.6167113520297
 30
0.0
  0
VERTEX
  5
1C6
330
1BC
100
AcDbEntity
  8
01-MODEL
370
    15
100
AcDbVertex
100
AcDb2dVertex
 10
77.68190523634688
 20
163.6429256978031
 30
0.0
  0
VERTEX
  5
1C7
330
1BC
100
AcDbEntity
  8
01-MODEL
370
    15
100
AcDbVertex
100
AcDb2dVertex
 10
77.66197483462301
 20
163.6701315514059
 30
0.0
  0
VERTEX
  5
1C8
330
1BC
100
AcDbEntity
  8
01-MODEL
370
    15
100
AcDbVertex
100
AcDb2dVertex
 10
77.64318492661987
 20
163.6977504968537
 30
0.0
  0
VERTEX
  5
1C9
330
1BC
100
AcDbEntity
  8
01-MODEL
370
    15
100
AcDbVertex
100
AcDb2dVertex
 10
77.62597383956199
 20
163.7252036299254
 30
0.0
  0
VERTEX
  5
1CA
330
1BC
100
AcDbEntity
  8
01-MODEL
370
    15
100
AcDbVertex
100
AcDb2dVertex
 10
77.61015654878426
 20
163.7529507888825
 30
0.0
  0
VERTEX
  5
1CB
330
1BC
100
AcDbEntity
  8
01-MODEL
370
    15
100
AcDbVertex
100
AcDb2dVertex
 10
77.59486904389245
 20
163.7824097828292
 30
0.0
  0
VERTEX
  5
1CC
330
1BC
100
AcDbEntity
  8
01-MODEL
370
    15
100
AcDbVertex
100
AcDb2dVertex
 10
77.58039792345617
 20
163.8129470354639
 30
0.0
  0
VERTEX
  5
1CD
330
1BC
100
AcDbEntity
  8
01-MODEL
370
    15
100
AcDbVertex
100
AcDb2dVertex
 10
77.56706266058731
 20
163.8438717865554
 30
0.0
  0
VERTEX
  5
1CE
330
1BC
100
AcDbEntity
  8
01-MODEL
370
    15
100
AcDbVertex
100
AcDb2dVertex
 10
77.5551823069291
 20
163.8744940058756
 30
0.0
  0
VERTEX
  5
1CF
330
1BC
100
AcDbEntity
  8
01-MODEL
370
    15
100
AcDbVertex
100
AcDb2dVertex
 10
77.54507633559318
 20
163.9041226895449
 30
0.0
  0
VERTEX
  5
1D0
330
1BC
100
AcDbEntity
  8
01-MODEL
370
    15
100
AcDbVertex
100
AcDb2dVertex
 10
77.53670259973102
 20
163.9332121470918
 30
0.0
  0
VERTEX
  5
1D1
330
1BC
100
AcDbEntity
  8
01-MODEL
370
    15
100
AcDbVertex
100
AcDb2dVertex
 10
77.52957978233268
 20
163.9632516994968
 30
0.0
  0
VERTEX
  5
1D2
330
1BC
100
AcDbEntity
  8
01-MODEL
370
    15
100
AcDbVertex
100
AcDb2dVertex
 10
77.5238191510782
 20
163.9935718066102
 30
0.0
  0
VERTEX
  5
1D3
330
1BC
100
AcDbEntity
  8
01-MODEL
370
    15
100
AcDbVertex
100
AcDb2dVertex
 10
77.51954672504459
 20
164.0234491149845
 30
0.0
  0
VERTEX
  5
1D4
330
1BC
100
AcDbEntity
  8
01-MODEL
370
    15
100
AcDbVertex
100
AcDb2dVertex
 10
77.51689063065146
 20
164.0521590576339
 30
0.0
  0
VERTEX
  5
1D5
330
1BC
100
AcDbEntity
  8
01-MODEL
370
    15
100
AcDbVertex
100
AcDb2dVertex
 10
77.51597688697573
 20
164.078978524759
 30
0.0
  0
SEQEND
  5
1D6
330
1BC
100
AcDbEntity
  8
01-MODEL
370
    15
  0
ELLIPSE
  5
1D7
330
2
100
AcDbEntity
  8
01-MODEL
370
    15
100
AcDbEllipse
 10
76.83920020866557
 20
164.2651106315638
 30
0.0
 11
-0.749999999999956
 21
-0.0000000000001476
 31
0.0
210
0.0
220
0.0
230
1.0
 40
0.5758617009854836
 41
2.356194490192681
 42
2.696031399646904
  0
ELLIPSE
  5
1D8
330
2
100
AcDbEntity
  8
01-MODEL
370
    15
100
AcDbEllipse
 10
76.83920020866581
 20
163.8563370691426
 30
0.0
 11
1.249999999999833
 21
0.0000000000003206
 31
0.0
210
0.0
220
0.0
230
1.0
 40
0.5758617009854836
 41
5.497787143782134
 42
5.6991450645725
  0
LINE
  5
1D9
330
2
100
AcDbEntity
  8
01-MODEL
370
    15
100
AcDbLine
 10
71.35912265447358
 20
149.4616640936095
 30
0.0
 11
71.53726933897598
 21
149.5642519463721
 31
0.0
  0
ELLIPSE
  5
1DA
330
2
100
AcDbEntity
  8
01-MODEL
370
    15
100
AcDbEllipse
 10
71.71267604506692
 20
149.2580662367134
 30
0.0
 11
-0.2495161057923179
 21
0.4332917180725304
 31
0.0
210
0.0
220
0.0
230
1.0
 40
0.5780931159156398
 41
0.3282448625960962
 42
0.7873318718201812
  0
POLYLINE
  5
1DB
330
2
100
AcDbEntity
  8
01-MODEL
370
    15
100
AcDb2dPolyline
 66
     1
 10
0.0
 20
0.0
 30
0.0
 70
   128
  0
VERTEX
  5
1DC
330
1DB
100
AcDbEntity
  8
01-MODEL
370
    15
100
AcDbVertex
100
AcDb2dVertex
 10
71.51804117371772
 20
149.575324612489
 30
0.0
  0
VERTEX
  5
1DD
330
1DB
100
AcDbEntity
  8
01-MODEL
370
    15
100
AcDbVertex
100
AcDb2dVertex
 10
71.49531095684732
 20
149.5874599481551
 30
0.0
  0
VERTEX
  5
1DE
330
1DB
100
AcDbEntity
  8
01-MODEL
370
    15
100
AcDbVertex
100
AcDb2dVertex
 10
71.47180060181096
 20
149.5982162006966
 30
0.0
  0
VERTEX
  5
1DF
330
1DB
100
AcDbEntity
  8
01-MODEL
370
    15
100
AcDbVertex
100
AcDb2dVertex
 10
71.44802303575509
 20
149.6074173825492
 30
0.0
  0
VERTEX
  5
1E0
330
1DB
100
AcDbEntity
  8
01-MODEL
370
    15
100
AcDbVertex
100
AcDb2dVertex
 10
71.42448865701509
 20
149.6148889623939
 30
0.0
  0
VERTEX
  5
1E1
330
1DB
100
AcDbEntity
  8
01-MODEL
370
    15
100
AcDbVertex
100
AcDb2dVertex
 10
71.4017103927374
 20
149.6204559272584
 30
0.0
  0
VERTEX
  5
1E2
330
1DB
100
AcDbEntity
  8
01-MODEL
370
    15
100
AcDbVertex
100
AcDb2dVertex
 10
71.38019990566282
 20
149.6239425304049
 30
0.0
  0
VERTEX
  5
1E3
330
1DB
100
AcDbEntity
  8
01-MODEL
370
    15
100
AcDbVertex
100
AcDb2dVertex
 10
71.3594712426282
 20
149.6253108966178
 30
0.0
  0
VERTEX
  5
1E4
330
1DB
100
AcDbEntity
  8
01-MODEL
370
    15
100
AcDbVertex
100
AcDb2dVertex
 10
71.33857652101044
 20
149.6247321445269
 30
0.0
  0
VERTEX
  5
1E5
330
1DB
100
AcDbEntity
  8
01-MODEL
370
    15
100
AcDbVertex
100
AcDb2dVertex
 10
71.31794437425888
 20
149.6222805686482
 30
0.0
  0
VERTEX
  5
1E6
330
1DB
100
AcDbEntity
  8
01-MODEL
370
    15
100
AcDbVertex
100
AcDb2dVertex
 10
71.29801397253507
 20
149.6180287814734
 30
0.0
  0
VERTEX
  5
1E7
330
1DB
100
AcDbEntity
  8
01-MODEL
370
    15
100
AcDbVertex
100
AcDb2dVertex
 10
71.27922406453198
 20
149.6120506127936
 30
0.0
  0
VERTEX
  5
1E8
330
1DB
100
AcDbEntity
  8
01-MODEL
370
    15
100
AcDbVertex
100
AcDb2dVertex
 10
71.2620129774741
 20
149.6044201351079
 30
0.0
  0
VERTEX
  5
1E9
330
1DB
100
AcDbEntity
  8
01-MODEL
370
    15
100
AcDbVertex
100
AcDb2dVertex
 10
71.24619568669638
 20
149.5948901200952
 30
0.0
  0
VERTEX
  5
1EA
330
1DB
100
AcDbEntity
  8
01-MODEL
370
    15
100
AcDbVertex
100
AcDb2dVertex
 10
71.23090818180457
 20
149.5830381032903
 30
0.0
  0
VERTEX
  5
1EB
330
1DB
100
AcDbEntity
  8
01-MODEL
370
    15
100
AcDbVertex
100
AcDb2dVertex
 10
71.21643706136829
 20
149.5691673350666
 30
0.0
  0
VERTEX
  5
1EC
330
1DB
100
AcDbEntity
  8
01-MODEL
370
    15
100
AcDbVertex
100
AcDb2dVertex
 10
71.2031017984995
 20
149.5536011182926
 30
0.0
  0
VERTEX
  5
1ED
330
1DB
100
AcDbEntity
  8
01-MODEL
370
    15
100
AcDbVertex
100
AcDb2dVertex
 10
71.19122144484127
 20
149.5366620239524
 30
0.0
  0
VERTEX
  5
1EE
330
1DB
100
AcDbEntity
  8
01-MODEL
370
    15
100
AcDbVertex
100
AcDb2dVertex
 10
71.1811154735053
 20
149.5186723803223
 30
0.0
  0
VERTEX
  5
1EF
330
1DB
100
AcDbEntity
  8
01-MODEL
370
    15
100
AcDbVertex
100
AcDb2dVertex
 10
71.17274173764314
 20
149.4992271503297
 30
0.0
  0
VERTEX
  5
1F0
330
1DB
100
AcDbEntity
  8
01-MODEL
370
    15
100
AcDbVertex
100
AcDb2dVertex
 10
71.16561892024479
 20
149.4773911134103
 30
0.0
  0
VERTEX
  5
1F1
330
1DB
100
AcDbEntity
  8
01-MODEL
370
    15
100
AcDbVertex
100
AcDb2dVertex
 10
71.15985828899032
 20
149.4537054164748
 30
0.0
  0
VERTEX
  5
1F2
330
1DB
100
AcDbEntity
  8
01-MODEL
370
    15
100
AcDbVertex
100
AcDb2dVertex
 10
71.15558586295685
 20
149.4287494920907
 30
0.0
  0
VERTEX
  5
1F3
330
1DB
100
AcDbEntity
  8
01-MODEL
370
    15
100
AcDbVertex
100
AcDb2dVertex
 10
71.15292976856368
 20
149.4030986355116
 30
0.0
  0
VERTEX
  5
1F4
330
1DB
100
AcDbEntity
  8
01-MODEL
370
    15
100
AcDbVertex
100
AcDb2dVertex
 10
71.15201602488797
 20
149.3773313047133
 30
0.0
  0
SEQEND
  5
1F5
330
1DB
100
AcDbEntity
  8
01-MODEL
370
    15
  0
ELLIPSE
  5
1F6
330
2
100
AcDbEntity
  8
01-MODEL
370
    15
100
AcDbEllipse
 10
70.82879256858364
 20
149.7670608789537
 30
0.0
 11
0.7499999999999295
 21
0.0000000000001924
 31
0.0
210
0.0
220
0.0
230
1.0
 40
0.5758617009854836
 41
5.157950234328017
 42
5.497787143782141
  0
POLYLINE
  5
1F7
330
2
100
AcDbEntity
  8
01-MODEL
370
    15
100
AcDb2dPolyline
 66
     1
 10
0.0
 20
0.0
 30
0.0
 70
   128
  0
VERTEX
  5
1F8
330
1F7
100
AcDbEntity
  8
01-MODEL
370
    15
100
AcDbVertex
100
AcDb2dVertex
 10
56.64348562446353
 20
157.975427786002
 30
0.0
  0
VERTEX
  5
1F9
330
1F7
100
AcDbEntity
  8
01-MODEL
370
    15
100
AcDbVertex
100
AcDb2dVertex
 10
56.63458336712107
 20
157.9934866051844
 30
0.0
  0
VERTEX
  5
1FA
330
1F7
100
AcDbEntity
  8
01-MODEL
370
    15
100
AcDbVertex
100
AcDb2dVertex
 10
56.62541474169596
 20
158.011101877871
 30
0.0
  0
VERTEX
  5
1FB
330
1F7
100
AcDbEntity
  8
01-MODEL
370
    15
100
AcDbVertex
100
AcDb2dVertex
 10
56.61604971195686
 20
158.0281246475855
 30
0.0
  0
VERTEX
  5
1FC
330
1F7
100
AcDbEntity
  8
01-MODEL
370
    15
100
AcDbVertex
100
AcDb2dVertex
 10
56.60651188013888
 20
158.0444833344737
 30
0.0
  0
VERTEX
  5
1FD
330
1F7
100
AcDbEntity
  8
01-MODEL
370
    15
100
AcDbVertex
100
AcDb2dVertex
 10
56.59639157887442
 20
158.0608723958748
 30
0.0
  0
VERTEX
  5
1FE
330
1F7
100
AcDbEntity
  8
01-MODEL
370
    15
100
AcDbVertex
100
AcDb2dVertex
 10
56.58564750425204
 20
158.0773979701636
 30
0.0
  0
VERTEX
  5
1FF
330
1F7
100
AcDbEntity
  8
01-MODEL
370
    15
100
AcDbVertex
100
AcDb2dVertex
 10
56.57437322227528
 20
158.0939360056294
 30
0.0
  0
VERTEX
  5
200
330
1F7
100
AcDbEntity
  8
01-MODEL
370
    15
100
AcDbVertex
100
AcDb2dVertex
 10
56.56266314188506
 20
158.1103624524426
 30
0.0
  0
VERTEX
  5
201
330
1F7
100
AcDbEntity
  8
01-MODEL
370
    15
100
AcDbVertex
100
AcDb2dVertex
 10
56.5506108290849
 20
158.1265532588925
 30
0.0
  0
VERTEX
  5
202
330
1F7
100
AcDbEntity
  8
01-MODEL
370
    15
100
AcDbVertex
100
AcDb2dVertex
 10
56.53831069281544
 20
158.1423838878535
 30
0.0
  0
VERTEX
  5
203
330
1F7
100
AcDbEntity
  8
01-MODEL
370
    15
100
AcDbVertex
100
AcDb2dVertex
 10
56.52585629908046
 20
158.1577312622069
 30
0.0
  0
VERTEX
  5
204
330
1F7
100
AcDbEntity
  8
01-MODEL
370
    15
100
AcDbVertex
100
AcDb2dVertex
 10
56.51334289975761
 20
158.1724698721159
 30
0.0
  0
VERTEX
  5
205
330
1F7
100
AcDbEntity
  8
01-MODEL
370
    15
100
AcDbVertex
100
AcDb2dVertex
 10
56.5008640608505
 20
158.186476640462
 30
0.0
  0
VERTEX
  5
206
330
1F7
100
AcDbEntity
  8
01-MODEL
370
    15
100
AcDbVertex
100
AcDb2dVertex
 10
56.48849901843435
 20
158.1996416151441
 30
0.0
  0
VERTEX
  5
207
330
1F7
100
AcDbEntity
  8
01-MODEL
370
    15
100
AcDbVertex
100
AcDb2dVertex
 10
56.47579090067135
 20
158.2124315809091
 30
0.0
  0
VERTEX
  5
208
330
1F7
100
AcDbEntity
  8
01-MODEL
370
    15
100
AcDbVertex
100
AcDb2dVertex
 10
56.46255763317593
 20
158.2250566433711
 30
0.0
  0
VERTEX
  5
209
330
1F7
100
AcDbEntity
  8
01-MODEL
370
    15
100
AcDbVertex
100
AcDb2dVertex
 10
56.4489096406911
 20
158.2374278737546
 30
0.0
  0
VERTEX
  5
20A
330
1F7
100
AcDbEntity
  8
01-MODEL
370
    15
100
AcDbVertex
100
AcDb2dVertex
 10
56.4349556620861
 20
158.2494568268181
 30
0.0
  0
VERTEX
  5
20B
330
1F7
100
AcDbEntity
  8
01-MODEL
370
    15
100
AcDbVertex
100
AcDb2dVertex
 10
56.42080612210406
 20
158.2610545737866
 30
0.0
  0
VERTEX
  5
20C
330
1F7
100
AcDbEntity
  8
01-MODEL
370
    15
100
AcDbVertex
100
AcDb2dVertex
 10
56.40656975961405
 20
158.2721321821223
 30
0.0
  0
VERTEX
  5
20D
330
1F7
100
AcDbEntity
  8
01-MODEL
370
    15
100
AcDbVertex
100
AcDb2dVertex
 10
56.39235784229615
 20
158.2826007249308
 30
0.0
  0
VERTEX
  5
20E
330
1F7
100
AcDbEntity
  8
01-MODEL
370
    15
100
AcDbVertex
100
AcDb2dVertex
 10
56.37827910901954
 20
158.2923717569708
 30
0.0
  0
VERTEX
  5
20F
330
1F7
100
AcDbEntity
  8
01-MODEL
370
    15
100
AcDbVertex
100
AcDb2dVertex
 10
56.36444398452737
 20
158.3013558621707
 30
0.0
  0
VERTEX
  5
210
330
1F7
100
AcDbEntity
  8
01-MODEL
370
    15
100
AcDbVertex
100
AcDb2dVertex
 10
56.35096120768871
 20
158.3094645952891
 30
0.0
  0
SEQEND
  5
211
330
1F7
100
AcDbEntity
  8
01-MODEL
370
    15
  0
ELLIPSE
  5
212
330
2
100
AcDbEntity
  8
01-MODEL
370
    15
100
AcDbEllipse
 10
56.50988024955085
 20
170.0660717044723
 30
0.0
 11
-1.174999999999995
 21
-0.0000000000003014
 31
0.0
210
0.0
220
0.0
230
1.0
 40
0.5758617009854837
 41
3.446201843843323
 42
7.968173026219022
  0
ELLIPSE
  5
213
330
2
100
AcDbEntity
  8
01-MODEL
370
    15
100
AcDbEllipse
 10
60.04541415548303
 20
172.1020502734355
 30
0.0
 11
-1.174999999999998
 21
-0.0000000000003014
 31
0.0
210
0.0
220
0.0
230
1.0
 40
0.5758617009854837
 41
4.846826113215355
 42
6.819588418412165
  0
ELLIPSE
  5
214
330
2
100
AcDbEntity
  8
01-MODEL
370
    15
100
AcDbEllipse
 10
60.39896718230271
 20
172.5092457777448
 30
0.0
 11
-1.250000000000009
 21
-0.0000000000003208
 31
0.0
210
0.0
220
0.0
230
1.0
 40
0.5758617009854836
 41
4.468615205786903
 42
5.497787143782135
  0
LINE
  5
215
330
2
100
AcDbEntity
  8
01-MODEL
370
    15
100
AcDbLine
 10
59.51508370581938
 20
173.0182404199851
 30
0.0
 11
58.15240101365677
 21
172.2335236469725
 31
0.0
  0
ELLIPSE
  5
216
330
2
100
AcDbEntity
  8
01-MODEL
370
    15
100
AcDbEllipse
 10
56.15632649518345
 20
172.3056479208475
 30
0.0
 11
1.999999999999999
 21
0.000000000000513
 31
0.0
210
0.0
220
0.0
230
1.0
 40
0.5758617009854836
 41
4.775052895968719
 42
6.220521391595548
  0
LINE
  5
217
330
2
100
AcDbEntity
  8
01-MODEL
370
    15
100
AcDbLine
 10
56.2815723202701
 20
171.1561850533456
 30
0.0
 11
54.91888962810752
 21
170.371468280333
 31
0.0
  0
ELLIPSE
  5
218
330
2
100
AcDbEntity
  8
01-MODEL
370
    15
100
AcDbEllipse
 10
55.8027731045908
 20
169.8624736380927
 30
0.0
 11
-1.249999999999998
 21
-0.0000000000003205
 31
0.0
210
0.0
220
0.0
230
1.0
 40
0.5758617009854833
 41
5.497787143782124
 42
7.068583470577047
  0
LINE
  5
219
330
2
100
AcDbEntity
  8
01-MODEL
370
    15
100
AcDbLine
 10
54.91888962810775
 20
169.3534789958519
 30
0.0
 11
56.35096133743482
 21
168.5288037453861
 31
0.0
  0
ELLIPSE
  5
21A
330
2
100
AcDbEntity
  8
01-MODEL
370
    15
100
AcDbEllipse
 10
74.18754836500349
 20
159.8861796740569
 30
0.0
 11
1.175
 21
0.0000000000002316
 31
0.0
210
0.0
220
0.0
230
1.0
 40
0.5758617009854836
 41
0.0000000000002072
 42
6.283185307179585
  0
ELLIPSE
  5
21B
330
2
100
AcDbEntity
  8
01-MODEL
370
    15
100
AcDbEllipse
 10
77.72308227093571
 20
161.9221582430201
 30
0.0
 11
1.175
 21
0.0000000000002316
 31
0.0
210
0.0
220
0.0
230
1.0
 40
0.5758617009854836
 41
0.0000000000002072
 42
6.283185307179585
  0
LINE
  5
21C
330
2
100
AcDbEntity
  8
01-MODEL
370
    15
100
AcDbLine
 10
72.95011149792729
 20
158.9699893180235
 30
0.0
 11
71.51804127706881
 21
159.7946637113373
 31
0.0
  0
ELLIPSE
  5
21D
330
2
100
AcDbEntity
  8
01-MODEL
370
    15
100
AcDbEllipse
 10
73.83399497441034
 20
159.4789839602644
 30
0.0
 11
-1.250000000000004
 21
-0.0000000000002465
 31
0.0
210
0.0
220
0.0
230
1.0
 40
0.5758617009854836
 41
0.7853981633976908
 42
2.35619449019258
  0
LINE
  5
21E
330
2
100
AcDbEntity
  8
01-MODEL
370
    15
100
AcDbLine
 10
76.0805611430562
 20
159.7547060910367
 30
0.0
 11
74.71787845089369
 21
158.969989318024
 31
0.0
  0
ELLIPSE
  5
21F
330
2
100
AcDbEntity
  8
01-MODEL
370
    15
100
AcDbEllipse
 10
78.07663566152959
 20
159.6825818171617
 30
0.0
 11
-1.999999999999999
 21
-0.0000000000005129
 31
0.0
210
0.0
220
0.0
230
1.0
 40
0.5758617009854836
 41
4.775052895968719
 42
6.220521391595565
  0
LINE
  5
220
330
2
100
AcDbEntity
  8
01-MODEL
370
    15
100
AcDbLine
 10
79.31407252860555
 20
161.6167614576762
 30
0.0
 11
77.95138983644294
 21
160.8320446846635
 31
0.0
  0
ELLIPSE
  5
221
330
2
100
AcDbEntity
  8
01-MODEL
370
    15
100
AcDbEllipse
 10
78.43018905212227
 20
162.1257560999165
 30
0.0
 11
1.250000000000002
 21
0.0000000000003207
 31
0.0
210
0.0
220
0.0
230
1.0
 40
0.5758617009854836
 41
5.497787143782135
 42
7.068583470577037
  0
LINE
  5
222
330
2
100
AcDbEntity
  8
01-MODEL
370
    15
100
AcDbLine
 10
77.88200230774684
 20
163.459425135471
 30
0.0
 11
79.31407252860525
 21
162.6347507421573
 31
0.0
  0
LINE
  5
223
330
2
100
AcDbEntity
  8
01-MODEL
370
    15
100
AcDbLine
 10
71.15201587328463
 20
158.9835098169114
 30
0.0
 11
71.15201587328424
 21
160.4142172853856
 31
0.0
  0
LINE
  5
224
330
2
100
AcDbEntity
  8
01-MODEL
370
    15
100
AcDbLine
 10
71.15201587328463
 20
158.9835098169114
 30
0.0
 11
72.95011149792753
 21
157.9480554119706
 31
0.0
  0
LINE
  5
225
330
2
100
AcDbEntity
  8
01-MODEL
370
    15
100
AcDbLine
 10
72.95011149792729
 20
158.9699893180235
 30
0.0
 11
72.95011149792753
 21
157.9480554119706
 31
0.0
  0
ELLIPSE
  5
226
330
2
100
AcDbEntity
  8
01-MODEL
370
    15
100
AcDbEllipse
 10
78.43018905212248
 20
161.1038221938635
 30
0.0
 11
1.250000000000014
 21
0.0000000000003204
 31
0.0
210
0.0
220
0.0
230
1.0
 40
0.5758617009854836
 41
5.497787143782153
 42
6.283185307179584
  0
LINE
  5
227
330
2
100
AcDbEntity
  8
01-MODEL
370
    15
100
AcDbLine
 10
77.95138983644323
 20
159.8101107786105
 30
0.0
 11
79.31407252860582
 21
160.5948275516231
 31
0.0
  0
ELLIPSE
  5
228
330
2
100
AcDbEntity
  8
01-MODEL
370
    15
100
AcDbEllipse
 10
78.07663566152985
 20
158.6606479111087
 30
0.0
 11
-1.999999999999993
 21
-0.000000000000513
 31
0.0
210
0.0
220
0.0
230
1.0
 40
0.5758617009854833
 41
4.775052895968719
 42
6.220521391595556
  0
LINE
  5
229
330
2
100
AcDbEntity
  8
01-MODEL
370
    15
100
AcDbLine
 10
74.71787845089394
 20
157.948055411971
 30
0.0
 11
76.08056114305657
 21
158.7327721849837
 31
0.0
  0
ELLIPSE
  5
22A
330
2
100
AcDbEntity
  8
01-MODEL
370
    15
100
AcDbEllipse
 10
73.83399497441063
 20
158.4570500542113
 30
0.0
 11
1.250000000000001
 21
0.0000000000003952
 31
0.0
210
0.0
220
0.0
230
1.0
 40
0.5758617009854837
 41
3.926990816987006
 42
5.497787143781897
  0
ELLIPSE
  5
22B
330
2
100
AcDbEntity
  8
01-MODEL
370
    15
100
AcDbEllipse
 10
74.18754836500373
 20
158.8642457680039
 30
0.0
 11
-1.175
 21
-0.0000000000003714
 31
0.0
210
0.0
220
0.0
230
1.0
 40
0.5758617009854833
 41
3.997484904459951
 42
5.427293056309007
  0
ELLIPSE
  5
22C
330
2
100
AcDbEntity
  8
01-MODEL
370
    15
100
AcDbEllipse
 10
77.72308227093599
 20
160.9002243369671
 30
0.0
 11
-1.174999999999998
 21
-0.0000000000003715
 31
0.0
210
0.0
220
0.0
230
1.0
 40
0.5758617009854837
 41
3.99748490445997
 42
5.427293056309038
  0
LINE
  5
22D
330
2
100
AcDbEntity
  8
01-MODEL
370
    15
100
AcDbLine
 10
76.0805611430562
 20
159.7547060910367
 30
0.0
 11
76.08056114305657
 21
158.7327721849837
 31
0.0
  0
LINE
  5
22E
330
2
100
AcDbEntity
  8
01-MODEL
370
    15
100
AcDbLine
 10
74.71787845089369
 20
158.969989318024
 30
0.0
 11
74.71787845089394
 21
157.948055411971
 31
0.0
  0
LINE
  5
22F
330
2
100
AcDbEntity
  8
01-MODEL
370
    15
100
AcDbLine
 10
77.95138983644294
 20
160.8320446846635
 30
0.0
 11
77.95138983644323
 21
159.8101107786105
 31
0.0
  0
LINE
  5
230
330
2
100
AcDbEntity
  8
01-MODEL
370
    15
100
AcDbLine
 10
79.31407252860555
 20
161.6167614576762
 30
0.0
 11
79.31407252860582
 21
160.5948275516231
 31
0.0
  0
ELLIPSE
  5
231
330
2
100
AcDbEntity
  8
01-MODEL
370
    15
100
AcDbEllipse
 10
56.50988024955107
 20
169.0441377984193
 30
0.0
 11
-1.175000000000002
 21
-0.0000000000003013
 31
0.0
210
0.0
220
0.0
230
1.0
 40
0.5758617009854836
 41
4.53365511607449
 42
5.427293056309203
  0
LINE
  5
232
330
2
100
AcDbEntity
  8
01-MODEL
370
    15
100
AcDbLine
 10
54.91888962810775
 20
169.3534789958519
 30
0.0
 11
54.91888962810804
 21
168.3315450897989
 31
0.0
  0
LINE
  5
233
330
2
100
AcDbEntity
  8
01-MODEL
370
    15
100
AcDbLine
 10
54.91888962810804
 20
168.3315450897989
 30
0.0
 11
56.64376372603469
 21
167.3382561577816
 31
0.0
  0
ELLIPSE
  5
234
330
2
100
AcDbEntity
  8
01-MODEL
370
    15
100
AcDbEllipse
 10
55.80277310459107
 20
168.8405397320396
 30
0.0
 11
-1.25
 21
-0.0000000000003209
 31
0.0
210
0.0
220
0.0
230
1.0
 40
0.5758617009854837
 41
0.0
 42
0.785398163397452
  0
LINE
  5
235
330
2
100
AcDbEntity
  8
01-MODEL
370
    15
100
AcDbLine
 10
79.68018905212227
 20
162.1257560999169
 30
0.0
 11
79.68018905212248
 21
161.1038221938638
 31
0.0
  0
LINE
  5
236
330
2
100
AcDbEntity
  8
01-MODEL
370
    15
100
AcDbLine
 10
54.5527731045908
 20
169.8624736380924
 30
0.0
 11
54.55277310459107
 21
168.8405397320393
 31
0.0
  0
ELLIPSE
  5
237
330
2
100
AcDbEntity
  8
01-MODEL
370
    15
100
AcDbEllipse
 10
76.83920020866796
 20
154.6589319146654
 30
0.0
 11
0.7499999999999984
 21
0.0000000000001918
 31
0.0
210
0.0
220
0.0
230
1.0
 40
0.5758617009854837
 41
5.837624053236292
 42
6.283185307179616
  0
LINE
  5
238
330
2
100
AcDbEntity
  8
01-MODEL
370
    15
100
AcDbLine
 10
71.35912265447386
 20
148.4806075437987
 30
0.0
 11
71.35912265447358
 21
149.4616640936095
 31
0.0
  0
LINE
  5
239
330
2
100
AcDbEntity
  8
01-MODEL
370
    15
100
AcDbLine
 10
56.86343364014764
 20
156.2173261058516
 30
0.0
 11
56.86343364014703
 21
158.6290901241367
 31
0.0
  0
ELLIPSE
  5
23A
330
2
100
AcDbEntity
  8
01-MODEL
370
    15
100
AcDbEllipse
 10
57.39376372603685
 20
158.9344869094812
 30
0.0
 11
-0.749999999999999
 21
-0.0000000000001925
 31
0.0
210
0.0
220
0.0
230
1.0
 40
0.5758617009854836
 41
0.0
 42
0.7853981633974279
  0
LINE
  5
23B
330
2
100
AcDbEntity
  8
01-MODEL
370
    15
100
AcDbLine
 10
71.35912265447074
 20
160.4985502789822
 30
0.0
 11
71.35912265447051
 21
161.4796068287931
 31
0.0
  0
ELLIPSE
  5
23C
330
2
100
AcDbEntity
  8
01-MODEL
370
    15
100
AcDbEllipse
 10
70.82879256858049
 20
161.7850036141373
 30
0.0
 11
-0.7500000000000018
 21
-0.0000000000001478
 31
0.0
210
0.0
220
0.0
230
1.0
 40
0.5758617009854836
 41
0.7853981633977094
 42
2.356194490192577
  0
LINE
  5
23D
330
2
100
AcDbEntity
  8
01-MODEL
370
    15
100
AcDbLine
 10
70.29846248269165
 20
157.8415221232441
 30
0.0
 11
70.29846248269068
 21
161.4796068287928
 31
0.0
  0
ELLIPSE
  5
23E
330
2
100
AcDbEntity
  8
01-MODEL
370
    15
100
AcDbEllipse
 10
70.82879256858148
 20
158.1469189085885
 30
0.0
 11
-0.7500000000000018
 21
-0.0000000000001478
 31
0.0
210
0.0
220
0.0
230
1.0
 40
0.5758617009854836
 41
0.7853981633976952
 42
2.356194490192591
  0
LINE
  5
23F
330
2
100
AcDbEntity
  8
01-MODEL
370
    15
100
AcDbLine
 10
71.35912265447142
 20
157.8415221232444
 30
0.0
 11
71.35912265447119
 21
158.8642449536117
 31
0.0
  0
LINE
  5
240
330
2
100
AcDbEntity
  8
01-MODEL
370
    15
100
AcDbLine
 10
70.29846248269165
 20
157.8415221232441
 30
0.0
 11
56.8634336401452
 21
165.5782406852973
 31
0.0
  0
LINE
  5
241
330
2
100
AcDbEntity
  8
01-MODEL
370
    15
100
AcDbLine
 10
56.86343364014703
 20
158.6290901241367
 30
0.0
 11
56.8634336401452
 21
165.5782406852973
 31
0.0
  0
LINE
  5
242
330
2
100
AcDbEntity
  8
01-MODEL
370
    15
100
AcDbLine
 10
70.29846248269341
 20
150.8923715620835
 30
0.0
 11
56.86343364014703
 21
158.6290901241367
 31
0.0
  0
LINE
  5
243
330
2
100
AcDbEntity
  8
01-MODEL
370
    15
100
AcDbLine
 10
70.29846248269341
 20
150.8923715620835
 30
0.0
 11
70.29846248269165
 21
157.8415221232441
 31
0.0
  0
ELLIPSE
  5
244
330
2
100
AcDbEntity
  8
01-MODEL
370
    15
100
AcDbEllipse
 10
57.39376372603508
 20
165.8836374706417
 30
0.0
 11
-0.749999999999999
 21
-0.0000000000001925
 31
0.0
210
0.0
220
0.0
230
1.0
 40
0.5758617009854836
 41
0.0
 42
0.7853981633974279
  0
LINE
  5
245
330
2
100
AcDbEntity
  8
01-MODEL
370
    15
100
AcDbLine
 10
77.36953029455621
 20
161.3026856904818
 30
0.0
 11
77.33588951909233
 21
161.2833132563006
 31
0.0
  0
LINE
  5
246
330
2
100
AcDbEntity
  8
01-MODEL
370
    15
100
AcDbLine
 10
74.30429651506584
 20
159.5375349523052
 30
0.0
 11
73.80035561316012
 21
159.2473346873374
 31
0.0
  0
LINE
  5
247
330
2
100
AcDbEntity
  8
01-MODEL
370
    15
100
AcDbLine
 10
72.24711609857187
 20
158.3528835384282
 30
0.0
 11
71.35912265447142
 21
157.8415221232444
 31
0.0
  0
LINE
  5
248
330
2
100
AcDbEntity
  8
01-MODEL
370
    15
100
AcDbLine
 10
77.36953029455621
 20
161.3026856904818
 30
0.0
 11
77.36953029455616
 21
161.5455045465453
 31
0.0
  0
ELLIPSE
  5
249
330
2
100
AcDbEntity
  8
01-MODEL
370
    15
100
AcDbEllipse
 10
76.83920020866621
 20
161.608082475826
 30
0.0
 11
0.7499999999999975
 21
0.0000000000001924
 31
0.0
210
0.0
220
0.0
230
1.0
 40
0.5758617009854837
 41
5.497787143782118
 42
6.200201114462298
  0
ELLIPSE
  5
24A
330
2
100
AcDbEntity
  8
01-MODEL
370
    15
100
AcDbEllipse
 10
76.83920020866529
 20
165.2461671813747
 30
0.0
 11
0.7499999999999996
 21
0.0000000000001924
 31
0.0
210
0.0
220
0.0
230
1.0
 40
0.5758617009854836
 41
5.497787143782118
 42
7.068583470577013
  0
LINE
  5
24B
330
2
100
AcDbEntity
  8
01-MODEL
370
    15
100
AcDbLine
 10
77.36953029455553
 20
163.9597138462196
 30
0.0
 11
77.36953029455524
 21
164.9407703960305
 31
0.0
  0
LINE
  5
24C
330
2
100
AcDbEntity
  8
01-MODEL
370
    15
100
AcDbLine
 10
63.93450145200867
 20
173.2882825287724
 30
0.0
 11
64.09979056604964
 21
173.1930988584065
 31
0.0
  0
LINE
  5
24D
330
2
100
AcDbEntity
  8
01-MODEL
370
    15
100
AcDbLine
 10
75.51059444172851
 20
166.6220539289502
 30
0.0
 11
77.36953029455512
 21
165.5515639667192
 31
0.0
  0
ELLIPSE
  5
24E
330
2
100
AcDbEntity
  8
01-MODEL
370
    15
100
AcDbEllipse
 10
70.82879256858324
 20
151.197768347428
 30
0.0
 11
-0.7500000000000028
 21
-0.0000000000001477
 31
0.0
210
0.0
220
0.0
230
1.0
 40
0.5758617009854836
 41
0.7853981633976011
 42
2.016357580738308
  0
LINE
  5
24F
330
2
100
AcDbEntity
  8
01-MODEL
370
    15
100
AcDbLine
 10
70.29846248269404
 20
148.4806075437984
 30
0.0
 11
70.29846248269341
 21
150.8923715620835
 31
0.0
  0
ELLIPSE
  5
250
330
2
100
AcDbEntity
  8
01-MODEL
370
    15
100
AcDbEllipse
 10
63.40417136611891
 20
172.9828857434279
 30
0.0
 11
0.7500000000000017
 21
0.0000000000001923
 31
0.0
210
0.0
220
0.0
230
1.0
 40
0.5758617009854837
 41
0.7853981633974572
 42
1.920212263605938
  0
LINE
  5
251
330
2
100
AcDbEntity
  8
01-MODEL
370
    15
100
AcDbLine
 10
56.8634336401452
 20
165.5782406852973
 30
0.0
 11
56.8634336401443
 21
169.216325390846
 31
0.0
  0
ELLIPSE
  5
252
330
2
100
AcDbEntity
  8
01-MODEL
370
    15
100
AcDbEllipse
 10
57.39376372603412
 20
169.5217221761905
 30
0.0
 11
-0.7500000000000036
 21
-0.0000000000001925
 31
0.0
210
0.0
220
0.0
230
1.0
 40
0.5758617009854836
 41
5.497787143782135
 42
7.068583470577043
  0
LINE
  5
253
330
2
100
AcDbEntity
  8
01-MODEL
370
    15
100
AcDbLine
 10
77.36953029455797
 20
154.3535351293212
 30
0.0
 11
77.36953029455661
 21
159.7379868125454
 31
0.0
  0
LINE
  5
254
330
2
100
AcDbEntity
  8
01-MODEL
370
    15
100
AcDbLine
 10
77.36953029455621
 20
161.2768780334418
 30
0.0
 11
77.36953029455621
 21
161.3026856904818
 31
0.0
  0
LINE
  5
255
330
2
100
AcDbEntity
  8
01-MODEL
370
    15
100
AcDbLine
 10
71.35912265447323
 20
150.8923715620838
 30
0.0
 11
71.35912265447142
 21
157.8415221232444
 31
0.0
  0
LINE
  5
256
330
2
100
AcDbEntity
  8
01-MODEL
370
    15
100
AcDbLine
 10
77.36953029455524
 20
164.9407703960305
 30
0.0
 11
71.35912265447051
 21
161.4796068287931
 31
0.0
  0
LINE
  5
257
330
2
100
AcDbEntity
  8
01-MODEL
370
    15
100
AcDbLine
 10
56.86343364014412
 20
169.8271189615347
 30
0.0
 11
58.76544933458522
 21
170.9224169546373
 31
0.0
  0
LINE
  5
258
330
2
100
AcDbEntity
  8
01-MODEL
370
    15
100
AcDbLine
 10
66.9750605357966
 20
163.3934267269886
 30
0.0
 11
62.59099705539045
 21
165.9180404598023
 31
0.0
  0
LINE
  5
259
330
2
100
AcDbEntity
  8
01-MODEL
370
    15
100
AcDbLine
 10
70.29846248269068
 20
161.4796068287928
 30
0.0
 11
66.9750605357966
 21
163.3934267269886
 31
0.0
  0
LINE
  5
25A
330
2
100
AcDbEntity
  8
01-MODEL
370
    15
100
AcDbLine
 10
59.33830581537185
 20
167.7911407700588
 30
0.0
 11
56.8634336401443
 21
169.216325390846
 31
0.0
  0
LINE
  5
25B
330
2
100
AcDbEntity
  8
01-MODEL
370
    15
100
AcDbLine
 10
77.5892002086681
 20
154.4306334958227
 30
0.0
 11
77.58920020866799
 21
154.6589319146655
 31
0.0
  0
LINE
  5
25C
330
2
100
AcDbEntity
  8
01-MODEL
370
    15
100
AcDbLine
 10
56.64376372603746
 20
156.5227228911959
 30
0.0
 11
56.64376372603685
 21
158.934486909481
 31
0.0
  0
LINE
  5
25D
330
2
100
AcDbEntity
  8
01-MODEL
370
    15
100
AcDbLine
 10
56.64376372603685
 20
158.934486909481
 30
0.0
 11
56.64376372603508
 21
165.8836374706415
 31
0.0
  0
LINE
  5
25E
330
2
100
AcDbEntity
  8
01-MODEL
370
    15
100
AcDbLine
 10
77.5892002086657
 20
163.7933751337923
 30
0.0
 11
77.58920020866529
 21
165.2461671813749
 31
0.0
  0
LINE
  5
25F
330
2
100
AcDbEntity
  8
01-MODEL
370
    15
100
AcDbLine
 10
56.64376372603508
 20
165.8836374706415
 30
0.0
 11
56.64376372603413
 21
169.5217221761903
 31
0.0
  0
LINE
  5
260
330
2
100
AcDbEntity
  8
01-MODEL
370
    15
100
AcDbLine
 10
77.58920020866799
 20
154.6589319146655
 30
0.0
 11
77.58920020866671
 21
159.7776424867491
 31
0.0
  0
LINE
  5
261
330
2
100
AcDbEntity
  8
01-MODEL
370
    15
100
AcDbLine
 10
77.58920020866631
 20
161.2499274254814
 30
0.0
 11
77.58920020866627
 21
161.5724551545057
 31
0.0
  0
LINE
  5
262
330
2
100
AcDbEntity
  8
01-MODEL
370
    15
100
AcDbLine
 10
72.38908403628032
 20
149.0737212156697
 30
0.0
 11
71.35912265447386
 21
148.4806075437987
 31
0.0
  0
ELLIPSE
  5
263
330
2
100
AcDbEntity
  8
01-MODEL
370
    15
100
AcDbEllipse
 10
57.39376372603747
 20
156.522722891196
 30
0.0
 11
-0.749999999999999
 21
-0.0000000000001925
 31
0.0
210
0.0
220
0.0
230
1.0
 40
0.5758617009854836
 41
0.0
 42
0.7853981633974279
  0
ELLIPSE
  5
264
330
2
100
AcDbEntity
  8
01-MODEL
370
    15
100
AcDbEllipse
 10
70.82879256858387
 20
148.7860043291428
 30
0.0
 11
-0.7500000000000018
 21
-0.0000000000001478
 31
0.0
210
0.0
220
0.0
230
1.0
 40
0.5758617009854836
 41
0.7853981633976952
 42
2.356194490192591
  0
LINE
  5
265
330
2
100
AcDbEntity
  8
01-MODEL
370
    15
100
AcDbLine
 10
70.29846248269404
 20
148.4806075437984
 30
0.0
 11
56.86343364014764
 21
156.2173261058516
 31
0.0
  0
LINE
  5
266
330
2
100
AcDbEntity
  8
01-MODEL
370
    15
100
AcDbLine
 10
71.25305522308234
 20
148.2964235778062
 30
0.0
 11
71.35912265447386
 21
148.4806075437987
 31
0.0
  0
LINE
  5
267
330
2
100
AcDbEntity
  8
01-MODEL
370
    15
100
AcDbLine
 10
70.4045270856585
 20
148.296423577806
 30
0.0
 11
70.29846248269404
 21
148.4806075437984
 31
0.0
  0
LINE
  5
268
330
2
100
AcDbEntity
  8
01-MODEL
370
    15
100
AcDbLine
 10
71.96016341848245
 20
148.4163724894724
 30
0.0
 11
72.7026241245146
 21
148.8439288033461
 31
0.0
  0
LINE
  5
269
330
2
100
AcDbEntity
  8
01-MODEL
370
    15
100
AcDbLine
 10
56.96949980542181
 20
156.0331412401849
 30
0.0
 11
56.86343364014764
 21
156.2173261058516
 31
0.0
  0
LINE
  5
26A
330
2
100
AcDbEntity
  8
01-MODEL
370
    15
100
AcDbLine
 10
58.17158118534301
 20
155.0536626242859
 30
0.0
 11
69.69742030447182
 21
148.4163733038632
 31
0.0
  0
LINE
  5
26B
330
2
100
AcDbEntity
  8
01-MODEL
370
    15
100
AcDbLine
 10
56.83220631515347
 20
156.1557715670654
 30
0.0
 11
56.69181696243235
 21
156.3706139078486
 31
0.0
  0
LINE
  5
26C
330
2
100
AcDbEntity
  8
01-MODEL
370
    15
100
AcDbLine
 10
73.05617751510793
 20
148.64033094645
 30
0.0
 11
73.05617751510793
 21
148.6961531172129
 31
0.0
  0
LINE
  5
26D
330
2
100
AcDbEntity
  8
01-MODEL
370
    15
100
AcDbLine
 10
72.7026241245146
 20
148.8439288033461
 30
0.0
 11
72.72391853481654
 21
148.8809067760204
 31
0.0
  0
LINE
  5
26E
330
2
100
AcDbEntity
  8
01-MODEL
370
    15
100
AcDbLine
 10
73.05617751510793
 20
148.64033094645
 30
0.0
 11
72.7026241245146
 21
148.8439288033461
 31
0.0
  0
LINE
  5
26F
330
2
100
AcDbEntity
  8
01-MODEL
370
    15
100
AcDbLine
 10
73.11154920560065
 20
148.6722173823236
 30
0.0
 11
73.05617751510793
 21
148.64033094645
 31
0.0
  0
ELLIPSE
  5
270
330
2
100
AcDbEntity
  8
01-MODEL
370
    15
100
AcDbEllipse
 10
78.43018905212487
 20
151.9064170393863
 30
0.0
 11
1.250000000000001
 21
0.0000000000003206
 31
0.0
210
0.0
220
0.0
230
1.0
 40
0.5758617009854837
 41
5.497787143782143
 42
6.283185307179572
  0
LINE
  5
271
330
2
100
AcDbEntity
  8
01-MODEL
370
    15
100
AcDbLine
 10
77.95138983644562
 20
150.6127056241331
 30
0.0
 11
79.31407252860816
 21
151.397422397146
 31
0.0
  0
ELLIPSE
  5
272
330
2
100
AcDbEntity
  8
01-MODEL
370
    15
100
AcDbEllipse
 10
78.07663566153222
 20
149.4632427566314
 30
0.0
 11
-2.0
 21
-0.000000000000513
 31
0.0
210
0.0
220
0.0
230
1.0
 40
0.5758617009854832
 41
4.775052895968729
 42
6.220521391595557
  0
LINE
  5
273
330
2
100
AcDbEntity
  8
01-MODEL
370
    15
100
AcDbLine
 10
74.71787845089631
 20
148.7506502574938
 30
0.0
 11
76.08056114305887
 21
149.5353670305065
 31
0.0
  0
ELLIPSE
  5
274
330
2
100
AcDbEntity
  8
01-MODEL
370
    15
100
AcDbEllipse
 10
73.83399497441295
 20
149.2596448997341
 30
0.0
 11
1.250000000000002
 21
0.0000000000003952
 31
0.0
210
0.0
220
0.0
230
1.0
 40
0.5758617009854836
 41
3.926990816987006
 42
5.497787143781897
  0
LINE
  5
275
330
2
100
AcDbEntity
  8
01-MODEL
370
    15
100
AcDbLine
 10
71.51804127707143
 20
149.5753246508071
 30
0.0
 11
72.95011149792991
 21
148.7506502574933
 31
0.0
  0
ELLIPSE
  5
276
330
2
100
AcDbEntity
  8
01-MODEL
370
    15
100
AcDbEllipse
 10
77.72308227093809
 20
152.7247530885429
 30
0.0
 11
0.8000000000000001
 21
0.0000000000001574
 31
0.0
210
0.0
220
0.0
230
1.0
 40
0.5758617009854836
 41
0.0000000000002142
 42
6.283185307179585
  0
ELLIPSE
  5
277
330
2
100
AcDbEntity
  8
01-MODEL
370
    15
100
AcDbEllipse
 10
74.18754836500589
 20
150.6887745195797
 30
0.0
 11
0.8000000000000001
 21
0.0000000000001574
 31
0.0
210
0.0
220
0.0
230
1.0
 40
0.5758617009854836
 41
0.0000000000002142
 42
6.283185307179585
  0
LINE
  5
278
330
2
100
AcDbEntity
  8
01-MODEL
370
    15
100
AcDbLine
 10
73.48044299803254
 20
152.1139587034617
 30
0.0
 11
71.35912265447323
 21
150.8923715620838
 31
0.0
  0
ELLIPSE
  5
279
330
2
100
AcDbEntity
  8
01-MODEL
370
    15
100
AcDbEllipse
 10
70.82879256858324
 20
151.197768347428
 30
0.0
 11
-0.7499999999999685
 21
-0.0000000000001477
 31
0.0
210
0.0
220
0.0
230
1.0
 40
0.5758617009854836
 41
2.016357580738386
 42
2.356194490192605
  0
LINE
  5
27A
330
2
100
AcDbEntity
  8
01-MODEL
370
    15
100
AcDbLine
 10
71.15201587328669
 20
150.8080385684872
 30
0.0
 11
72.95011149792968
 21
149.7725841635464
 31
0.0
  0
ELLIPSE
  5
27B
330
2
100
AcDbEntity
  8
01-MODEL
370
    15
100
AcDbEllipse
 10
73.83399497441267
 20
150.2815788057872
 30
0.0
 11
1.250000000000002
 21
0.0000000000003952
 31
0.0
210
0.0
220
0.0
230
1.0
 40
0.5758617009854836
 41
3.926990816987006
 42
5.497787143781897
  0
LINE
  5
27C
330
2
100
AcDbEntity
  8
01-MODEL
370
    15
100
AcDbLine
 10
74.717878450896
 20
149.7725841635468
 30
0.0
 11
76.0805611430586
 21
150.5573009365595
 31
0.0
  0
ELLIPSE
  5
27D
330
2
100
AcDbEntity
  8
01-MODEL
370
    15
100
AcDbEllipse
 10
78.07663566153194
 20
150.4851766626845
 30
0.0
 11
-2.0
 21
-0.000000000000513
 31
0.0
210
0.0
220
0.0
230
1.0
 40
0.5758617009854832
 41
4.775052895968719
 42
6.220521391595557
  0
LINE
  5
27E
330
2
100
AcDbEntity
  8
01-MODEL
370
    15
100
AcDbLine
 10
77.95138983644533
 20
151.6346395301863
 30
0.0
 11
79.31407252860785
 21
152.419356303199
 31
0.0
  0
ELLIPSE
  5
27F
330
2
100
AcDbEntity
  8
01-MODEL
370
    15
100
AcDbEllipse
 10
78.43018905212459
 20
152.9283509454393
 30
0.0
 11
1.250000000000004
 21
0.0000000000003206
 31
0.0
210
0.0
220
0.0
230
1.0
 40
0.5758617009854836
 41
5.497787143782135
 42
7.06858347057703
  0
LINE
  5
280
330
2
100
AcDbEntity
  8
01-MODEL
370
    15
100
AcDbLine
 10
79.31407252860764
 20
153.4373455876801
 30
0.0
 11
77.5159769039647
 21
154.4727999926209
 31
0.0
  0
ELLIPSE
  5
281
330
2
100
AcDbEntity
  8
01-MODEL
370
    15
100
AcDbEllipse
 10
76.83920020866811
 20
154.6589319146654
 30
0.0
 11
-0.7499999999999496
 21
-0.0000000000001477
 31
0.0
210
0.0
220
0.0
230
1.0
 40
0.5758617009854833
 41
2.356194490192665
 42
2.696031399646923
  0
LINE
  5
282
330
2
100
AcDbEntity
  8
01-MODEL
370
    15
100
AcDbLine
 10
77.36953029455797
 20
154.3535351293212
 30
0.0
 11
75.24820995099865
 21
153.1319479879433
 31
0.0
  0
LINE
  5
283
330
2
100
AcDbEntity
  8
01-MODEL
370
    15
100
AcDbLine
 10
74.717878450896
 20
149.7725841635468
 30
0.0
 11
74.71787845089631
 21
148.7506502574938
 31
0.0
  0
LINE
  5
284
330
2
100
AcDbEntity
  8
01-MODEL
370
    15
100
AcDbLine
 10
72.95011149792968
 20
149.7725841635464
 30
0.0
 11
72.95011149792991
 21
148.7506502574933
 31
0.0
  0
LINE
  5
285
330
2
100
AcDbEntity
  8
01-MODEL
370
    15
100
AcDbLine
 10
76.0805611430586
 20
150.5573009365595
 30
0.0
 11
76.08056114305887
 21
149.5353670305065
 31
0.0
  0
LINE
  5
286
330
2
100
AcDbEntity
  8
01-MODEL
370
    15
100
AcDbLine
 10
77.95138983644533
 20
151.6346395301863
 30
0.0
 11
77.95138983644562
 21
150.6127056241331
 31
0.0
  0
LINE
  5
287
330
2
100
AcDbEntity
  8
01-MODEL
370
    15
100
AcDbLine
 10
79.31407252860785
 20
152.419356303199
 30
0.0
 11
79.31407252860816
 21
151.397422397146
 31
0.0
  0
LINE
  5
288
330
2
100
AcDbEntity
  8
01-MODEL
370
    15
100
AcDbLine
 10
71.15201587328709
 20
149.377331100013
 30
0.0
 11
71.15201587328669
 21
150.8080385684872
 31
0.0
  0
LINE
  5
289
330
2
100
AcDbEntity
  8
01-MODEL
370
    15
100
AcDbLine
 10
54.91888962811036
 20
159.1341399353216
 30
0.0
 11
56.35096133743744
 21
158.3094646848558
 31
0.0
  0
ELLIPSE
  5
28A
330
2
100
AcDbEntity
  8
01-MODEL
370
    15
100
AcDbEllipse
 10
55.80277310459347
 20
159.6431345775624
 30
0.0
 11
-1.250000000000004
 21
-0.000000000000322
 31
0.0
210
0.0
220
0.0
230
1.0
 40
0.5758617009854836
 41
0.0
 42
0.7853981633974403
  0
ELLIPSE
  5
28B
330
2
100
AcDbEntity
  8
01-MODEL
370
    15
100
AcDbEllipse
 10
56.50988024955317
 20
160.8686665499951
 30
0.0
 11
-0.8
 21
-0.0000000000002052
 31
0.0
210
0.0
220
0.0
230
1.0
 40
0.5758617009854833
 41
4.544243426258433
 42
8.022127188100759
  0
ELLIPSE
  5
28C
330
2
100
AcDbEntity
  8
01-MODEL
370
    15
100
AcDbEllipse
 10
56.15632649518579
 20
163.1082427663704
 30
0.0
 11
-2.00000000000021
 21
-0.0000000000005131
 31
0.0
210
0.0
220
0.0
230
1.0
 40
0.5758617009854836
 41
1.633460242378946
 42
1.81699457472907
  0
LINE
  5
28D
330
2
100
AcDbEntity
  8
01-MODEL
370
    15
100
AcDbLine
 10
56.28157232027244
 20
161.9587798988685
 30
0.0
 11
54.91888962810985
 21
161.1740631258558
 31
0.0
  0
LINE
  5
28E
330
2
100
AcDbEntity
  8
01-MODEL
370
    15
100
AcDbLine
 10
54.91888962811013
 20
160.1560738413747
 30
0.0
 11
54.91888962811036
 21
159.1341399353216
 31
0.0
  0
ELLIPSE
  5
28F
330
2
100
AcDbEntity
  8
01-MODEL
370
    15
100
AcDbEllipse
 10
55.80277310459313
 20
160.6650684836155
 30
0.0
 11
-1.25
 21
-0.0000000000003204
 31
0.0
210
0.0
220
0.0
230
1.0
 40
0.5758617009854836
 41
5.497787143782143
 42
7.068583470577047
  0
LINE
  5
290
330
2
100
AcDbEntity
  8
01-MODEL
370
    15
100
AcDbLine
 10
54.91888962811013
 20
160.1560738413747
 30
0.0
 11
56.64376372603679
 21
159.1627849093574
 31
0.0
  0
LINE
  5
291
330
2
100
AcDbEntity
  8
01-MODEL
370
    15
100
AcDbLine
 10
79.68018905212459
 20
152.9283509454395
 30
0.0
 11
79.68018905212487
 21
151.9064170393866
 31
0.0
  0
LINE
  5
292
330
2
100
AcDbEntity
  8
01-MODEL
370
    15
100
AcDbLine
 10
54.55277310459318
 20
160.6650684836152
 30
0.0
 11
54.55277310459347
 21
159.6431345775621
 31
0.0
  0
LINE
  5
293
330
2
100
AcDbEntity
  8
01-MODEL
370
    15
100
AcDbLine
 10
75.42498664629544
 20
152.6229533457027
 30
0.0
 11
75.42498664629532
 21
153.0301490594952
 31
0.0
  0
LINE
  5
294
330
2
100
AcDbEntity
  8
01-MODEL
370
    15
100
AcDbLine
 10
75.24820995099865
 20
153.1319479879433
 30
0.0
 11
75.42498664629532
 21
153.0301490594952
 31
0.0
  0
LINE
  5
295
330
2
100
AcDbEntity
  8
01-MODEL
370
    15
100
AcDbLine
 10
74.5411031698122
 20
152.7247522741506
 30
0.0
 11
74.54110316981237
 21
152.113958703462
 31
0.0
  0
LINE
  5
296
330
2
100
AcDbEntity
  8
01-MODEL
370
    15
100
AcDbLine
 10
73.65721969332923
 20
152.0121597750136
 30
0.0
 11
73.48044299803254
 21
152.1139587034617
 31
0.0
  0
ELLIPSE
  5
297
330
2
100
AcDbEntity
  8
01-MODEL
370
    15
100
AcDbEllipse
 10
74.01077308392245
 20
152.2157576319099
 30
0.0
 11
-0.4999999999999993
 21
-0.0000000000000985
 31
0.0
210
0.0
220
0.0
230
1.0
 40
0.5758617009854837
 41
0.7853981633976863
 42
2.356194490192582
  0
LINE
  5
298
330
2
100
AcDbEntity
  8
01-MODEL
370
    15
100
AcDbLine
 10
75.42498664629544
 20
152.6229533457027
 30
0.0
 11
74.36432647451576
 21
152.0121597750138
 31
0.0
  0
ELLIPSE
  5
299
330
2
100
AcDbEntity
  8
01-MODEL
370
    15
100
AcDbEllipse
 10
75.07143325570211
 20
152.8265512025989
 30
0.0
 11
0.499999999999999
 21
0.0000000000001283
 31
0.0
210
0.0
220
0.0
230
1.0
 40
0.5758617009854837
 41
5.497787143782135
 42
7.06858347057703
  0
LINE
  5
29A
330
2
100
AcDbEntity
  8
01-MODEL
370
    15
100
AcDbLine
 10
75.24820995099865
 20
153.1319479879433
 30
0.0
 11
73.48044299803254
 21
152.1139587034617
 31
0.0
  0
LINE
  5
29B
330
2
100
AcDbEntity
  8
01-MODEL
370
    15
100
AcDbLine
 10
66.40937407894146
 20
173.4573150615478
 30
0.0
 11
67.11648196734822
 21
173.0501187101499
 31
0.0
  0
LINE
  5
29C
330
2
100
AcDbEntity
  8
01-MODEL
370
    15
100
AcDbLine
 10
67.39932467982292
 20
172.887240424633
 30
0.0
 11
67.64681205323824
 21
172.7447219248056
 31
0.0
  0
LINE
  5
29D
330
2
100
AcDbEntity
  8
01-MODEL
370
    15
100
AcDbLine
 10
67.92965476571293
 20
172.5818436392888
 30
0.0
 11
69.66206531895998
 21
171.5842147512913
 31
0.0
  0
LINE
  5
29E
330
2
100
AcDbEntity
  8
01-MODEL
370
    15
100
AcDbLine
 10
62.87384017300927
 20
171.4213364925846
 30
0.0
 11
66.40937407894146
 21
173.4573150615478
 31
0.0
  0
LINE
  5
29F
330
2
100
AcDbEntity
  8
01-MODEL
370
    15
100
AcDbLine
 10
59.33830581537153
 20
169.3853576635015
 30
0.0
 11
62.87384017300927
 21
171.4213364925846
 31
0.0
  0
LINE
  5
2A0
330
2
100
AcDbEntity
  8
01-MODEL
370
    15
100
AcDbLine
 10
62.59099705539004
 20
167.512257353245
 30
0.0
 11
59.33830581537153
 21
169.3853576635015
 31
0.0
  0
LINE
  5
2A1
330
2
100
AcDbEntity
  8
01-MODEL
370
    15
100
AcDbLine
 10
66.12653141302779
 20
169.5482361823281
 30
0.0
 11
62.59099705539004
 21
167.512257353245
 31
0.0
  0
LINE
  5
2A2
330
2
100
AcDbEntity
  8
01-MODEL
370
    15
100
AcDbLine
 10
69.66206531895998
 20
171.5842147512913
 30
0.0
 11
66.12653141302779
 21
169.5482361823281
 31
0.0
  0
LINE
  5
2A3
330
2
100
AcDbEntity
  8
01-MODEL
370
    15
100
AcDbLine
 10
67.11648196734822
 20
173.0501187101499
 30
0.0
 11
67.11648196734822
 21
172.9274866414234
 31
0.0
  0
LINE
  5
2A4
330
2
100
AcDbEntity
  8
01-MODEL
370
    15
100
AcDbLine
 10
67.11648196734822
 20
172.9274866414234
 30
0.0
 11
67.29284766588317
 21
172.8259243902698
 31
0.0
  0
LINE
  5
2A5
330
2
100
AcDbEntity
  8
01-MODEL
370
    15
100
AcDbLine
 10
67.64681205323824
 20
172.7447219248056
 30
0.0
 11
67.64681205323824
 21
172.6220898560793
 31
0.0
  0
LINE
  5
2A6
330
2
100
AcDbEntity
  8
01-MODEL
370
    15
100
AcDbLine
 10
67.64681205323824
 20
172.6220898560793
 30
0.0
 11
67.82317775177317
 21
172.5205276049255
 31
0.0
  0
LINE
  5
2A7
330
2
100
AcDbEntity
  8
01-MODEL
370
    15
100
AcDbLine
 10
67.92965476571293
 20
172.5818436392888
 30
0.0
 11
66.5861514297531
 21
171.8081715229628
 31
0.0
  0
LINE
  5
2A8
330
2
100
AcDbEntity
  8
01-MODEL
370
    15
100
AcDbLine
 10
67.64681205323824
 20
172.6220898560793
 30
0.0
 11
66.4097857312182
 21
171.9097337741166
 31
0.0
  0
LINE
  5
2A9
330
2
100
AcDbEntity
  8
01-MODEL
370
    15
100
AcDbLine
 10
66.30330871727846
 20
171.9710498084797
 30
0.0
 11
67.64681205323824
 21
172.7447219248056
 31
0.0
  0
LINE
  5
2AA
330
2
100
AcDbEntity
  8
01-MODEL
370
    15
100
AcDbLine
 10
66.5861514297531
 20
171.8081715229628
 30
0.0
 11
66.30330871727846
 21
171.9710498084797
 31
0.0
  0
ELLIPSE
  5
2AB
330
2
100
AcDbEntity
  8
01-MODEL
370
    15
100
AcDbEllipse
 10
61.49498194969742
 20
164.0398968860572
 30
0.0
 11
-4.990322115840166
 21
-8.665834361451354
 31
0.0
210
0.0
220
0.0
230
1.0
 40
0.578093115915639
 41
3.900054569894415
 42
3.950059779693159
  0
LINE
  5
2AC
330
2
100
AcDbEntity
  8
01-MODEL
370
    15
100
AcDbLine
 10
61.31820478623154
 20
172.1110136888126
 30
0.0
 11
60.9646513956382
 21
172.3146115457087
 31
0.0
  0
LINE
  5
2AD
330
2
100
AcDbEntity
  8
01-MODEL
370
    15
100
AcDbLine
 10
61.31820478623142
 20
172.5182094296779
 30
0.0
 11
61.67175817682475
 21
172.3146115727818
 31
0.0
  0
LINE
  5
2AE
330
2
100
AcDbEntity
  8
01-MODEL
370
    15
100
AcDbLine
 10
61.31820478623142
 20
172.5182094296779
 30
0.0
 11
61.31820478623147
 21
172.398132581498
 31
0.0
  0
LINE
  5
2AF
330
2
100
AcDbEntity
  8
01-MODEL
370
    15
100
AcDbLine
 10
61.56563552207103
 20
172.2556466970814
 30
0.0
 11
61.31820478623147
 21
172.398132581498
 31
0.0
  0
ELLIPSE
  5
2B0
330
2
100
AcDbEntity
  8
01-MODEL
370
    15
100
AcDbEllipse
 10
61.14142855910408
 20
164.2434947429534
 30
0.0
 11
4.990322115840686
 21
8.665834361451057
 31
0.0
210
0.0
220
0.0
230
1.0
 40
0.578093115915639
 41
0.7584619163048796
 42
0.8084671261036103
  0
LINE
  5
2B1
330
2
100
AcDbEntity
  8
01-MODEL
370
    15
100
AcDbLine
 10
61.31820478623147
 20
172.398132581498
 30
0.0
 11
61.06890977998778
 21
172.2545731351551
 31
0.0
  0
ELLIPSE
  5
2B2
330
2
100
AcDbEntity
  8
01-MODEL
370
    15
100
AcDbEllipse
 10
62.55564212147735
 20
163.4291033153688
 30
0.0
 11
-4.990322115840166
 21
-8.665834361451354
 31
0.0
210
0.0
220
0.0
230
1.0
 40
0.578093115915639
 41
3.900054569894415
 42
3.950059779693159
  0
LINE
  5
2B3
330
2
100
AcDbEntity
  8
01-MODEL
370
    15
100
AcDbLine
 10
62.37886495801153
 20
171.500220118124
 30
0.0
 11
62.02531156741819
 21
171.7038179750203
 31
0.0
  0
LINE
  5
2B4
330
2
100
AcDbEntity
  8
01-MODEL
370
    15
100
AcDbLine
 10
62.37886495801141
 20
171.9074158589895
 30
0.0
 11
62.73241834860474
 21
171.7038180020934
 31
0.0
  0
LINE
  5
2B5
330
2
100
AcDbEntity
  8
01-MODEL
370
    15
100
AcDbLine
 10
62.37886495801141
 20
171.9074158589895
 30
0.0
 11
62.37886495801148
 21
171.7873390108096
 31
0.0
  0
LINE
  5
2B6
330
2
100
AcDbEntity
  8
01-MODEL
370
    15
100
AcDbLine
 10
62.62629569385102
 20
171.644853126393
 30
0.0
 11
62.37886495801148
 21
171.7873390108096
 31
0.0
  0
ELLIPSE
  5
2B7
330
2
100
AcDbEntity
  8
01-MODEL
370
    15
100
AcDbEllipse
 10
62.20208873088402
 20
163.632701172265
 30
0.0
 11
4.990322115840686
 21
8.665834361451057
 31
0.0
210
0.0
220
0.0
230
1.0
 40
0.578093115915639
 41
0.7584619163048796
 42
0.8084671261036103
  0
LINE
  5
2B8
330
2
100
AcDbEntity
  8
01-MODEL
370
    15
100
AcDbLine
 10
62.37886495801148
 20
171.7873390108096
 30
0.0
 11
62.12956995176772
 21
171.6437795644668
 31
0.0
  0
LINE
  5
2B9
330
2
100
AcDbEntity
  8
01-MODEL
370
    15
100
AcDbLine
 10
62.90919504390135
 20
171.8461275477134
 30
0.0
 11
62.64403000095636
 21
171.9988259403855
 31
0.0
  0
ELLIPSE
  5
2BA
330
2
100
AcDbEntity
  8
01-MODEL
370
    15
100
AcDbEllipse
 10
62.24628290470786
 20
163.6072514401464
 30
0.0
 11
4.990322115844561
 21
8.665834361457784
 31
0.0
210
0.0
220
0.0
230
1.0
 40
0.578093115915639
 41
0.6895766463689263
 42
0.7271848158877337
  0
LINE
  5
2BB
330
2
100
AcDbEntity
  8
01-MODEL
370
    15
100
AcDbLine
 10
62.90919504390132
 20
172.04183633193
 30
0.0
 11
62.73926814662575
 21
171.9439819398216
 31
0.0
  0
LINE
  5
2BC
330
2
100
AcDbEntity
  8
01-MODEL
370
    15
100
AcDbLine
 10
62.90919504390124
 20
172.1284617969499
 30
0.0
 11
62.90919504390132
 21
172.04183633193
 31
0.0
  0
LINE
  5
2BD
330
2
100
AcDbEntity
  8
01-MODEL
370
    15
100
AcDbLine
 10
62.90919504390124
 20
172.1284617969499
 30
0.0
 11
63.17436008684625
 21
171.9757634042778
 31
0.0
  0
LINE
  5
2BE
330
2
100
AcDbEntity
  8
01-MODEL
370
    15
100
AcDbLine
 10
63.09183457237139
 20
171.9366612223981
 30
0.0
 11
62.90919504390132
 21
172.04183633193
 31
0.0
  0
ELLIPSE
  5
2BF
330
2
100
AcDbEntity
  8
01-MODEL
370
    15
100
AcDbEllipse
 10
62.51144794765297
 20
163.4545530474753
 30
0.0
 11
-4.990322115843458
 21
-8.665834361457063
 31
0.0
210
0.0
220
0.0
230
1.0
 40
0.578093115915639
 41
3.831169299958421
 42
3.868777469477243
  0
LINE
  5
2C0
330
2
100
AcDbEntity
  8
01-MODEL
370
    15
100
AcDbLine
 10
61.84853487212136
 20
172.4569211184018
 30
0.0
 11
61.58336982917636
 21
172.6096195110739
 31
0.0
  0
ELLIPSE
  5
2C1
330
2
100
AcDbEntity
  8
01-MODEL
370
    15
100
AcDbEllipse
 10
61.1856227329279
 20
164.2180450108348
 30
0.0
 11
4.990322115844561
 21
8.665834361457784
 31
0.0
210
0.0
220
0.0
230
1.0
 40
0.578093115915639
 41
0.6895766463689263
 42
0.7271848158877337
  0
LINE
  5
2C2
330
2
100
AcDbEntity
  8
01-MODEL
370
    15
100
AcDbLine
 10
61.8485348721213
 20
172.6526299026184
 30
0.0
 11
61.6786079748458
 21
172.5547755105101
 31
0.0
  0
LINE
  5
2C3
330
2
100
AcDbEntity
  8
01-MODEL
370
    15
100
AcDbLine
 10
61.8485348721213
 20
172.7392553676383
 30
0.0
 11
61.8485348721213
 21
172.6526299026184
 31
0.0
  0
LINE
  5
2C4
330
2
100
AcDbEntity
  8
01-MODEL
370
    15
100
AcDbLine
 10
61.8485348721213
 20
172.7392553676383
 30
0.0
 11
62.11369991506624
 21
172.5865569749662
 31
0.0
  0
LINE
  5
2C5
330
2
100
AcDbEntity
  8
01-MODEL
370
    15
100
AcDbLine
 10
62.03117440059138
 20
172.5474547930865
 30
0.0
 11
61.8485348721213
 21
172.6526299026184
 31
0.0
  0
ELLIPSE
  5
2C6
330
2
100
AcDbEntity
  8
01-MODEL
370
    15
100
AcDbEllipse
 10
61.45078777587297
 20
164.0653466181637
 30
0.0
 11
-4.990322115843458
 21
-8.665834361457063
 31
0.0
210
0.0
220
0.0
230
1.0
 40
0.578093115915639
 41
3.831169299958421
 42
3.868777469477243
  0
LINE
  5
2C7
330
2
100
AcDbEntity
  8
01-MODEL
370
    15
100
AcDbLine
 10
61.3182047862316
 20
171.8461274867214
 30
0.0
 11
61.5833698291766
 21
171.6934290940494
 31
0.0
  0
LINE
  5
2C8
330
2
100
AcDbEntity
  8
01-MODEL
370
    15
100
AcDbLine
 10
61.3182047862316
 20
171.8461274867214
 30
0.0
 11
61.31820478623164
 21
171.7364395465852
 31
0.0
  0
LINE
  5
2C9
330
2
100
AcDbEntity
  8
01-MODEL
370
    15
100
AcDbLine
 10
61.49377215850886
 20
171.6353370209482
 30
0.0
 11
61.31820478623164
 21
171.7364395465852
 31
0.0
  0
ELLIPSE
  5
2CA
330
2
100
AcDbEntity
  8
01-MODEL
370
    15
100
AcDbEllipse
 10
61.98111786176342
 20
163.7599498328202
 30
0.0
 11
-4.99032211584319
 21
-8.665834361456603
 31
0.0
210
0.0
220
0.0
230
1.0
 40
0.578093115915639
 41
3.981336880278917
 42
4.018945050173535
  0
LINE
  5
2CB
330
2
100
AcDbEntity
  8
01-MODEL
370
    15
100
AcDbLine
 10
61.31820478623169
 20
171.5176681243202
 30
0.0
 11
61.0530397432867
 21
171.6703665169924
 31
0.0
  0
ELLIPSE
  5
2CC
330
2
100
AcDbEntity
  8
01-MODEL
370
    15
100
AcDbEllipse
 10
61.71595281881843
 20
163.9126482254929
 30
0.0
 11
4.990322115843356
 21
8.665834361455694
 31
0.0
210
0.0
220
0.0
230
1.0
 40
0.578093115915639
 41
0.8397442266893371
 42
0.8773523965839434
  0
LINE
  5
2CD
330
2
100
AcDbEntity
  8
01-MODEL
370
    15
100
AcDbLine
 10
61.31820478623164
 20
171.7364395465852
 30
0.0
 11
61.12825342995061
 21
171.6270538354527
 31
0.0
  0
ELLIPSE
  5
2CE
330
2
100
AcDbEntity
  8
01-MODEL
370
    15
100
AcDbEllipse
 10
61.93692368793801
 20
163.7853995649428
 30
0.0
 11
-4.99032211583621
 21
-8.665834361444481
 31
0.0
210
0.0
220
0.0
230
1.0
 40
0.578093115915639
 41
4.062994171826437
 42
4.088280979181471
  0
LINE
  5
2CF
330
2
100
AcDbEntity
  8
01-MODEL
370
    15
100
AcDbLine
 10
60.78787470034186
 20
171.1905134999999
 30
0.0
 11
60.61109800504521
 21
171.292312428448
 31
0.0
  0
ELLIPSE
  5
2D0
330
2
100
AcDbEntity
  8
01-MODEL
370
    15
100
AcDbEllipse
 10
61.76014699264356
 20
163.887198493375
 30
0.0
 11
4.990322115847313
 21
8.665834361462561
 31
0.0
210
0.0
220
0.0
230
1.0
 40
0.578093115915639
 41
0.9214015182368502
 42
0.9466883255918093
  0
LINE
  5
2D1
330
2
100
AcDbEntity
  8
01-MODEL
370
    15
100
AcDbLine
 10
60.78787470034182
 20
171.3801432970167
 30
0.0
 11
60.62322596897779
 21
171.2853283985083
 31
0.0
  0
LINE
  5
2D2
330
2
100
AcDbEntity
  8
01-MODEL
370
    15
100
AcDbLine
 10
60.78787470034182
 20
171.4251227580248
 30
0.0
 11
60.78787470034182
 21
171.3801432970167
 31
0.0
  0
LINE
  5
2D3
330
2
100
AcDbEntity
  8
01-MODEL
370
    15
100
AcDbLine
 10
60.78787470034182
 20
171.4251227580248
 30
0.0
 11
60.96465139563847
 21
171.3233238295767
 31
0.0
  0
LINE
  5
2D4
330
2
100
AcDbEntity
  8
01-MODEL
370
    15
100
AcDbLine
 10
60.93044915953565
 20
171.2980401264283
 30
0.0
 11
60.78787470034182
 21
171.3801432970167
 31
0.0
  0
ELLIPSE
  5
2D5
330
2
100
AcDbEntity
  8
01-MODEL
370
    15
100
AcDbEllipse
 10
61.93692368793904
 20
163.7853995649354
 30
0.0
 11
-4.99032211584122
 21
-8.665834361453173
 31
0.0
210
0.0
220
0.0
230
1.0
 40
0.5780931159156392
 41
3.761833372148453
 42
3.787120178989515
  0
LINE
  5
2D6
330
2
100
AcDbEntity
  8
01-MODEL
370
    15
100
AcDbLine
 10
62.90919504390118
 20
172.4431121927882
 30
0.0
 11
62.73241834860453
 21
172.5449111212362
 31
0.0
  0
ELLIPSE
  5
2D7
330
2
100
AcDbEntity
  8
01-MODEL
370
    15
100
AcDbEllipse
 10
61.76014699264271
 20
163.8871984933861
 30
0.0
 11
4.990322115840179
 21
8.665834361450176
 31
0.0
210
0.0
220
0.0
230
1.0
 40
0.578093115915639
 41
0.6202407185589909
 42
0.6455275254000564
  0
LINE
  5
2D8
330
2
100
AcDbEntity
  8
01-MODEL
370
    15
100
AcDbLine
 10
62.90919504390113
 20
172.6017304383946
 30
0.0
 11
62.77147252707549
 21
172.5224213155914
 31
0.0
  0
LINE
  5
2D9
330
2
100
AcDbEntity
  8
01-MODEL
370
    15
100
AcDbLine
 10
62.90919504390113
 20
172.6156986765625
 30
0.0
 11
62.90919504390113
 21
172.6017304383946
 31
0.0
  0
LINE
  5
2DA
330
2
100
AcDbEntity
  8
01-MODEL
370
    15
100
AcDbLine
 10
62.90919504390113
 20
172.6156986765625
 30
0.0
 11
63.08597173919779
 21
172.5138997481144
 31
0.0
  0
LINE
  5
2DB
330
2
100
AcDbEntity
  8
01-MODEL
370
    15
100
AcDbLine
 10
63.07145999188081
 20
172.5082882694408
 30
0.0
 11
62.90919504390113
 21
172.6017304383946
 31
0.0
  0
LINE
  5
2DC
330
2
100
AcDbEntity
  8
01-MODEL
370
    15
100
AcDbLine
 10
63.43952512979114
 20
172.3103018912182
 30
0.0
 11
63.61630182508779
 21
172.2085029627702
 31
0.0
  0
LINE
  5
2DD
330
2
100
AcDbEntity
  8
01-MODEL
370
    15
100
AcDbLine
 10
63.43952512979114
 20
172.3103018912182
 30
0.0
 11
63.43952512979114
 21
172.2963336530504
 31
0.0
  0
LINE
  5
2DE
330
2
100
AcDbEntity
  8
01-MODEL
370
    15
100
AcDbLine
 10
63.60179007777081
 20
172.2028914840966
 30
0.0
 11
63.43952512979114
 21
172.2963336530504
 31
0.0
  0
ELLIPSE
  5
2DF
330
2
100
AcDbEntity
  8
01-MODEL
370
    15
100
AcDbEllipse
 10
62.46725377382903
 20
163.4800027795911
 30
0.0
 11
-4.99032211584122
 21
-8.665834361453173
 31
0.0
210
0.0
220
0.0
230
1.0
 40
0.5780931159156392
 41
3.761833372148453
 42
3.787120178989515
  0
LINE
  5
2E0
330
2
100
AcDbEntity
  8
01-MODEL
370
    15
100
AcDbLine
 10
63.43952512979118
 20
172.137715407444
 30
0.0
 11
63.26274843449454
 21
172.239514335892
 31
0.0
  0
ELLIPSE
  5
2E1
330
2
100
AcDbEntity
  8
01-MODEL
370
    15
100
AcDbEllipse
 10
62.2904770785327
 20
163.5818017080419
 30
0.0
 11
4.990322115840179
 21
8.665834361450176
 31
0.0
210
0.0
220
0.0
230
1.0
 40
0.578093115915639
 41
0.6202407185589909
 42
0.6455275254000564
  0
LINE
  5
2E2
330
2
100
AcDbEntity
  8
01-MODEL
370
    15
100
AcDbLine
 10
63.43952512979114
 20
172.2963336530504
 30
0.0
 11
63.30180261296549
 21
172.2170245302471
 31
0.0
  0
ELLIPSE
  5
2E3
330
2
100
AcDbEntity
  8
01-MODEL
370
    15
100
AcDbEllipse
 10
62.2904770785335
 20
163.5818017080308
 30
0.0
 11
4.990322115847313
 21
8.665834361462561
 31
0.0
210
0.0
220
0.0
230
1.0
 40
0.578093115915639
 41
0.9214015182368502
 42
0.9466883255918093
  0
LINE
  5
2E4
330
2
100
AcDbEntity
  8
01-MODEL
370
    15
100
AcDbLine
 10
61.31820478623183
 20
171.0747465116725
 30
0.0
 11
61.15355605486772
 21
170.979931613164
 31
0.0
  0
LINE
  5
2E5
330
2
100
AcDbEntity
  8
01-MODEL
370
    15
100
AcDbLine
 10
61.31820478623183
 20
171.1197259726806
 30
0.0
 11
61.31820478623183
 21
171.0747465116725
 31
0.0
  0
LINE
  5
2E6
330
2
100
AcDbEntity
  8
01-MODEL
370
    15
100
AcDbLine
 10
61.31820478623183
 20
171.1197259726806
 30
0.0
 11
61.49498148152847
 21
171.0179270442325
 31
0.0
  0
LINE
  5
2E7
330
2
100
AcDbEntity
  8
01-MODEL
370
    15
100
AcDbLine
 10
61.46077924542566
 20
170.9926433410841
 30
0.0
 11
61.31820478623183
 21
171.0747465116725
 31
0.0
  0
ELLIPSE
  5
2E8
330
2
100
AcDbEntity
  8
01-MODEL
370
    15
100
AcDbEllipse
 10
62.46725377382795
 20
163.4800027795986
 30
0.0
 11
-4.99032211583621
 21
-8.665834361444481
 31
0.0
210
0.0
220
0.0
230
1.0
 40
0.578093115915639
 41
4.062994171826437
 42
4.088280979181471
  0
LINE
  5
2E9
330
2
100
AcDbEntity
  8
01-MODEL
370
    15
100
AcDbLine
 10
61.31820478623187
 20
170.8851167146557
 30
0.0
 11
61.14142809093522
 21
170.9869156431037
 31
0.0
  0
ELLIPSE
  5
2EA
330
2
100
AcDbEntity
  8
01-MODEL
370
    15
100
AcDbEllipse
 10
61.406593602048
 20
164.090796350287
 30
0.0
 11
-4.99032211583621
 21
-8.665834361444481
 31
0.0
210
0.0
220
0.0
230
1.0
 40
0.578093115915639
 41
4.062994171826437
 42
4.088280979181471
  0
LINE
  5
2EB
330
2
100
AcDbEntity
  8
01-MODEL
370
    15
100
AcDbLine
 10
60.25754461445188
 20
171.495910285344
 30
0.0
 11
60.0807679191552
 21
171.5977092137922
 31
0.0
  0
ELLIPSE
  5
2EC
330
2
100
AcDbEntity
  8
01-MODEL
370
    15
100
AcDbEllipse
 10
61.22981690675355
 20
164.1925952787193
 30
0.0
 11
4.990322115847313
 21
8.665834361462561
 31
0.0
210
0.0
220
0.0
230
1.0
 40
0.578093115915639
 41
0.9214015182368502
 42
0.9466883255918093
  0
LINE
  5
2ED
330
2
100
AcDbEntity
  8
01-MODEL
370
    15
100
AcDbLine
 10
60.25754461445181
 20
171.6855400823609
 30
0.0
 11
60.09289588308784
 21
171.5907251838525
 31
0.0
  0
LINE
  5
2EE
330
2
100
AcDbEntity
  8
01-MODEL
370
    15
100
AcDbLine
 10
60.25754461445181
 20
171.730519543369
 30
0.0
 11
60.25754461445181
 21
171.6855400823609
 31
0.0
  0
LINE
  5
2EF
330
2
100
AcDbEntity
  8
01-MODEL
370
    15
100
AcDbLine
 10
60.25754461445181
 20
171.730519543369
 30
0.0
 11
60.43432130974849
 21
171.6287206149209
 31
0.0
  0
LINE
  5
2F0
330
2
100
AcDbEntity
  8
01-MODEL
370
    15
100
AcDbLine
 10
60.40011907364565
 20
171.6034369117725
 30
0.0
 11
60.25754461445181
 21
171.6855400823609
 31
0.0
  0
ELLIPSE
  5
2F1
330
2
100
AcDbEntity
  8
01-MODEL
370
    15
100
AcDbEllipse
 10
61.40659360204903
 20
164.0907963502795
 30
0.0
 11
-4.99032211584122
 21
-8.665834361453173
 31
0.0
210
0.0
220
0.0
230
1.0
 40
0.5780931159156392
 41
3.761833372148453
 42
3.787120178989515
  0
LINE
  5
2F2
330
2
100
AcDbEntity
  8
01-MODEL
370
    15
100
AcDbLine
 10
62.37886495801118
 20
172.7485089781324
 30
0.0
 11
62.20208826271452
 21
172.8503079065804
 31
0.0
  0
ELLIPSE
  5
2F3
330
2
100
AcDbEntity
  8
01-MODEL
370
    15
100
AcDbEllipse
 10
61.2298169067527
 20
164.1925952787303
 30
0.0
 11
4.990322115840179
 21
8.665834361450176
 31
0.0
210
0.0
220
0.0
230
1.0
 40
0.578093115915639
 41
0.6202407185589909
 42
0.6455275254000564
  0
LINE
  5
2F4
330
2
100
AcDbEntity
  8
01-MODEL
370
    15
100
AcDbLine
 10
62.37886495801113
 20
172.9071272237388
 30
0.0
 11
62.24114244118547
 21
172.8278181009356
 31
0.0
  0
LINE
  5
2F5
330
2
100
AcDbEntity
  8
01-MODEL
370
    15
100
AcDbLine
 10
62.37886495801113
 20
172.9210954619067
 30
0.0
 11
62.37886495801113
 21
172.9071272237388
 31
0.0
  0
LINE
  5
2F6
330
2
100
AcDbEntity
  8
01-MODEL
370
    15
100
AcDbLine
 10
62.37886495801113
 20
172.9210954619067
 30
0.0
 11
62.5556416533078
 21
172.8192965334585
 31
0.0
  0
LINE
  5
2F7
330
2
100
AcDbEntity
  8
01-MODEL
370
    15
100
AcDbLine
 10
62.54112990599082
 20
172.813685054785
 30
0.0
 11
62.37886495801113
 21
172.9071272237388
 31
0.0
  0
ELLIPSE
  5
2F8
330
2
100
AcDbEntity
  8
01-MODEL
370
    15
100
AcDbEllipse
 10
61.45078777587342
 20
164.0653466181644
 30
0.0
 11
-4.99032211584319
 21
-8.665834361456603
 31
0.0
210
0.0
220
0.0
230
1.0
 40
0.578093115915639
 41
3.981336880278917
 42
4.018945050173535
  0
LINE
  5
2F9
330
2
100
AcDbEntity
  8
01-MODEL
370
    15
100
AcDbLine
 10
60.78787470034171
 20
171.8230649096644
 30
0.0
 11
60.52270965739671
 21
171.9757633023366
 31
0.0
  0
ELLIPSE
  5
2FA
330
2
100
AcDbEntity
  8
01-MODEL
370
    15
100
AcDbEllipse
 10
61.18562273292842
 20
164.2180450108371
 30
0.0
 11
4.990322115843356
 21
8.665834361455694
 31
0.0
210
0.0
220
0.0
230
1.0
 40
0.578093115915639
 41
0.8397442266893371
 42
0.8773523965839434
  0
LINE
  5
2FB
330
2
100
AcDbEntity
  8
01-MODEL
370
    15
100
AcDbLine
 10
60.78787470034164
 20
172.0418363319294
 30
0.0
 11
60.59792334406068
 21
171.9324506207969
 31
0.0
  0
LINE
  5
2FC
330
2
100
AcDbEntity
  8
01-MODEL
370
    15
100
AcDbLine
 10
60.7878747003416
 20
172.1515242720656
 30
0.0
 11
60.78787470034164
 21
172.0418363319294
 31
0.0
  0
LINE
  5
2FD
330
2
100
AcDbEntity
  8
01-MODEL
370
    15
100
AcDbLine
 10
60.7878747003416
 20
172.1515242720656
 30
0.0
 11
61.05303974328658
 21
171.9988258793936
 31
0.0
  0
LINE
  5
2FE
330
2
100
AcDbEntity
  8
01-MODEL
370
    15
100
AcDbLine
 10
60.96344207261886
 20
171.9407338062924
 30
0.0
 11
60.78787470034164
 21
172.0418363319294
 31
0.0
  0
ELLIPSE
  5
2FF
330
2
100
AcDbEntity
  8
01-MODEL
370
    15
100
AcDbEllipse
 10
61.98111786176298
 20
163.7599498328195
 30
0.0
 11
-4.990322115843458
 21
-8.665834361457063
 31
0.0
210
0.0
220
0.0
230
1.0
 40
0.578093115915639
 41
3.831169299958421
 42
3.868777469477243
  0
LINE
  5
300
330
2
100
AcDbEntity
  8
01-MODEL
370
    15
100
AcDbLine
 10
62.37886495801136
 20
172.1515243330576
 30
0.0
 11
62.11369991506636
 21
172.3042227257297
 31
0.0
  0
ELLIPSE
  5
301
330
2
100
AcDbEntity
  8
01-MODEL
370
    15
100
AcDbEllipse
 10
61.7159528188179
 20
163.9126482254906
 30
0.0
 11
4.990322115844561
 21
8.665834361457784
 31
0.0
210
0.0
220
0.0
230
1.0
 40
0.578093115915639
 41
0.6895766463689263
 42
0.7271848158877337
  0
LINE
  5
302
330
2
100
AcDbEntity
  8
01-MODEL
370
    15
100
AcDbLine
 10
62.37886495801129
 20
172.3472331172741
 30
0.0
 11
62.20893806073575
 21
172.2493787251658
 31
0.0
  0
LINE
  5
303
330
2
100
AcDbEntity
  8
01-MODEL
370
    15
100
AcDbLine
 10
62.37886495801125
 20
172.4338585822941
 30
0.0
 11
62.37886495801129
 21
172.3472331172741
 31
0.0
  0
LINE
  5
304
330
2
100
AcDbEntity
  8
01-MODEL
370
    15
100
AcDbLine
 10
62.37886495801125
 20
172.4338585822941
 30
0.0
 11
62.64403000095625
 21
172.281160189622
 31
0.0
  0
LINE
  5
305
330
2
100
AcDbEntity
  8
01-MODEL
370
    15
100
AcDbLine
 10
62.56150448648138
 20
172.2420580077423
 30
0.0
 11
62.37886495801129
 21
172.3472331172741
 31
0.0
  0
LINE
  5
306
330
2
100
AcDbEntity
  8
01-MODEL
370
    15
100
AcDbLine
 10
61.8485348721217
 20
171.2122713389761
 30
0.0
 11
61.58336982917671
 21
171.3649697316481
 31
0.0
  0
ELLIPSE
  5
307
330
2
100
AcDbEntity
  8
01-MODEL
370
    15
100
AcDbEllipse
 10
62.24628290470842
 20
163.6072514401487
 30
0.0
 11
4.990322115843356
 21
8.665834361455694
 31
0.0
210
0.0
220
0.0
230
1.0
 40
0.578093115915639
 41
0.8397442266893371
 42
0.8773523965839434
  0
LINE
  5
308
330
2
100
AcDbEntity
  8
01-MODEL
370
    15
100
AcDbLine
 10
61.84853487212165
 20
171.431042761241
 30
0.0
 11
61.65858351584062
 21
171.3216570501085
 31
0.0
  0
LINE
  5
309
330
2
100
AcDbEntity
  8
01-MODEL
370
    15
100
AcDbLine
 10
61.84853487212158
 20
171.5407307013772
 30
0.0
 11
61.84853487212165
 21
171.431042761241
 31
0.0
  0
LINE
  5
30A
330
2
100
AcDbEntity
  8
01-MODEL
370
    15
100
AcDbLine
 10
61.84853487212158
 20
171.5407307013772
 30
0.0
 11
62.1136999150666
 21
171.3880323087051
 31
0.0
  0
LINE
  5
30B
330
2
100
AcDbEntity
  8
01-MODEL
370
    15
100
AcDbLine
 10
62.02410224439886
 20
171.329940235604
 30
0.0
 11
61.84853487212165
 21
171.431042761241
 31
0.0
  0
ELLIPSE
  5
30C
330
2
100
AcDbEntity
  8
01-MODEL
370
    15
100
AcDbEllipse
 10
62.51144794765341
 20
163.454553047476
 30
0.0
 11
-4.99032211584319
 21
-8.665834361456603
 31
0.0
210
0.0
220
0.0
230
1.0
 40
0.578093115915639
 41
3.981336880278917
 42
4.018945050173535
  0
ELLIPSE
  5
30D
330
2
100
AcDbEntity
  8
01-MODEL
370
    15
100
AcDbEllipse
 10
61.67175864499403
 20
163.9380979576092
 30
0.0
 11
4.990322115840686
 21
8.665834361451057
 31
0.0
210
0.0
220
0.0
230
1.0
 40
0.578093115915639
 41
0.7584619163048796
 42
0.8084671261036103
  0
LINE
  5
30E
330
2
100
AcDbEntity
  8
01-MODEL
370
    15
100
AcDbLine
 10
61.84853487212147
 20
172.0927357961538
 30
0.0
 11
61.59923986587771
 21
171.949176349811
 31
0.0
  0
LINE
  5
30F
330
2
100
AcDbEntity
  8
01-MODEL
370
    15
100
AcDbLine
 10
61.84853487212142
 20
172.2128126443337
 30
0.0
 11
61.84853487212147
 21
172.0927357961538
 31
0.0
  0
LINE
  5
310
330
2
100
AcDbEntity
  8
01-MODEL
370
    15
100
AcDbLine
 10
61.84853487212142
 20
172.2128126443337
 30
0.0
 11
62.20208826271474
 21
172.0092147874375
 31
0.0
  0
LINE
  5
311
330
2
100
AcDbEntity
  8
01-MODEL
370
    15
100
AcDbLine
 10
62.09596560796103
 20
171.9502499117372
 30
0.0
 11
61.84853487212147
 21
172.0927357961538
 31
0.0
  0
LINE
  5
312
330
2
100
AcDbEntity
  8
01-MODEL
370
    15
100
AcDbLine
 10
61.84853487212153
 20
171.8056169034684
 30
0.0
 11
61.49498148152821
 21
172.0092147603645
 31
0.0
  0
ELLIPSE
  5
313
330
2
100
AcDbEntity
  8
01-MODEL
370
    15
100
AcDbEllipse
 10
62.02531203558736
 20
163.734500100713
 30
0.0
 11
-4.990322115840166
 21
-8.665834361451354
 31
0.0
210
0.0
220
0.0
230
1.0
 40
0.578093115915639
 41
3.900054569894415
 42
3.950059779693159
  0
LINE
  5
314
330
2
100
AcDbEntity
  8
01-MODEL
370
    15
100
AcDbLine
 10
67.11648196734822
 20
172.9274866414234
 30
0.0
 11
65.8794556453282
 21
172.2151305594608
 31
0.0
  0
LINE
  5
315
330
2
100
AcDbEntity
  8
01-MODEL
370
    15
100
AcDbLine
 10
65.77297863138845
 20
172.2764465938239
 30
0.0
 11
67.11648196734822
 21
173.0501187101499
 31
0.0
  0
LINE
  5
316
330
2
100
AcDbEntity
  8
01-MODEL
370
    15
100
AcDbLine
 10
66.05582134386314
 20
172.113568308307
 30
0.0
 11
65.77297863138845
 21
172.2764465938239
 31
0.0
  0
LINE
  5
317
330
2
100
AcDbEntity
  8
01-MODEL
370
    15
100
AcDbLine
 10
67.39932467982292
 20
172.887240424633
 30
0.0
 11
66.05582134386314
 21
172.113568308307
 31
0.0
  0
LINE
  5
318
330
2
100
AcDbEntity
  8
01-MODEL
370
    15
100
AcDbLine
 10
62.59099699236843
 20
167.7565747988529
 30
0.0
 11
59.76257092828199
 21
169.3853582648156
 31
0.0
  0
LINE
  5
319
330
2
100
AcDbEntity
  8
01-MODEL
370
    15
100
AcDbLine
 10
67.89429785126678
 20
170.8105426522977
 30
0.0
 11
62.59099699236843
 21
167.7565747988529
 31
0.0
  0
LINE
  5
31A
330
2
100
AcDbEntity
  8
01-MODEL
370
    15
100
AcDbLine
 10
67.78782083732709
 20
170.7492266179345
 30
0.0
 11
65.06587072652017
 21
172.3166934387405
 31
0.0
  0
LINE
  5
31B
330
2
100
AcDbEntity
  8
01-MODEL
370
    15
100
AcDbLine
 10
65.06587072652017
 20
172.4393255074668
 30
0.0
 11
67.89429785126678
 21
170.8105426522977
 31
0.0
  0
LINE
  5
31C
330
2
100
AcDbEntity
  8
01-MODEL
370
    15
100
AcDbLine
 10
65.06587072652017
 20
172.4393255074668
 30
0.0
 11
65.06587072652017
 21
172.3166934387405
 31
0.0
  0
LINE
  5
31D
330
2
100
AcDbEntity
  8
01-MODEL
370
    15
100
AcDbLine
 10
65.06587072652017
 20
172.3166934387405
 30
0.0
 11
59.86904790229289
 21
169.3240422074589
 31
0.0
  0
LINE
  5
31E
330
2
100
AcDbEntity
  8
01-MODEL
370
    15
100
AcDbLine
 10
59.76257092828199
 20
169.3853582648156
 30
0.0
 11
65.06587072652017
 21
172.4393255074668
 31
0.0
  0
LINE
  5
31F
330
2
100
AcDbEntity
  8
01-MODEL
370
    15
100
AcDbLine
 10
69.66206531896033
 20
170.3024767142576
 30
0.0
 11
69.66206531895998
 21
171.5842147512913
 31
0.0
  0
LINE
  5
320
330
2
100
AcDbEntity
  8
01-MODEL
370
    15
100
AcDbLine
 10
65.78751002929724
 20
164.4844863680239
 30
0.0
 11
65.78751002929706
 21
165.2041608191102
 31
0.0
  0
LINE
  5
321
330
2
100
AcDbEntity
  8
01-MODEL
370
    15
100
AcDbLine
 10
65.78751002929724
 20
164.4844863680239
 30
0.0
 11
62.94454973887688
 21
166.1216379095029
 31
0.0
  0
LINE
  5
322
330
2
100
AcDbEntity
  8
01-MODEL
370
    15
100
AcDbLine
 10
62.94454973887688
 20
166.1216379095029
 30
0.0
 11
62.59099705539045
 21
165.9180404598023
 31
0.0
  0
LINE
  5
323
330
2
100
AcDbEntity
  8
01-MODEL
370
    15
100
AcDbLine
 10
62.59099705539045
 20
165.9180404598023
 30
0.0
 11
62.59099705539004
 21
167.512257353245
 31
0.0
  0
LINE
  5
324
330
2
100
AcDbEntity
  8
01-MODEL
370
    15
100
AcDbLine
 10
59.33830581537185
 20
167.7911407700588
 30
0.0
 11
59.33830581537153
 21
169.3853576635015
 31
0.0
  0
ELLIPSE
  5
325
330
2
100
AcDbEntity
  8
01-MODEL
370
    15
100
AcDbEllipse
 10
63.72236889880136
 20
169.3384838645737
 30
0.0
 11
-4.99999999999999
 21
-0.000000000001283
 31
0.0
210
0.0
220
0.0
230
1.0
 40
0.5758617009854836
 41
0.0
 42
0.5016036215754811
  0
LINE
  5
326
330
2
100
AcDbEntity
  8
01-MODEL
370
    15
100
AcDbLine
 10
62.94454973887688
 20
166.1216379095029
 30
0.0
 11
62.94454973887671
 21
166.8413121546067
 31
0.0
  0
LINE
  5
327
330
2
100
AcDbEntity
  8
01-MODEL
370
    15
100
AcDbLine
 10
58.72236889880136
 20
169.3384838645724
 30
0.0
 11
58.72236889880114
 21
170.4046824017592
 31
0.0
  0
ELLIPSE
  5
328
330
2
100
AcDbEntity
  8
01-MODEL
370
    15
100
AcDbEllipse
 10
70.51059444173278
 20
149.6507457864929
 30
0.0
 11
1.999999999999712
 21
0.0000000000005131
 31
0.0
210
0.0
220
0.0
230
1.0
 40
0.5758617009854837
 41
4.416677205940316
 42
4.444621756623681
  0
POLYLINE
  5
329
330
2
100
AcDbEntity
  8
01-MODEL
370
    15
100
AcDb2dPolyline
 66
     1
 10
0.0
 20
0.0
 30
0.0
 70
   128
  0
VERTEX
  5
32A
330
329
100
AcDbEntity
  8
01-MODEL
370
    15
100
AcDbVertex
100
AcDb2dVertex
 10
68.99240610712489
 20
148.8223636460722
 30
0.0
  0
VERTEX
  5
32B
330
329
100
AcDbEntity
  8
01-MODEL
370
    15
100
AcDbVertex
100
AcDb2dVertex
 10
69.14966752190456
 20
148.7207744792823
 30
0.0
  0
VERTEX
  5
32C
330
329
100
AcDbEntity
  8
01-MODEL
370
    15
100
AcDbVertex
100
AcDb2dVertex
 10
69.32227035311631
 20
148.6324080104801
 30
0.0
  0
SEQEND
  5
32D
330
329
100
AcDbEntity
  8
01-MODEL
370
    15
  0
POLYLINE
  5
32E
330
2
100
AcDbEntity
  8
01-MODEL
370
    15
100
AcDb2dPolyline
 66
     1
 10
0.0
 20
0.0
 30
0.0
 70
   128
  0
VERTEX
  5
32F
330
32E
100
AcDbEntity
  8
01-MODEL
370
    15
100
AcDbVertex
100
AcDb2dVertex
 10
69.79635310681077
 20
148.4733453509964
 30
0.0
  0
VERTEX
  5
330
330
32E
100
AcDbEntity
  8
01-MODEL
370
    15
100
AcDbVertex
100
AcDb2dVertex
 10
70.00209247366466
 20
148.4329956998664
 30
0.0
  0
VERTEX
  5
331
330
32E
100
AcDbEntity
  8
01-MODEL
370
    15
100
AcDbVertex
100
AcDb2dVertex
 10
70.21338268583462
 20
148.4064959124311
 30
0.0
  0
SEQEND
  5
332
330
32E
100
AcDbEntity
  8
01-MODEL
370
    15
  0
LINE
  5
333
330
2
100
AcDbEntity
  8
01-MODEL
370
    15
100
AcDbLine
 10
72.20764937768398
 20
148.8461377914263
 30
0.0
 11
71.96016341848245
 21
148.4163724894724
 31
0.0
  0
LINE
  5
334
330
2
100
AcDbEntity
  8
01-MODEL
370
    15
100
AcDbLine
 10
71.96016341848245
 20
148.4163724894724
 30
0.0
 11
71.71075664596542
 21
148.5599962977313
 31
0.0
  0
LINE
  5
335
330
2
100
AcDbEntity
  8
01-MODEL
370
    15
100
AcDbLine
 10
57.92409381192771
 20
155.4834271118482
 30
0.0
 11
58.17158118534301
 21
155.0536626242859
 31
0.0
  0
LINE
  5
336
330
2
100
AcDbEntity
  8
01-MODEL
370
    15
100
AcDbLine
 10
69.69742030447182
 20
148.4163733038632
 30
0.0
 11
69.44993293105652
 21
148.8461377914255
 31
0.0
  0
LINE
  5
337
330
2
100
AcDbEntity
  8
01-MODEL
370
    15
100
AcDbLine
 10
69.94682566277525
 20
148.5599962977308
 30
0.0
 11
69.69742030447182
 21
148.4163733038632
 31
0.0
  0
LINE
  5
338
330
2
100
AcDbEntity
  8
01-MODEL
370
    15
100
AcDbLine
 10
71.25305522308234
 20
148.2964235778062
 30
0.0
 11
72.20764937768398
 21
148.8461377914263
 31
0.0
  0
ELLIPSE
  5
339
330
2
100
AcDbEntity
  8
01-MODEL
370
    15
100
AcDbEllipse
 10
70.82879115437036
 20
148.5407410060816
 30
0.0
 11
0.5999999999999984
 21
0.0000000000001897
 31
0.0
210
0.0
220
0.0
230
1.0
 40
0.5758617009854836
 41
3.926990816986997
 42
5.497787143781907
  0
LINE
  5
33A
330
2
100
AcDbEntity
  8
01-MODEL
370
    15
100
AcDbLine
 10
69.44993293105652
 20
148.8461377914255
 30
0.0
 11
70.4045270856585
 21
148.296423577806
 31
0.0
  0
ELLIPSE
  5
33B
330
2
100
AcDbEntity
  8
01-MODEL
370
    15
100
AcDbEllipse
 10
57.39376372603747
 20
156.2774587537433
 30
0.0
 11
-0.5999999999999714
 21
-0.000000000000154
 31
0.0
210
0.0
220
0.0
230
1.0
 40
0.5758617009854837
 41
0.3599085985615473
 42
0.7853985124632997
  0
LINE
  5
33C
330
2
100
AcDbEntity
  8
01-MODEL
370
    15
100
AcDbLine
 10
56.96949980542181
 20
156.0331412401849
 30
0.0
 11
57.92409381192771
 21
155.4834271118482
 31
0.0
  0
ELLIPSE
  5
33D
330
2
100
AcDbEntity
  8
01-MODEL
370
    15
100
AcDbEllipse
 10
66.12653141302996
 20
161.3727649339039
 30
0.0
 11
4.990322115841799
 21
8.665834361453017
 31
0.0
210
0.0
220
0.0
230
1.0
 40
0.5780931159156402
 41
0.3166992133270702
 42
0.7834644549747109
  0
ELLIPSE
  5
33E
330
2
100
AcDbEntity
  8
01-MODEL
370
    15
100
AcDbEllipse
 10
66.12653141302988
 20
161.3727649339039
 30
0.0
 11
-4.990322115841294
 21
-8.665834361453308
 31
0.0
210
0.0
220
0.0
230
1.0
 40
0.578093115915639
 41
3.925057108564263
 42
4.391822631122957
  0
LINE
  5
33F
330
2
100
AcDbEntity
  8
01-MODEL
370
    15
100
AcDbLine
 10
65.78751002929706
 20
165.2041608191102
 30
0.0
 11
62.94454973887671
 21
166.8413121546067
 31
0.0
  0
POLYLINE
  5
340
330
2
100
AcDbEntity
  8
01-MODEL
370
    15
100
AcDb2dPolyline
 66
     1
 10
0.0
 20
0.0
 30
0.0
 70
   128
  0
VERTEX
  5
341
330
340
100
AcDbEntity
  8
01-MODEL
370
    15
100
AcDbVertex
100
AcDb2dVertex
 10
65.78751003941286
 20
165.2041607508909
 30
0.0
  0
VERTEX
  5
342
330
340
100
AcDbEntity
  8
01-MODEL
370
    15
100
AcDbVertex
100
AcDb2dVertex
 10
65.764570036604
 20
165.2560666306371
 30
0.0
  0
VERTEX
  5
343
330
340
100
AcDbEntity
  8
01-MODEL
370
    15
100
AcDbVertex
100
AcDb2dVertex
 10
65.74265030363044
 20
165.3083557590078
 30
0.0
  0
VERTEX
  5
344
330
340
100
AcDbEntity
  8
01-MODEL
370
    15
100
AcDbVertex
100
AcDb2dVertex
 10
65.72174641507307
 20
165.3609983460178
 30
0.0
  0
VERTEX
  5
345
330
340
100
AcDbEntity
  8
01-MODEL
370
    15
100
AcDbVertex
100
AcDb2dVertex
 10
65.70185520991836
 20
165.4139653316857
 30
0.0
  0
VERTEX
  5
346
330
340
100
AcDbEntity
  8
01-MODEL
370
    15
100
AcDbVertex
100
AcDb2dVertex
 10
65.68297215738002
 20
165.4672267439955
 30
0.0
  0
VERTEX
  5
347
330
340
100
AcDbEntity
  8
01-MODEL
370
    15
100
AcDbVertex
100
AcDb2dVertex
 10
65.66509378034303
 20
165.5207524876969
 30
0.0
  0
VERTEX
  5
348
330
340
100
AcDbEntity
  8
01-MODEL
370
    15
100
AcDbVertex
100
AcDb2dVertex
 10
65.64821586412259
 20
165.5745133814543
 30
0.0
  0
VERTEX
  5
349
330
340
100
AcDbEntity
  8
01-MODEL
370
    15
100
AcDbVertex
100
AcDb2dVertex
 10
65.63233472086946
 20
165.6284796959596
 30
0.0
  0
VERTEX
  5
34A
330
340
100
AcDbEntity
  8
01-MODEL
370
    15
100
AcDbVertex
100
AcDb2dVertex
 10
65.6174461358987
 20
165.6826212752854
 30
0.0
  0
VERTEX
  5
34B
330
340
100
AcDbEntity
  8
01-MODEL
370
    15
100
AcDbVertex
100
AcDb2dVertex
 10
65.60354652672832
 20
165.736908574035
 30
0.0
  0
VERTEX
  5
34C
330
340
100
AcDbEntity
  8
01-MODEL
370
    15
100
AcDbVertex
100
AcDb2dVertex
 10
65.59063167867339
 20
165.7913121662845
 30
0.0
  0
VERTEX
  5
34D
330
340
100
AcDbEntity
  8
01-MODEL
370
    15
100
AcDbVertex
100
AcDb2dVertex
 10
65.57869821998598
 20
165.8458021406952
 30
0.0
  0
VERTEX
  5
34E
330
340
100
AcDbEntity
  8
01-MODEL
370
    15
100
AcDbVertex
100
AcDb2dVertex
 10
65.5677419359813
 20
165.9003485840469
 30
0.0
  0
VERTEX
  5
34F
330
340
100
AcDbEntity
  8
01-MODEL
370
    15
100
AcDbVertex
100
AcDb2dVertex
 10
65.55775840124027
 20
165.9549224382393
 30
0.0
  0
VERTEX
  5
350
330
340
100
AcDbEntity
  8
01-MODEL
370
    15
100
AcDbVertex
100
AcDb2dVertex
 10
65.54874466548345
 20
166.0094930600487
 30
0.0
  0
VERTEX
  5
351
330
340
100
AcDbEntity
  8
01-MODEL
370
    15
100
AcDbVertex
100
AcDb2dVertex
 10
65.54069609255758
 20
166.0640315108475
 30
0.0
  0
VERTEX
  5
352
330
340
100
AcDbEntity
  8
01-MODEL
370
    15
100
AcDbVertex
100
AcDb2dVertex
 10
65.53360909998047
 20
166.1185075152353
 30
0.0
  0
VERTEX
  5
353
330
340
100
AcDbEntity
  8
01-MODEL
370
    15
100
AcDbVertex
100
AcDb2dVertex
 10
65.52747989453575
 20
166.1728918899959
 30
0.0
  0
VERTEX
  5
354
330
340
100
AcDbEntity
  8
01-MODEL
370
    15
100
AcDbVertex
100
AcDb2dVertex
 10
65.52230405080432
 20
166.2271546024366
 30
0.0
  0
VERTEX
  5
355
330
340
100
AcDbEntity
  8
01-MODEL
370
    15
100
AcDbVertex
100
AcDb2dVertex
 10
65.51807819703839
 20
166.2812659839261
 30
0.0
  0
VERTEX
  5
356
330
340
100
AcDbEntity
  8
01-MODEL
370
    15
100
AcDbVertex
100
AcDb2dVertex
 10
65.514798118553
 20
166.3351963658329
 30
0.0
  0
VERTEX
  5
357
330
340
100
AcDbEntity
  8
01-MODEL
370
    15
100
AcDbVertex
100
AcDb2dVertex
 10
65.51246023286608
 20
166.3889159581719
 30
0.0
  0
VERTEX
  5
358
330
340
100
AcDbEntity
  8
01-MODEL
370
    15
100
AcDbVertex
100
AcDb2dVertex
 10
65.51106011455849
 20
166.4423952136654
 30
0.0
  0
VERTEX
  5
359
330
340
100
AcDbEntity
  8
01-MODEL
370
    15
100
AcDbVertex
100
AcDb2dVertex
 10
65.51059439188245
 20
166.4956042209747
 30
0.0
  0
SEQEND
  5
35A
330
340
100
AcDbEntity
  8
01-MODEL
370
    15
  0
LINE
  5
35B
330
2
100
AcDbEntity
  8
01-MODEL
370
    15
100
AcDbLine
 10
69.30851131332075
 20
170.5060749253353
 30
0.0
 11
70.26603644209625
 21
169.9546728759427
 31
0.0
  0
POLYLINE
  5
35C
330
2
100
AcDbEntity
  8
01-MODEL
370
    15
100
AcDb2dPolyline
 66
     1
 10
0.0
 20
0.0
 30
0.0
 70
   128
  0
VERTEX
  5
35D
330
35C
100
AcDbEntity
  8
01-MODEL
370
    15
100
AcDbVertex
100
AcDb2dVertex
 10
60.18683524198028
 20
172.9686796057714
 30
0.0
  0
VERTEX
  5
35E
330
35C
100
AcDbEntity
  8
01-MODEL
370
    15
100
AcDbVertex
100
AcDb2dVertex
 10
60.35115633445421
 20
173.0566571293179
 30
0.0
  0
VERTEX
  5
35F
330
35C
100
AcDbEntity
  8
01-MODEL
370
    15
100
AcDbVertex
100
AcDb2dVertex
 10
60.52449524566086
 20
173.1366169434989
 30
0.0
  0
VERTEX
  5
360
330
35C
100
AcDbEntity
  8
01-MODEL
370
    15
100
AcDbVertex
100
AcDb2dVertex
 10
60.70616707614107
 20
173.2082995090988
 30
0.0
  0
VERTEX
  5
361
330
35C
100
AcDbEntity
  8
01-MODEL
370
    15
100
AcDbVertex
100
AcDb2dVertex
 10
60.89549024549993
 20
173.2714438021992
 30
0.0
  0
VERTEX
  5
362
330
35C
100
AcDbEntity
  8
01-MODEL
370
    15
100
AcDbVertex
100
AcDb2dVertex
 10
61.09178234357657
 20
173.3257883172891
 30
0.0
  0
VERTEX
  5
363
330
35C
100
AcDbEntity
  8
01-MODEL
370
    15
100
AcDbVertex
100
AcDb2dVertex
 10
61.29436011727293
 20
173.3710725215691
 30
0.0
  0
VERTEX
  5
364
330
35C
100
AcDbEntity
  8
01-MODEL
370
    15
100
AcDbVertex
100
AcDb2dVertex
 10
61.50254036617479
 20
173.4070363998738
 30
0.0
  0
VERTEX
  5
365
330
35C
100
AcDbEntity
  8
01-MODEL
370
    15
100
AcDbVertex
100
AcDb2dVertex
 10
61.71563988986763
 20
173.4334189624462
 30
0.0
  0
VERTEX
  5
366
330
35C
100
AcDbEntity
  8
01-MODEL
370
    15
100
AcDbVertex
100
AcDb2dVertex
 10
61.93297422353178
 20
173.450001808089
 30
0.0
  0
VERTEX
  5
367
330
35C
100
AcDbEntity
  8
01-MODEL
370
    15
100
AcDbVertex
100
AcDb2dVertex
 10
62.15375890894925
 20
173.4570789431774
 30
0.0
  0
VERTEX
  5
368
330
35C
100
AcDbEntity
  8
01-MODEL
370
    15
100
AcDbVertex
100
AcDb2dVertex
 10
62.37710085440014
 20
173.4551805816283
 30
0.0
  0
VERTEX
  5
369
330
35C
100
AcDbEntity
  8
01-MODEL
370
    15
100
AcDbVertex
100
AcDb2dVertex
 10
62.60210064613724
 20
173.4448259609708
 30
0.0
  0
VERTEX
  5
36A
330
35C
100
AcDbEntity
  8
01-MODEL
370
    15
100
AcDbVertex
100
AcDb2dVertex
 10
62.8278575006407
 20
173.4265359588914
 30
0.0
  0
VERTEX
  5
36B
330
35C
100
AcDbEntity
  8
01-MODEL
370
    15
100
AcDbVertex
100
AcDb2dVertex
 10
63.05347210953049
 20
173.4008293863002
 30
0.0
  0
VERTEX
  5
36C
330
35C
100
AcDbEntity
  8
01-MODEL
370
    15
100
AcDbVertex
100
AcDb2dVertex
 10
63.27804442685651
 20
173.3682260874954
 30
0.0
  0
VERTEX
  5
36D
330
35C
100
AcDbEntity
  8
01-MODEL
370
    15
100
AcDbVertex
100
AcDb2dVertex
 10
63.50067461740318
 20
173.329245540833
 30
0.0
  0
VERTEX
  5
36E
330
35C
100
AcDbEntity
  8
01-MODEL
370
    15
100
AcDbVertex
100
AcDb2dVertex
 10
63.72046305668902
 20
173.2844078370806
 30
0.0
  0
VERTEX
  5
36F
330
35C
100
AcDbEntity
  8
01-MODEL
370
    15
100
AcDbVertex
100
AcDb2dVertex
 10
63.94008480518901
 20
173.2334450236618
 30
0.0
  0
VERTEX
  5
370
330
35C
100
AcDbEntity
  8
01-MODEL
370
    15
100
AcDbVertex
100
AcDb2dVertex
 10
64.16236117294246
 20
173.1760316789746
 30
0.0
  0
VERTEX
  5
371
330
35C
100
AcDbEntity
  8
01-MODEL
370
    15
100
AcDbVertex
100
AcDb2dVertex
 10
64.38642604221239
 20
173.1126384858043
 30
0.0
  0
VERTEX
  5
372
330
35C
100
AcDbEntity
  8
01-MODEL
370
    15
100
AcDbVertex
100
AcDb2dVertex
 10
64.61141266305934
 20
173.0437357628743
 30
0.0
  0
VERTEX
  5
373
330
35C
100
AcDbEntity
  8
01-MODEL
370
    15
100
AcDbVertex
100
AcDb2dVertex
 10
64.83645323187237
 20
172.9697946765038
 30
0.0
  0
VERTEX
  5
374
330
35C
100
AcDbEntity
  8
01-MODEL
370
    15
100
AcDbVertex
100
AcDb2dVertex
 10
65.0606812094461
 20
172.8912861540663
 30
0.0
  0
VERTEX
  5
375
330
35C
100
AcDbEntity
  8
01-MODEL
370
    15
100
AcDbVertex
100
AcDb2dVertex
 10
65.28322942437249
 20
172.8086812424081
 30
0.0
  0
SEQEND
  5
376
330
35C
100
AcDbEntity
  8
01-MODEL
370
    15
  0
POLYLINE
  5
377
330
2
100
AcDbEntity
  8
01-MODEL
370
    15
100
AcDb2dPolyline
 66
     1
 10
0.0
 20
0.0
 30
0.0
 70
   128
  0
VERTEX
  5
378
330
377
100
AcDbEntity
  8
01-MODEL
370
    15
100
AcDbVertex
100
AcDb2dVertex
 10
59.33832140076853
 20
168.5448631452243
 30
0.0
  0
VERTEX
  5
379
330
377
100
AcDbEntity
  8
01-MODEL
370
    15
100
AcDbVertex
100
AcDb2dVertex
 10
59.22279962854531
 20
168.7077034028028
 30
0.0
  0
VERTEX
  5
37A
330
377
100
AcDbEntity
  8
01-MODEL
370
    15
100
AcDbVertex
100
AcDb2dVertex
 10
59.11874348499098
 20
168.8780126817443
 30
0.0
  0
VERTEX
  5
37B
330
377
100
AcDbEntity
  8
01-MODEL
370
    15
100
AcDbVertex
100
AcDb2dVertex
 10
59.02670066840197
 20
169.0548036021119
 30
0.0
  0
VERTEX
  5
37C
330
377
100
AcDbEntity
  8
01-MODEL
370
    15
100
AcDbVertex
100
AcDb2dVertex
 10
58.94701593999899
 20
169.2370152389751
 30
0.0
  0
VERTEX
  5
37D
330
377
100
AcDbEntity
  8
01-MODEL
370
    15
100
AcDbVertex
100
AcDb2dVertex
 10
58.87959130835939
 20
169.4233867808664
 30
0.0
  0
VERTEX
  5
37E
330
377
100
AcDbEntity
  8
01-MODEL
370
    15
100
AcDbVertex
100
AcDb2dVertex
 10
58.82431782387975
 20
169.6126525602859
 30
0.0
  0
VERTEX
  5
37F
330
377
100
AcDbEntity
  8
01-MODEL
370
    15
100
AcDbVertex
100
AcDb2dVertex
 10
58.78108464034845
 20
169.803545813788
 30
0.0
  0
VERTEX
  5
380
330
377
100
AcDbEntity
  8
01-MODEL
370
    15
100
AcDbVertex
100
AcDb2dVertex
 10
58.74978259742782
 20
169.9948002652235
 30
0.0
  0
VERTEX
  5
381
330
377
100
AcDbEntity
  8
01-MODEL
370
    15
100
AcDbVertex
100
AcDb2dVertex
 10
58.73030211331182
 20
170.1851498830309
 30
0.0
  0
VERTEX
  5
382
330
377
100
AcDbEntity
  8
01-MODEL
370
    15
100
AcDbVertex
100
AcDb2dVertex
 10
58.72253255252302
 20
170.3733280251186
 30
0.0
  0
VERTEX
  5
383
330
377
100
AcDbEntity
  8
01-MODEL
370
    15
100
AcDbVertex
100
AcDb2dVertex
 10
58.7263984722026
 20
170.5603824562557
 30
0.0
  0
VERTEX
  5
384
330
377
100
AcDbEntity
  8
01-MODEL
370
    15
100
AcDbVertex
100
AcDb2dVertex
 10
58.74198037283131
 20
170.7493563335048
 30
0.0
  0
VERTEX
  5
385
330
377
100
AcDbEntity
  8
01-MODEL
370
    15
100
AcDbVertex
100
AcDb2dVertex
 10
58.76940300908062
 20
170.9391272045959
 30
0.0
  0
VERTEX
  5
386
330
377
100
AcDbEntity
  8
01-MODEL
370
    15
100
AcDbVertex
100
AcDb2dVertex
 10
58.80878966048247
 20
171.1284789538049
 30
0.0
  0
VERTEX
  5
387
330
377
100
AcDbEntity
  8
01-MODEL
370
    15
100
AcDbVertex
100
AcDb2dVertex
 10
58.86026276363178
 20
171.3161974127111
 30
0.0
  0
VERTEX
  5
388
330
377
100
AcDbEntity
  8
01-MODEL
370
    15
100
AcDbVertex
100
AcDb2dVertex
 10
58.92394559806051
 20
171.5010654909985
 30
0.0
  0
VERTEX
  5
389
330
377
100
AcDbEntity
  8
01-MODEL
370
    15
100
AcDbVertex
100
AcDb2dVertex
 10
58.99996239160457
 20
171.6818671355009
 30
0.0
  0
VERTEX
  5
38A
330
377
100
AcDbEntity
  8
01-MODEL
370
    15
100
AcDbVertex
100
AcDb2dVertex
 10
59.08843642379586
 20
171.8573867177905
 30
0.0
  0
VERTEX
  5
38B
330
377
100
AcDbEntity
  8
01-MODEL
370
    15
100
AcDbVertex
100
AcDb2dVertex
 10
59.18941036831852
 20
172.026402853632
 30
0.0
  0
VERTEX
  5
38C
330
377
100
AcDbEntity
  8
01-MODEL
370
    15
100
AcDbVertex
100
AcDb2dVertex
 10
59.30234168986507
 20
172.1880552161149
 30
0.0
  0
VERTEX
  5
38D
330
377
100
AcDbEntity
  8
01-MODEL
370
    15
100
AcDbVertex
100
AcDb2dVertex
 10
59.42644124138073
 20
172.3417252748058
 30
0.0
  0
VERTEX
  5
38E
330
377
100
AcDbEntity
  8
01-MODEL
370
    15
100
AcDbVertex
100
AcDb2dVertex
 10
59.56091882213955
 20
172.4867943760366
 30
0.0
  0
VERTEX
  5
38F
330
377
100
AcDbEntity
  8
01-MODEL
370
    15
100
AcDbVertex
100
AcDb2dVertex
 10
59.70498686559334
 20
172.622642470571
 30
0.0
  0
VERTEX
  5
390
330
377
100
AcDbEntity
  8
01-MODEL
370
    15
100
AcDbVertex
100
AcDb2dVertex
 10
59.85785519735802
 20
172.748651894502
 30
0.0
  0
VERTEX
  5
391
330
377
100
AcDbEntity
  8
01-MODEL
370
    15
100
AcDbVertex
100
AcDb2dVertex
 10
60.0187344201319
 20
172.8642039732889
 30
0.0
  0
VERTEX
  5
392
330
377
100
AcDbEntity
  8
01-MODEL
370
    15
100
AcDbVertex
100
AcDb2dVertex
 10
60.18683524198028
 20
172.9686796057714
 30
0.0
  0
SEQEND
  5
393
330
377
100
AcDbEntity
  8
01-MODEL
370
    15
  0
ELLIPSE
  5
394
330
2
100
AcDbEntity
  8
01-MODEL
370
    15
100
AcDbEllipse
 10
70.51059459468182
 20
169.1901221249006
 30
0.0
 11
0.6
 21
0.0000000000001182
 31
0.0
210
0.0
220
0.0
230
1.0
 40
0.5758617009854836
 41
0.0000000000002258
 42
6.283185307179585
  0
ELLIPSE
  5
395
330
2
100
AcDbEntity
  8
01-MODEL
370
    15
100
AcDbEllipse
 10
70.5105944417284
 20
167.0236221893945
 30
0.0
 11
-5.0
 21
-0.0000000000012825
 31
0.0
210
0.0
220
0.0
230
1.0
 40
0.5758617009854836
 41
4.836701183232626
 42
10.87126208471634
  0
ELLIPSE
  5
396
330
2
100
AcDbEntity
  8
01-MODEL
370
    15
100
AcDbEllipse
 10
70.5105944417288
 20
165.4294052959518
 30
0.0
 11
-5.000000000000001
 21
-0.0000000000012829
 31
0.0
210
0.0
220
0.0
230
1.0
 40
0.5758617009854836
 41
0.3343715549713391
 42
0.785398163397451
  0
ELLIPSE
  5
397
330
2
100
AcDbEntity
  8
01-MODEL
370
    15
100
AcDbEllipse
 10
70.5105944417288
 20
165.4294052959518
 30
0.0
 11
5.0
 21
0.0000000000012823
 31
0.0
210
0.0
220
0.0
230
1.0
 40
0.5758617009854837
 41
3.92699081698724
 42
6.283185307179584
  0
ELLIPSE
  5
398
330
2
100
AcDbEntity
  8
01-MODEL
370
    15
100
AcDbEllipse
 10
70.5105944417284
 20
167.0236221893945
 30
0.0
 11
-3.125
 21
-0.0000000000008019
 31
0.0
210
0.0
220
0.0
230
1.0
 40
0.5758617009854833
 41
5.864682400727661
 42
9.843280867221306
  0
ELLIPSE
  5
399
330
2
100
AcDbEntity
  8
01-MODEL
370
    15
100
AcDbEllipse
 10
70.51059444172823
 20
167.5959051767842
 30
0.0
 11
-2.72113252720888
 21
-0.0000000000006978
 31
0.0
210
0.0
220
0.0
230
1.0
 40
0.5758617009854836
 41
5.296239962383384
 42
10.41172330556559
  0
ELLIPSE
  5
39A
330
2
100
AcDbEntity
  8
01-MODEL
370
    15
100
AcDbEllipse
 10
70.51059444172823
 20
167.5959051767842
 30
0.0
 11
-1.275000041020357
 21
-0.000000000000327
 31
0.0
210
0.0
220
0.0
230
1.0
 40
0.5758617009854836
 41
0.3025006280937032
 42
2.839092025496084
  0
ELLIPSE
  5
39B
330
2
100
AcDbEntity
  8
01-MODEL
370
    15
100
AcDbEllipse
 10
70.51059444172818
 20
167.882046670479
 30
0.0
 11
-1.5
 21
-0.0000000000003849
 31
0.0
210
0.0
220
0.0
230
1.0
 40
0.5758617009854833
 41
0.000000000000007
 42
3.141592653589798
  0
ELLIPSE
  5
39C
330
2
100
AcDbEntity
  8
01-MODEL
370
    15
100
AcDbEllipse
 10
70.51059444172789
 20
169.0674900015006
 30
0.0
 11
-1.5
 21
-0.000000000000385
 31
0.0
210
0.0
220
0.0
230
1.0
 40
0.5758617009854832
 41
5.501639961259516
 42
10.20632330668942
  0
ELLIPSE
  5
39D
330
2
100
AcDbEntity
  8
01-MODEL
370
    15
100
AcDbEllipse
 10
70.51059444172789
 20
169.1901220702269
 30
0.0
 11
1.350000041020357
 21
0.0000000000003463
 31
0.0
210
0.0
220
0.0
230
1.0
 40
0.5758617009854837
 41
0.0
 42
6.283185307179573
  0
LINE
  5
39E
330
2
100
AcDbEntity
  8
01-MODEL
370
    15
100
AcDbLine
 10
65.5105944417285
 20
166.4956040377251
 30
0.0
 11
65.5105944417284
 21
167.0236221893932
 31
0.0
  0
LINE
  5
39F
330
2
100
AcDbEntity
  8
01-MODEL
370
    15
100
AcDbLine
 10
75.5105944417288
 20
165.4294052959531
 30
0.0
 11
75.51059444172842
 21
167.0236221893958
 31
0.0
  0
LINE
  5
3A0
330
2
100
AcDbEntity
  8
01-MODEL
370
    15
100
AcDbLine
 10
72.9968888028685
 20
168.2327214112638
 30
0.0
 11
73.36590185541495
 21
167.7549539833626
 31
0.0
  0
LINE
  5
3A1
330
2
100
AcDbEntity
  8
01-MODEL
370
    15
100
AcDbLine
 10
68.02430008058774
 20
168.2327214112625
 30
0.0
 11
67.65528702804146
 21
167.7549539833612
 31
0.0
  0
LINE
  5
3A2
330
2
100
AcDbEntity
  8
01-MODEL
370
    15
100
AcDbLine
 10
69.01059444172817
 20
167.8820466704786
 30
0.0
 11
69.01059444172789
 21
169.0674900015002
 31
0.0
  0
LINE
  5
3A3
330
2
100
AcDbEntity
  8
01-MODEL
370
    15
100
AcDbLine
 10
72.01059444172817
 20
167.8820466704794
 30
0.0
 11
72.01059444172789
 21
169.0674900015009
 31
0.0
  0
LINE
  5
3A4
330
2
100
AcDbEntity
  8
01-MODEL
370
    15
100
AcDbLine
 10
71.46885940830461
 20
169.7377142771663
 30
0.0
 11
71.57533326112728
 21
169.6759257685011
 31
0.0
  0
LINE
  5
3A5
330
2
100
AcDbEntity
  8
01-MODEL
370
    15
100
AcDbLine
 10
69.55232947515082
 20
169.7377142771659
 30
0.0
 11
69.44585562232815
 21
169.6759257685007
 31
0.0
  0
ELLIPSE
  5
3A6
330
2
100
AcDbEntity
  8
01-MODEL
370
    15
100
AcDbEllipse
 10
75.20025959390382
 20
105.4213883585184
 30
0.0
 11
0.1247524450383061
 21
0.2166490966108418
 31
0.0
210
0.0
220
0.0
230
1.0
 40
0.5825011547331675
 41
0.7872327208326873
 42
2.350432851081013
  0
LINE
  5
3A7
330
2
100
AcDbEntity
  8
01-MODEL
370
    15
100
AcDbLine
 10
75.19891164695033
 20
105.6257796330037
 30
0.0
 11
74.04545573428615
 21
106.2904248484852
 31
0.0
  0
ELLIPSE
  5
3A8
330
2
100
AcDbEntity
  8
01-MODEL
370
    15
100
AcDbEllipse
 10
74.25828268440065
 20
105.9641749870504
 30
0.0
 11
-0.2197925179522749
 21
0.3218754108038605
 31
0.0
210
0.0
220
0.0
230
1.0
 40
0.5242470212308606
 41
6.242949326901888
 42
7.024549392026067
  0
ELLIPSE
  5
3A9
330
2
100
AcDbEntity
  8
01-MODEL
370
    15
100
AcDbEllipse
 10
74.25828268440065
 20
105.9641749870504
 30
0.0
 11
-0.3886253290942307
 21
0.0293443810787029
 31
0.0
210
0.0
220
0.0
230
1.0
 40
0.5253361230523588
 41
5.54123161718657
 42
6.322831682310757
  0
LINE
  5
3AA
330
2
100
AcDbEntity
  8
01-MODEL
370
    15
100
AcDbLine
 10
73.86935172768554
 20
105.9854042678917
 30
0.0
 11
75.02280764034972
 21
105.3207590524102
 31
0.0
  0
ELLIPSE
  5
3AB
330
2
100
AcDbEntity
  8
01-MODEL
370
    15
100
AcDbEllipse
 10
75.20025959390396
 20
104.9017357107264
 30
0.0
 11
-0.1257148384037486
 21
-0.2182946612610094
 31
0.0
210
0.0
220
0.0
230
1.0
 40
0.5737184336468101
 41
5.499680581380608
 42
7.062880711628896
  0
ELLIPSE
  5
3AC
330
2
100
AcDbEntity
  8
01-MODEL
370
    15
100
AcDbEllipse
 10
76.71037387046808
 20
105.7713526867116
 30
0.0
 11
-0.124752445038306
 21
-0.2166490966108415
 31
0.0
210
0.0
220
0.0
230
1.0
 40
0.5825011547331678
 41
0.7872327208326873
 42
2.350432851081013
  0
ELLIPSE
  5
3AD
330
2
100
AcDbEntity
  8
01-MODEL
370
    15
100
AcDbEllipse
 10
76.71037387046796
 20
106.2910053345035
 30
0.0
 11
0.1257148384037487
 21
0.2182946612610094
 31
0.0
210
0.0
220
0.0
230
0.9999999999999998
 40
0.5737184336468101
 41
5.499680581380608
 42
7.062880711628896
  0
LINE
  5
3AE
330
2
100
AcDbEntity
  8
01-MODEL
370
    15
100
AcDbLine
 10
75.02280764034987
 20
104.7979894492007
 30
0.0
 11
73.86935172768573
 21
105.2480563487164
 31
0.0
  0
ELLIPSE
  5
3AF
330
2
100
AcDbEntity
  8
01-MODEL
370
    15
100
AcDbEllipse
 10
75.9199613931263
 20
106.9210721147491
 30
0.0
 11
-0.1691181914147463
 21
0.351085101028541
 31
0.0
210
0.0
220
0.0
230
1.0
 40
0.5244224593739149
 41
5.540222667274711
 42
6.321822732398895
  0
LINE
  5
3B0
330
2
100
AcDbEntity
  8
01-MODEL
370
    15
100
AcDbLine
 10
75.74385738652551
 20
107.2684693129009
 30
0.0
 11
76.71172181742136
 21
106.4969490710398
 31
0.0
  0
ELLIPSE
  5
3B1
330
2
100
AcDbEntity
  8
01-MODEL
370
    15
100
AcDbEllipse
 10
74.25828268440084
 20
105.269285629558
 30
0.0
 11
-0.3886253290942156
 21
-0.0293443810789022
 31
0.0
210
0.0
220
0.0
230
1.0
 40
0.5253361230523588
 41
6.24353893204844
 42
7.025138997172616
  0
ELLIPSE
  5
3B2
330
2
100
AcDbEntity
  8
01-MODEL
370
    15
100
AcDbEllipse
 10
74.25828268440084
 20
105.269285629558
 30
0.0
 11
-0.2770967909387056
 21
-0.1602364853039982
 31
0.0
210
0.0
220
0.0
230
1.0
 40
0.0015030509052867
 41
6.195706755219855
 42
6.284387123541283
  0
LINE
  5
3B3
330
2
100
AcDbEntity
  8
01-MODEL
370
    15
100
AcDbLine
 10
75.91996139312621
 20
107.2407816402458
 30
0.0
 11
76.84646981510628
 21
106.5022277901464
 31
0.0
  0
LINE
  5
3B4
330
2
100
AcDbEntity
  8
01-MODEL
370
    15
100
AcDbLine
 10
73.98118638302594
 20
105.1090487594286
 30
0.0
 11
75.08587190354801
 21
104.6780115765571
 31
0.0
  0
LINE
  5
3B5
330
2
100
AcDbEntity
  8
01-MODEL
370
    15
100
AcDbLine
 10
75.02280764034987
 20
104.7979894492007
 30
0.0
 11
75.02280764034972
 21
105.3207590524102
 31
0.0
  0
LINE
  5
3B6
330
2
100
AcDbEntity
  8
01-MODEL
370
    15
100
AcDbLine
 10
76.71172181742161
 20
105.5669614122262
 30
0.0
 11
75.19891164695057
 21
104.6957919741901
 31
0.0
  0
LINE
  5
3B7
330
2
100
AcDbEntity
  8
01-MODEL
370
    15
100
AcDbLine
 10
76.88782582402206
 20
106.3947515960293
 30
0.0
 11
76.8878258240222
 21
105.8719819928197
 31
0.0
  0
LINE
  5
3B8
330
2
100
AcDbEntity
  8
01-MODEL
370
    15
100
AcDbLine
 10
75.19891164695033
 20
105.6257796330037
 30
0.0
 11
76.71172181742136
 21
106.4969490710398
 31
0.0
  0
LINE
  5
3B9
330
2
100
AcDbEntity
  8
01-MODEL
370
    15
100
AcDbLine
 10
73.86935172768573
 20
105.2480563487164
 30
0.0
 11
73.86935172768554
 21
105.9854042678917
 31
0.0
  0
LINE
  5
3BA
330
2
100
AcDbEntity
  8
01-MODEL
370
    15
100
AcDbLine
 10
74.04545573428615
 20
106.2904248484852
 30
0.0
 11
75.74385738652551
 21
107.2684693129009
 31
0.0
  0
LINE
  5
3BB
330
2
100
AcDbEntity
  8
01-MODEL
370
    15
100
AcDbLine
 10
73.51579833709251
 20
105.0444473209143
 30
0.0
 11
73.86935172768578
 21
105.0444473209144
 31
0.0
  0
LINE
  5
3BC
330
2
100
AcDbEntity
  8
01-MODEL
370
    15
100
AcDbLine
 10
73.98222441691027
 20
105.10969824553
 30
0.0
 11
73.86935172768578
 21
105.0444473209144
 31
0.0
  0
LINE
  5
3BD
330
2
100
AcDbEntity
  8
01-MODEL
370
    15
100
AcDbLine
 10
73.98222441691
 20
106.1237623710782
 30
0.0
 11
73.86935172768549
 21
106.1890132956938
 31
0.0
  0
LINE
  5
3BE
330
2
100
AcDbEntity
  8
01-MODEL
370
    15
100
AcDbLine
 10
73.86935172768549
 20
106.1890132956938
 30
0.0
 11
73.51579833709223
 21
106.1890132956937
 31
0.0
  0
LINE
  5
3BF
330
2
100
AcDbEntity
  8
01-MODEL
370
    15
100
AcDbLine
 10
73.51579833709223
 20
106.1890132956937
 30
0.0
 11
73.51579833709251
 21
105.0444473209143
 31
0.0
  0
LINE
  5
3C0
330
2
100
AcDbEntity
  8
01-MODEL
370
    15
100
AcDbLine
 10
73.69257503238917
 20
104.9418594681519
 30
0.0
 11
73.86935172768578
 21
105.0444473209144
 31
0.0
  0
ELLIPSE
  5
3C1
330
2
100
AcDbEntity
  8
01-MODEL
370
    15
100
AcDbEllipse
 10
73.69257503238912
 20
105.1462462493625
 30
0.0
 11
-0.1247580528960453
 21
-0.2166458590363252
 31
0.0
210
0.0
220
0.0
230
1.0
 40
0.578093115915639
 41
5.495853435359396
 42
7.066649762154302
  0
LINE
  5
3C2
330
2
100
AcDbEntity
  8
01-MODEL
370
    15
100
AcDbLine
 10
73.86935172768549
 20
106.1890132956938
 30
0.0
 11
73.6925750323888
 21
106.4951990053524
 31
0.0
  0
ELLIPSE
  5
3C3
330
2
100
AcDbEntity
  8
01-MODEL
370
    15
100
AcDbEllipse
 10
73.69257503238884
 20
106.2908122241418
 30
0.0
 11
-0.1247580528960333
 21
-0.2166458590363343
 31
0.0
210
0.0
220
0.0
230
1.0
 40
0.5780931159156392
 41
3.925057108564235
 42
5.495853435359159
  0
LINE
  5
3C4
330
2
100
AcDbEntity
  8
01-MODEL
370
    15
100
AcDbLine
 10
73.69257503238917
 20
104.9418594681519
 30
0.0
 11
73.98221020817968
 21
105.1086492731479
 31
0.0
  0
LINE
  5
3C5
330
2
100
AcDbEntity
  8
01-MODEL
370
    15
100
AcDbLine
 10
75.91996139312617
 20
107.3698808656924
 30
0.0
 11
75.74318469782946
 21
107.6760665753511
 31
0.0
  0
LINE
  5
3C6
330
2
100
AcDbEntity
  8
01-MODEL
370
    15
100
AcDbLine
 10
75.74318469782946
 20
107.6760665753511
 30
0.0
 11
73.6925750323888
 21
106.4951990053524
 31
0.0
  0
LINE
  5
3C7
330
2
100
AcDbEntity
  8
01-MODEL
370
    15
100
AcDbLine
 10
75.91996139312621
 20
107.2396308822652
 30
0.0
 11
75.91996139312617
 21
107.3698808656924
 31
0.0
  0
LINE
  5
3C8
330
2
100
AcDbEntity
  8
01-MODEL
370
    15
100
AcDbLine
 10
75.91996139312617
 20
107.3698808656924
 30
0.0
 11
75.91996139312612
 21
107.5734787225887
 31
0.0
  0
ELLIPSE
  5
3C9
330
2
100
AcDbEntity
  8
01-MODEL
370
    15
100
AcDbEllipse
 10
75.74318469782951
 20
107.4716797941405
 30
0.0
 11
0.1247580528960463
 21
0.2166458590363268
 31
0.0
210
0.0
220
0.0
230
1.0
 40
0.5780931159156392
 41
5.495853435359418
 42
7.066649762154302
  0
LINE
  5
3CA
330
2
100
AcDbEntity
  8
01-MODEL
370
    15
100
AcDbLine
 10
73.16224494649917
 20
105.2480451778104
 30
0.0
 11
73.51579833709251
 21
105.0444473209143
 31
0.0
  0
ELLIPSE
  5
3CB
330
2
100
AcDbEntity
  8
01-MODEL
370
    15
100
AcDbEllipse
 10
73.33902164179578
 20
105.3498441062586
 30
0.0
 11
-0.1247580528960442
 21
-0.2166458590363241
 31
0.0
210
0.0
220
0.0
230
1.0
 40
0.5780931159156393
 41
5.495853435359393
 42
6.283185307179605
  0
LINE
  5
3CC
330
2
100
AcDbEntity
  8
01-MODEL
370
    15
100
AcDbLine
 10
73.1622449464989
 20
106.3926111525898
 30
0.0
 11
73.51579833709223
 21
106.1890132956937
 31
0.0
  0
LINE
  5
3CD
330
2
100
AcDbEntity
  8
01-MODEL
370
    15
100
AcDbLine
 10
73.16224494649917
 20
105.2480451778104
 30
0.0
 11
73.1622449464989
 21
106.3926111525898
 31
0.0
  0
LINE
  5
3CE
330
2
100
AcDbEntity
  8
01-MODEL
370
    15
100
AcDbLine
 10
73.33902164179545
 20
106.6987968622486
 30
0.0
 11
73.6925750323888
 21
106.4951990053524
 31
0.0
  0
ELLIPSE
  5
3CF
330
2
100
AcDbEntity
  8
01-MODEL
370
    15
100
AcDbEllipse
 10
73.33902164179551
 20
106.494410081038
 30
0.0
 11
0.124758052896059
 21
0.2166458590363189
 31
0.0
210
0.0
220
0.0
230
1.0
 40
0.5780931159156392
 41
0.7834644549749897
 42
2.354260781769863
  0
LINE
  5
3D0
330
2
100
AcDbEntity
  8
01-MODEL
370
    15
100
AcDbLine
 10
75.38963130723615
 20
107.8796644322472
 30
0.0
 11
75.74318469782946
 21
107.6760665753511
 31
0.0
  0
LINE
  5
3D1
330
2
100
AcDbEntity
  8
01-MODEL
370
    15
100
AcDbLine
 10
73.33902164179545
 20
106.6987968622486
 30
0.0
 11
75.38963130723615
 21
107.8796644322472
 31
0.0
  0
ELLIPSE
  5
3D2
330
2
100
AcDbEntity
  8
01-MODEL
370
    15
100
AcDbEllipse
 10
75.38963130723619
 20
107.6752776510366
 30
0.0
 11
0.1247580528960457
 21
0.2166458590363259
 31
0.0
210
0.0
220
0.0
230
1.0
 40
0.578093115915639
 41
0.0
 42
0.7834644549747171
  0
LINE
  5
3D3
330
2
100
AcDbEntity
  8
01-MODEL
370
    15
100
AcDbLine
 10
73.21426358889974
 20
105.1331982472223
 30
0.0
 11
73.56781697949307
 21
104.9296003903261
 31
0.0
  0
LINE
  5
3D4
330
2
100
AcDbEntity
  8
01-MODEL
370
    15
100
AcDbLine
 10
75.51438936013224
 20
107.8919235100729
 30
0.0
 11
75.86794275072557
 21
107.6883256531768
 31
0.0
  0
ELLIPSE
  5
3D5
330
2
100
AcDbEntity
  8
01-MODEL
370
    15
100
AcDbEllipse
 10
71.71267604506413
 20
115.5335127110212
 30
0.0
 11
-0.2495161057922888
 21
0.43329171807254
 31
0.0
210
0.0
220
0.0
230
1.0
 40
0.578093115915638
 41
0.7873318718204772
 42
2.358128198615306
  0
ELLIPSE
  5
3D6
330
2
100
AcDbEntity
  8
01-MODEL
370
    15
100
AcDbEllipse
 10
70.82879256858086
 20
116.0425073532615
 30
0.0
 11
-0.7499999999999246
 21
-0.0000000000001479
 31
0.0
210
0.0
220
0.0
230
1.0
 40
0.5758617009854837
 41
2.01635758073836
 42
2.356194490192585
  0
POLYLINE
  5
3D7
330
2
100
AcDbEntity
  8
01-MODEL
370
    15
100
AcDb2dPolyline
 66
     1
 10
0.0
 20
0.0
 30
0.0
 70
   128
  0
VERTEX
  5
3D8
330
3D7
100
AcDbEntity
  8
01-MODEL
370
    15
100
AcDbVertex
100
AcDb2dVertex
 10
71.15201602488515
 20
115.6527774866434
 30
0.0
  0
VERTEX
  5
3D9
330
3D7
100
AcDbEntity
  8
01-MODEL
370
    15
100
AcDbVertex
100
AcDb2dVertex
 10
71.15292976856088
 20
115.6259580195184
 30
0.0
  0
VERTEX
  5
3DA
330
3D7
100
AcDbEntity
  8
01-MODEL
370
    15
100
AcDbVertex
100
AcDb2dVertex
 10
71.15558586295404
 20
115.5972480768689
 30
0.0
  0
VERTEX
  5
3DB
330
3D7
100
AcDbEntity
  8
01-MODEL
370
    15
100
AcDbVertex
100
AcDb2dVertex
 10
71.15985828898759
 20
115.5673707684947
 30
0.0
  0
VERTEX
  5
3DC
330
3D7
100
AcDbEntity
  8
01-MODEL
370
    15
100
AcDbVertex
100
AcDb2dVertex
 10
71.16561892024209
 20
115.5370506613812
 30
0.0
  0
VERTEX
  5
3DD
330
3D7
100
AcDbEntity
  8
01-MODEL
370
    15
100
AcDbVertex
100
AcDb2dVertex
 10
71.17274173764042
 20
115.5070111089762
 30
0.0
  0
VERTEX
  5
3DE
330
3D7
100
AcDbEntity
  8
01-MODEL
370
    15
100
AcDbVertex
100
AcDb2dVertex
 10
71.1811154735026
 20
115.4779216514293
 30
0.0
  0
VERTEX
  5
3DF
330
3D7
100
AcDbEntity
  8
01-MODEL
370
    15
100
AcDbVertex
100
AcDb2dVertex
 10
71.19122144483855
 20
115.44829296776
 30
0.0
  0
VERTEX
  5
3E0
330
3D7
100
AcDbEntity
  8
01-MODEL
370
    15
100
AcDbVertex
100
AcDb2dVertex
 10
71.20310179849679
 20
115.4176707484398
 30
0.0
  0
VERTEX
  5
3E1
330
3D7
100
AcDbEntity
  8
01-MODEL
370
    15
100
AcDbVertex
100
AcDb2dVertex
 10
71.21643706136564
 20
115.3867459973484
 30
0.0
  0
VERTEX
  5
3E2
330
3D7
100
AcDbEntity
  8
01-MODEL
370
    15
100
AcDbVertex
100
AcDb2dVertex
 10
71.23090818180187
 20
115.3562087447136
 30
0.0
  0
VERTEX
  5
3E3
330
3D7
100
AcDbEntity
  8
01-MODEL
370
    15
100
AcDbVertex
100
AcDb2dVertex
 10
71.24619568669375
 20
115.3267497507669
 30
0.0
  0
VERTEX
  5
3E4
330
3D7
100
AcDbEntity
  8
01-MODEL
370
    15
100
AcDbVertex
100
AcDb2dVertex
 10
71.26201297747141
 20
115.2990025918098
 30
0.0
  0
VERTEX
  5
3E5
330
3D7
100
AcDbEntity
  8
01-MODEL
370
    15
100
AcDbVertex
100
AcDb2dVertex
 10
71.27922406452933
 20
115.2715494587381
 30
0.0
  0
VERTEX
  5
3E6
330
3D7
100
AcDbEntity
  8
01-MODEL
370
    15
100
AcDbVertex
100
AcDb2dVertex
 10
71.29801397253247
 20
115.2439305132903
 30
0.0
  0
VERTEX
  5
3E7
330
3D7
100
AcDbEntity
  8
01-MODEL
370
    15
100
AcDbVertex
100
AcDb2dVertex
 10
71.3179443742563
 20
115.2167246596875
 30
0.0
  0
VERTEX
  5
3E8
330
3D7
100
AcDbEntity
  8
01-MODEL
370
    15
100
AcDbVertex
100
AcDb2dVertex
 10
71.33857652100783
 20
115.1905103139142
 30
0.0
  0
VERTEX
  5
3E9
330
3D7
100
AcDbEntity
  8
01-MODEL
370
    15
100
AcDbVertex
100
AcDb2dVertex
 10
71.35947124262561
 20
115.1658666219584
 30
0.0
  0
VERTEX
  5
3EA
330
3D7
100
AcDbEntity
  8
01-MODEL
370
    15
100
AcDbVertex
100
AcDb2dVertex
 10
71.38019990566023
 20
115.1433615455108
 30
0.0
  0
VERTEX
  5
3EB
330
3D7
100
AcDbEntity
  8
01-MODEL
370
    15
100
AcDbVertex
100
AcDb2dVertex
 10
71.40171039273474
 20
115.1220740173059
 30
0.0
  0
VERTEX
  5
3EC
330
3D7
100
AcDbEntity
  8
01-MODEL
370
    15
100
AcDbVertex
100
AcDb2dVertex
 10
71.42448865701246
 20
115.1014064784974
 30
0.0
  0
VERTEX
  5
3ED
330
3D7
100
AcDbEntity
  8
01-MODEL
370
    15
100
AcDbVertex
100
AcDb2dVertex
 10
71.44802303575248
 20
115.0817732072444
 30
0.0
  0
VERTEX
  5
3EE
330
3D7
100
AcDbEntity
  8
01-MODEL
370
    15
100
AcDbVertex
100
AcDb2dVertex
 10
71.4718006018084
 20
115.0635889661805
 30
0.0
  0
VERTEX
  5
3EF
330
3D7
100
AcDbEntity
  8
01-MODEL
370
    15
100
AcDbVertex
100
AcDb2dVertex
 10
71.49531095684475
 20
115.047267792638
 30
0.0
  0
VERTEX
  5
3F0
330
3D7
100
AcDbEntity
  8
01-MODEL
370
    15
100
AcDbVertex
100
AcDb2dVertex
 10
71.51804117371515
 20
115.0332242056025
 30
0.0
  0
SEQEND
  5
3F1
330
3D7
100
AcDbEntity
  8
01-MODEL
370
    15
  0
ELLIPSE
  5
3F2
330
2
100
AcDbEntity
  8
01-MODEL
370
    15
100
AcDbEllipse
 10
70.82879256858095
 20
115.6337337908403
 30
0.0
 11
1.249999999999965
 21
0.0000000000003205
 31
0.0
210
0.0
220
0.0
230
1.0
 40
0.5758617009854833
 41
5.296429222991802
 42
5.497787143782131
  0
ELLIPSE
  5
3F3
330
2
100
AcDbEntity
  8
01-MODEL
370
    15
100
AcDbEllipse
 10
77.72308368514889
 20
118.9946762782586
 30
0.0
 11
-0.249516105792289
 21
0.43329171807254
 31
0.0
210
0.0
220
0.0
230
1.0
 40
0.5780931159156398
 41
0.7873318718204648
 42
2.358128198615306
  0
LINE
  5
3F4
330
2
100
AcDbEntity
  8
01-MODEL
370
    15
100
AcDbLine
 10
77.36953029455555
 20
119.1982741351547
 30
0.0
 11
71.35912265447078
 21
115.7371105679173
 31
0.0
  0
LINE
  5
3F5
330
2
100
AcDbEntity
  8
01-MODEL
370
    15
100
AcDbLine
 10
71.71267604506422
 20
115.1247391486
 30
0.0
 11
77.72308368514898
 21
118.5859027158374
 31
0.0
  0
POLYLINE
  5
3F6
330
2
100
AcDbEntity
  8
01-MODEL
370
    15
100
AcDb2dPolyline
 66
     1
 10
0.0
 20
0.0
 30
0.0
 70
   128
  0
VERTEX
  5
3F7
330
3F6
100
AcDbEntity
  8
01-MODEL
370
    15
100
AcDbVertex
100
AcDb2dVertex
 10
77.88200203580572
 20
118.6979855326532
 30
0.0
  0
VERTEX
  5
3F8
330
3F6
100
AcDbEntity
  8
01-MODEL
370
    15
100
AcDbVertex
100
AcDb2dVertex
 10
77.85927181893533
 20
118.7120291196887
 30
0.0
  0
VERTEX
  5
3F9
330
3F6
100
AcDbEntity
  8
01-MODEL
370
    15
100
AcDbVertex
100
AcDb2dVertex
 10
77.83576146389894
 20
118.7283502932312
 30
0.0
  0
VERTEX
  5
3FA
330
3F6
100
AcDbEntity
  8
01-MODEL
370
    15
100
AcDbVertex
100
AcDb2dVertex
 10
77.81198389784306
 20
118.7465345342951
 30
0.0
  0
VERTEX
  5
3FB
330
3F6
100
AcDbEntity
  8
01-MODEL
370
    15
100
AcDbVertex
100
AcDb2dVertex
 10
77.78844951910305
 20
118.7661678055481
 30
0.0
  0
VERTEX
  5
3FC
330
3F6
100
AcDbEntity
  8
01-MODEL
370
    15
100
AcDbVertex
100
AcDb2dVertex
 10
77.76567125482532
 20
118.7868353443566
 30
0.0
  0
VERTEX
  5
3FD
330
3F6
100
AcDbEntity
  8
01-MODEL
370
    15
100
AcDbVertex
100
AcDb2dVertex
 10
77.74416076775084
 20
118.8081228725615
 30
0.0
  0
VERTEX
  5
3FE
330
3F6
100
AcDbEntity
  8
01-MODEL
370
    15
100
AcDbVertex
100
AcDb2dVertex
 10
77.72343210471621
 20
118.8306279490091
 30
0.0
  0
VERTEX
  5
3FF
330
3F6
100
AcDbEntity
  8
01-MODEL
370
    15
100
AcDbVertex
100
AcDb2dVertex
 10
77.70253738309844
 20
118.8552716409648
 30
0.0
  0
VERTEX
  5
400
330
3F6
100
AcDbEntity
  8
01-MODEL
370
    15
100
AcDbVertex
100
AcDb2dVertex
 10
77.68190523634689
 20
118.8814859867382
 30
0.0
  0
VERTEX
  5
401
330
3F6
100
AcDbEntity
  8
01-MODEL
370
    15
100
AcDbVertex
100
AcDb2dVertex
 10
77.66197483462306
 20
118.908691840341
 30
0.0
  0
VERTEX
  5
402
330
3F6
100
AcDbEntity
  8
01-MODEL
370
    15
100
AcDbVertex
100
AcDb2dVertex
 10
77.64318492661989
 20
118.9363107857888
 30
0.0
  0
VERTEX
  5
403
330
3F6
100
AcDbEntity
  8
01-MODEL
370
    15
100
AcDbVertex
100
AcDb2dVertex
 10
77.62597383956199
 20
118.9637639188605
 30
0.0
  0
VERTEX
  5
404
330
3F6
100
AcDbEntity
  8
01-MODEL
370
    15
100
AcDbVertex
100
AcDb2dVertex
 10
77.61015654878434
 20
118.9915110778177
 30
0.0
  0
VERTEX
  5
405
330
3F6
100
AcDbEntity
  8
01-MODEL
370
    15
100
AcDbVertex
100
AcDb2dVertex
 10
77.59486904389245
 20
119.0209700717643
 30
0.0
  0
VERTEX
  5
406
330
3F6
100
AcDbEntity
  8
01-MODEL
370
    15
100
AcDbVertex
100
AcDb2dVertex
 10
77.58039792345623
 20
119.0515073243991
 30
0.0
  0
VERTEX
  5
407
330
3F6
100
AcDbEntity
  8
01-MODEL
370
    15
100
AcDbVertex
100
AcDb2dVertex
 10
77.56706266058738
 20
119.0824320754905
 30
0.0
  0
VERTEX
  5
408
330
3F6
100
AcDbEntity
  8
01-MODEL
370
    15
100
AcDbVertex
100
AcDb2dVertex
 10
77.55518230692914
 20
119.1130542948107
 30
0.0
  0
VERTEX
  5
409
330
3F6
100
AcDbEntity
  8
01-MODEL
370
    15
100
AcDbVertex
100
AcDb2dVertex
 10
77.54507633559318
 20
119.14268297848
 30
0.0
  0
VERTEX
  5
40A
330
3F6
100
AcDbEntity
  8
01-MODEL
370
    15
100
AcDbVertex
100
AcDb2dVertex
 10
77.53670259973102
 20
119.1717724360269
 30
0.0
  0
VERTEX
  5
40B
330
3F6
100
AcDbEntity
  8
01-MODEL
370
    15
100
AcDbVertex
100
AcDb2dVertex
 10
77.52957978233268
 20
119.2018119884319
 30
0.0
  0
VERTEX
  5
40C
330
3F6
100
AcDbEntity
  8
01-MODEL
370
    15
100
AcDbVertex
100
AcDb2dVertex
 10
77.5238191510782
 20
119.2321320955454
 30
0.0
  0
VERTEX
  5
40D
330
3F6
100
AcDbEntity
  8
01-MODEL
370
    15
100
AcDbVertex
100
AcDb2dVertex
 10
77.51954672504462
 20
119.2620094039196
 30
0.0
  0
VERTEX
  5
40E
330
3F6
100
AcDbEntity
  8
01-MODEL
370
    15
100
AcDbVertex
100
AcDb2dVertex
 10
77.51689063065146
 20
119.2907193465691
 30
0.0
  0
VERTEX
  5
40F
330
3F6
100
AcDbEntity
  8
01-MODEL
370
    15
100
AcDbVertex
100
AcDb2dVertex
 10
77.51597688697573
 20
119.3175388136941
 30
0.0
  0
SEQEND
  5
410
330
3F6
100
AcDbEntity
  8
01-MODEL
370
    15
  0
ELLIPSE
  5
411
330
2
100
AcDbEntity
  8
01-MODEL
370
    15
100
AcDbEllipse
 10
76.83920020866562
 20
119.5036709204989
 30
0.0
 11
-0.749999999999956
 21
-0.0000000000001476
 31
0.0
210
0.0
220
0.0
230
1.0
 40
0.5758617009854836
 41
2.35619449019265
 42
2.696031399646904
  0
ELLIPSE
  5
412
330
2
100
AcDbEntity
  8
01-MODEL
370
    15
100
AcDbEllipse
 10
76.83920020866581
 20
119.0948973580776
 30
0.0
 11
1.249999999999833
 21
0.0000000000003205
 31
0.0
210
0.0
220
0.0
230
1.0
 40
0.5758617009854836
 41
5.497787143782124
 42
5.699145064572491
  0
LINE
  5
413
330
2
100
AcDbEntity
  8
01-MODEL
370
    15
100
AcDbLine
 10
56.64376372603439
 20
123.9565453616353
 30
0.0
 11
56.5098802495512
 21
123.8794469951338
 31
0.0
  0
ELLIPSE
  5
414
330
2
100
AcDbEntity
  8
01-MODEL
370
    15
100
AcDbEllipse
 10
56.50988024955109
 20
124.2882205575551
 30
0.0
 11
0.2495161057923187
 21
-0.4332917180725313
 31
0.0
210
0.0
220
0.0
230
1.0
 40
0.5780931159156398
 41
5.499720852204878
 42
5.888090147178203
  0
POLYLINE
  5
415
330
2
100
AcDbEntity
  8
01-MODEL
370
    15
100
AcDb2dPolyline
 66
     1
 10
0.0
 20
0.0
 30
0.0
 70
   128
  0
VERTEX
  5
416
330
415
100
AcDbEntity
  8
01-MODEL
370
    15
100
AcDbVertex
100
AcDb2dVertex
 10
56.35096120768614
 20
123.7673641884025
 30
0.0
  0
VERTEX
  5
417
330
415
100
AcDbEntity
  8
01-MODEL
370
    15
100
AcDbVertex
100
AcDb2dVertex
 10
56.36444398452479
 20
123.7599444919124
 30
0.0
  0
VERTEX
  5
418
330
415
100
AcDbEntity
  8
01-MODEL
370
    15
100
AcDbVertex
100
AcDb2dVertex
 10
56.37827910901697
 20
123.7529943604654
 30
0.0
  0
VERTEX
  5
419
330
415
100
AcDbEntity
  8
01-MODEL
370
    15
100
AcDbVertex
100
AcDb2dVertex
 10
56.39235784229356
 20
123.7465505859206
 30
0.0
  0
VERTEX
  5
41A
330
415
100
AcDbEntity
  8
01-MODEL
370
    15
100
AcDbVertex
100
AcDb2dVertex
 10
56.40656975961142
 20
123.7406509309673
 30
0.0
  0
VERTEX
  5
41B
330
415
100
AcDbEntity
  8
01-MODEL
370
    15
100
AcDbVertex
100
AcDb2dVertex
 10
56.42080612210143
 20
123.7353324311122
 30
0.0
  0
VERTEX
  5
41C
330
415
100
AcDbEntity
  8
01-MODEL
370
    15
100
AcDbVertex
100
AcDb2dVertex
 10
56.43495566208351
 20
123.7306338217563
 30
0.0
  0
VERTEX
  5
41D
330
415
100
AcDbEntity
  8
01-MODEL
370
    15
100
AcDbVertex
100
AcDb2dVertex
 10
56.44890964068849
 20
123.7265916511099
 30
0.0
  0
VERTEX
  5
41E
330
415
100
AcDbEntity
  8
01-MODEL
370
    15
100
AcDbVertex
100
AcDb2dVertex
 10
56.4625576331733
 20
123.7232441691588
 30
0.0
  0
VERTEX
  5
41F
330
415
100
AcDbEntity
  8
01-MODEL
370
    15
100
AcDbVertex
100
AcDb2dVertex
 10
56.47579090066871
 20
123.7206281677617
 30
0.0
  0
VERTEX
  5
420
330
415
100
AcDbEntity
  8
01-MODEL
370
    15
100
AcDbVertex
100
AcDb2dVertex
 10
56.48849901843174
 20
123.718781653256
 30
0.0
  0
VERTEX
  5
421
330
415
100
AcDbEntity
  8
01-MODEL
370
    15
100
AcDbVertex
100
AcDb2dVertex
 10
56.50086406084788
 20
123.7177057628692
 30
0.0
  0
VERTEX
  5
422
330
415
100
AcDbEntity
  8
01-MODEL
370
    15
100
AcDbVertex
100
AcDb2dVertex
 10
56.51334289975498
 20
123.7173401167685
 30
0.0
  0
VERTEX
  5
423
330
415
100
AcDbEntity
  8
01-MODEL
370
    15
100
AcDbVertex
100
AcDb2dVertex
 10
56.52585629907786
 20
123.7176667518391
 30
0.0
  0
VERTEX
  5
424
330
415
100
AcDbEntity
  8
01-MODEL
370
    15
100
AcDbVertex
100
AcDb2dVertex
 10
56.53831069281284
 20
123.7186701094706
 30
0.0
  0
VERTEX
  5
425
330
415
100
AcDbEntity
  8
01-MODEL
370
    15
100
AcDbVertex
100
AcDb2dVertex
 10
56.55061082908225
 20
123.7203346272907
 30
0.0
  0
VERTEX
  5
426
330
415
100
AcDbEntity
  8
01-MODEL
370
    15
100
AcDbVertex
100
AcDb2dVertex
 10
56.56266314188243
 20
123.7226445030408
 30
0.0
  0
VERTEX
  5
427
330
415
100
AcDbEntity
  8
01-MODEL
370
    15
100
AcDbVertex
100
AcDb2dVertex
 10
56.57437322227269
 20
123.7255839325815
 30
0.0
  0
VERTEX
  5
428
330
415
100
AcDbEntity
  8
01-MODEL
370
    15
100
AcDbVertex
100
AcDb2dVertex
 10
56.58564750424935
 20
123.7291371136544
 30
0.0
  0
VERTEX
  5
429
330
415
100
AcDbEntity
  8
01-MODEL
370
    15
100
AcDbVertex
100
AcDb2dVertex
 10
56.59639157887175
 20
123.7332887294161
 30
0.0
  0
VERTEX
  5
42A
330
415
100
AcDbEntity
  8
01-MODEL
370
    15
100
AcDbVertex
100
AcDb2dVertex
 10
56.60651188013618
 20
123.7380220030159
 30
0.0
  0
VERTEX
  5
42B
330
415
100
AcDbEntity
  8
01-MODEL
370
    15
100
AcDbVertex
100
AcDb2dVertex
 10
56.61604971195422
 20
123.7433955021472
 30
0.0
  0
VERTEX
  5
42C
330
415
100
AcDbEntity
  8
01-MODEL
370
    15
100
AcDbVertex
100
AcDb2dVertex
 10
56.62541474169333
 20
123.7496323479511
 30
0.0
  0
VERTEX
  5
42D
330
415
100
AcDbEntity
  8
01-MODEL
370
    15
100
AcDbVertex
100
AcDb2dVertex
 10
56.63458336711839
 20
123.7566879001717
 30
0.0
  0
VERTEX
  5
42E
330
415
100
AcDbEntity
  8
01-MODEL
370
    15
100
AcDbVertex
100
AcDb2dVertex
 10
56.64348562446085
 20
123.7644940248905
 30
0.0
  0
SEQEND
  5
42F
330
415
100
AcDbEntity
  8
01-MODEL
370
    15
  0
ELLIPSE
  5
430
330
2
100
AcDbEntity
  8
01-MODEL
370
    15
100
AcDbEllipse
 10
57.39376372603442
 20
123.3704523528936
 30
0.0
 11
-1.249999999999872
 21
-0.0000000000003206
 31
0.0
210
0.0
220
0.0
230
1.0
 40
0.5758617009854836
 41
5.497787143782145
 42
5.69914548462196
  0
ELLIPSE
  5
431
330
2
100
AcDbEntity
  8
01-MODEL
370
    15
100
AcDbEllipse
 10
74.18754836500356
 20
115.124739962992
 30
0.0
 11
1.175
 21
0.0000000000002316
 31
0.0
210
0.0
220
0.0
230
1.0
 40
0.5758617009854836
 41
0.0000000000002072
 42
6.283185307179585
  0
ELLIPSE
  5
432
330
2
100
AcDbEntity
  8
01-MODEL
370
    15
100
AcDbEllipse
 10
77.72308227093576
 20
117.1607185319552
 30
0.0
 11
1.175
 21
0.0000000000002316
 31
0.0
210
0.0
220
0.0
230
1.0
 40
0.5758617009854836
 41
0.0000000000002072
 42
6.283185307179585
  0
LINE
  5
433
330
2
100
AcDbEntity
  8
01-MODEL
370
    15
100
AcDbLine
 10
72.95011149792734
 20
114.2085496069587
 30
0.0
 11
71.51804127706888
 21
115.0332240002724
 31
0.0
  0
ELLIPSE
  5
434
330
2
100
AcDbEntity
  8
01-MODEL
370
    15
100
AcDbEllipse
 10
73.83399497441037
 20
114.7175442491995
 30
0.0
 11
-1.250000000000004
 21
-0.0000000000002464
 31
0.0
210
0.0
220
0.0
230
1.0
 40
0.5758617009854836
 41
0.7853981633976918
 42
2.35619449019258
  0
LINE
  5
435
330
2
100
AcDbEntity
  8
01-MODEL
370
    15
100
AcDbLine
 10
76.08056114305627
 20
114.9932663799719
 30
0.0
 11
74.7178784508937
 21
114.2085496069592
 31
0.0
  0
ELLIPSE
  5
436
330
2
100
AcDbEntity
  8
01-MODEL
370
    15
100
AcDbEllipse
 10
78.07663566152962
 20
114.9211421060968
 30
0.0
 11
-1.999999999999999
 21
-0.0000000000005131
 31
0.0
210
0.0
220
0.0
230
1.0
 40
0.5758617009854832
 41
4.775052895968719
 42
6.220521391595557
  0
LINE
  5
437
330
2
100
AcDbEntity
  8
01-MODEL
370
    15
100
AcDbLine
 10
79.31407252860558
 20
116.8553217466113
 30
0.0
 11
77.95138983644299
 21
116.0706049735986
 31
0.0
  0
ELLIPSE
  5
438
330
2
100
AcDbEntity
  8
01-MODEL
370
    15
100
AcDbEllipse
 10
78.43018905212225
 20
117.3643163888516
 30
0.0
 11
1.250000000000002
 21
0.0000000000003206
 31
0.0
210
0.0
220
0.0
230
1.0
 40
0.5758617009854836
 41
5.497787143782143
 42
7.068583470577047
  0
LINE
  5
439
330
2
100
AcDbEntity
  8
01-MODEL
370
    15
100
AcDbLine
 10
77.88200230774686
 20
118.6979854244061
 30
0.0
 11
79.3140725286053
 21
117.8733110310924
 31
0.0
  0
LINE
  5
43A
330
2
100
AcDbEntity
  8
01-MODEL
370
    15
100
AcDbLine
 10
71.15201587328463
 20
114.2220701058465
 30
0.0
 11
71.15201587328428
 21
115.6527775743207
 31
0.0
  0
LINE
  5
43B
330
2
100
AcDbEntity
  8
01-MODEL
370
    15
100
AcDbLine
 10
71.15201587328463
 20
114.2220701058465
 30
0.0
 11
72.9501114979276
 21
113.1866157009057
 31
0.0
  0
LINE
  5
43C
330
2
100
AcDbEntity
  8
01-MODEL
370
    15
100
AcDbLine
 10
72.95011149792734
 20
114.2085496069587
 30
0.0
 11
72.9501114979276
 21
113.1866157009057
 31
0.0
  0
ELLIPSE
  5
43D
330
2
100
AcDbEntity
  8
01-MODEL
370
    15
100
AcDbEllipse
 10
78.43018905212251
 20
116.3423824827986
 30
0.0
 11
1.250000000000014
 21
0.0000000000003205
 31
0.0
210
0.0
220
0.0
230
1.0
 40
0.5758617009854836
 41
5.497787143782153
 42
6.283185307179584
  0
LINE
  5
43E
330
2
100
AcDbEntity
  8
01-MODEL
370
    15
100
AcDbLine
 10
77.95138983644325
 20
115.0486710675456
 30
0.0
 11
79.31407252860582
 21
115.8333878405583
 31
0.0
  0
ELLIPSE
  5
43F
330
2
100
AcDbEntity
  8
01-MODEL
370
    15
100
AcDbEllipse
 10
78.07663566152985
 20
113.8992082000438
 30
0.0
 11
-1.999999999999993
 21
-0.000000000000513
 31
0.0
210
0.0
220
0.0
230
1.0
 40
0.5758617009854833
 41
4.775052895968719
 42
6.220521391595561
  0
LINE
  5
440
330
2
100
AcDbEntity
  8
01-MODEL
370
    15
100
AcDbLine
 10
74.71787845089396
 20
113.1866157009061
 30
0.0
 11
76.08056114305657
 21
113.9713324739188
 31
0.0
  0
ELLIPSE
  5
441
330
2
100
AcDbEntity
  8
01-MODEL
370
    15
100
AcDbEllipse
 10
73.83399497441065
 20
113.6956103431465
 30
0.0
 11
1.250000000000001
 21
0.0000000000003952
 31
0.0
210
0.0
220
0.0
230
1.0
 40
0.5758617009854837
 41
3.926990816986998
 42
5.497787143781891
  0
ELLIPSE
  5
442
330
2
100
AcDbEntity
  8
01-MODEL
370
    15
100
AcDbEllipse
 10
74.18754836500379
 20
114.102806056939
 30
0.0
 11
-1.175
 21
-0.0000000000003714
 31
0.0
210
0.0
220
0.0
230
1.0
 40
0.5758617009854836
 41
3.997484904459954
 42
5.427293056309013
  0
ELLIPSE
  5
443
330
2
100
AcDbEntity
  8
01-MODEL
370
    15
100
AcDbEllipse
 10
77.72308227093603
 20
116.1387846259022
 30
0.0
 11
-1.174999999999998
 21
-0.0000000000003714
 31
0.0
210
0.0
220
0.0
230
1.0
 40
0.5758617009854837
 41
3.997484904459951
 42
5.427293056309008
  0
LINE
  5
444
330
2
100
AcDbEntity
  8
01-MODEL
370
    15
100
AcDbLine
 10
76.08056114305627
 20
114.9932663799719
 30
0.0
 11
76.08056114305657
 21
113.9713324739188
 31
0.0
  0
LINE
  5
445
330
2
100
AcDbEntity
  8
01-MODEL
370
    15
100
AcDbLine
 10
74.7178784508937
 20
114.2085496069592
 30
0.0
 11
74.71787845089396
 21
113.1866157009061
 31
0.0
  0
LINE
  5
446
330
2
100
AcDbEntity
  8
01-MODEL
370
    15
100
AcDbLine
 10
77.95138983644299
 20
116.0706049735986
 30
0.0
 11
77.95138983644325
 21
115.0486710675456
 31
0.0
  0
LINE
  5
447
330
2
100
AcDbEntity
  8
01-MODEL
370
    15
100
AcDbLine
 10
79.31407252860558
 20
116.8553217466113
 30
0.0
 11
79.31407252860582
 21
115.8333878405583
 31
0.0
  0
ELLIPSE
  5
448
330
2
100
AcDbEntity
  8
01-MODEL
370
    15
100
AcDbEllipse
 10
60.39896718230272
 20
127.7478060666799
 30
0.0
 11
-1.250000000000009
 21
-0.0000000000003209
 31
0.0
210
0.0
220
0.0
230
1.0
 40
0.5758617009854836
 41
4.468615205786909
 42
5.497787143782134
  0
LINE
  5
449
330
2
100
AcDbEntity
  8
01-MODEL
370
    15
100
AcDbLine
 10
59.51508370581938
 20
128.2568007089203
 30
0.0
 11
58.15240101365683
 21
127.4720839359076
 31
0.0
  0
ELLIPSE
  5
44A
330
2
100
AcDbEntity
  8
01-MODEL
370
    15
100
AcDbEllipse
 10
56.15632649518349
 20
127.5442082097826
 30
0.0
 11
1.999999999999999
 21
0.0000000000005131
 31
0.0
210
0.0
220
0.0
230
1.0
 40
0.5758617009854832
 41
4.775052895968729
 42
6.220521391595557
  0
LINE
  5
44B
330
2
100
AcDbEntity
  8
01-MODEL
370
    15
100
AcDbLine
 10
56.2815723202701
 20
126.3947453422809
 30
0.0
 11
54.9188896281075
 21
125.6100285692681
 31
0.0
  0
ELLIPSE
  5
44C
330
2
100
AcDbEntity
  8
01-MODEL
370
    15
100
AcDbEllipse
 10
55.80277310459084
 20
125.1010339270278
 30
0.0
 11
-1.249999999999997
 21
-0.0000000000003204
 31
0.0
210
0.0
220
0.0
230
1.0
 40
0.5758617009854836
 41
5.497787143782132
 42
7.068583470577038
  0
LINE
  5
44D
330
2
100
AcDbEntity
  8
01-MODEL
370
    15
100
AcDbLine
 10
54.91888962810778
 20
124.592039284787
 30
0.0
 11
56.35096133743488
 21
123.7673640343212
 31
0.0
  0
ELLIPSE
  5
44E
330
2
100
AcDbEntity
  8
01-MODEL
370
    15
100
AcDbEllipse
 10
60.04541415548304
 20
127.3406105623706
 30
0.0
 11
-1.174999999999998
 21
-0.0000000000003014
 31
0.0
210
0.0
220
0.0
230
1.0
 40
0.5758617009854836
 41
4.846826113215356
 42
6.819588418412165
  0
ELLIPSE
  5
44F
330
2
100
AcDbEntity
  8
01-MODEL
370
    15
100
AcDbEllipse
 10
56.50988024955083
 20
125.3046319934074
 30
0.0
 11
-1.174999999999995
 21
-0.0000000000003015
 31
0.0
210
0.0
220
0.0
230
1.0
 40
0.5758617009854837
 41
3.446201843843323
 42
7.96817302621902
  0
ELLIPSE
  5
450
330
2
100
AcDbEntity
  8
01-MODEL
370
    15
100
AcDbEllipse
 10
56.5098802495511
 20
124.2826980873544
 30
0.0
 11
-1.175000000000002
 21
-0.0000000000003016
 31
0.0
210
0.0
220
0.0
230
1.0
 40
0.5758617009854837
 41
4.53365511607449
 42
5.427293056309211
  0
LINE
  5
451
330
2
100
AcDbEntity
  8
01-MODEL
370
    15
100
AcDbLine
 10
54.91888962810778
 20
124.592039284787
 30
0.0
 11
54.91888962810807
 21
123.570105378734
 31
0.0
  0
LINE
  5
452
330
2
100
AcDbEntity
  8
01-MODEL
370
    15
100
AcDbLine
 10
54.91888962810807
 20
123.570105378734
 30
0.0
 11
56.64376372603473
 21
122.5768164467167
 31
0.0
  0
ELLIPSE
  5
453
330
2
100
AcDbEntity
  8
01-MODEL
370
    15
100
AcDbEllipse
 10
55.80277310459112
 20
124.0791000209748
 30
0.0
 11
-1.25
 21
-0.0000000000003209
 31
0.0
210
0.0
220
0.0
230
1.0
 40
0.5758617009854836
 41
0.0
 42
0.785398163397443
  0
LINE
  5
454
330
2
100
AcDbEntity
  8
01-MODEL
370
    15
100
AcDbLine
 10
79.68018905212227
 20
117.364316388852
 30
0.0
 11
79.68018905212253
 21
116.3423824827989
 31
0.0
  0
LINE
  5
455
330
2
100
AcDbEntity
  8
01-MODEL
370
    15
100
AcDbLine
 10
54.55277310459084
 20
125.1010339270275
 30
0.0
 11
54.55277310459112
 21
124.0791000209745
 31
0.0
  0
ELLIPSE
  5
456
330
2
100
AcDbEntity
  8
01-MODEL
370
    15
100
AcDbEllipse
 10
63.40417136611892
 20
128.221446032363
 30
0.0
 11
0.7500000000000016
 21
0.0000000000001923
 31
0.0
210
0.0
220
0.0
230
1.0
 40
0.5758617009854836
 41
0.7853981633974457
 42
1.920212263605924
  0
LINE
  5
457
330
2
100
AcDbEntity
  8
01-MODEL
370
    15
100
AcDbLine
 10
56.86343364014415
 20
125.0656792504698
 30
0.0
 11
58.76544933458529
 21
126.1609772435724
 31
0.0
  0
LINE
  5
458
330
2
100
AcDbEntity
  8
01-MODEL
370
    15
100
AcDbLine
 10
71.35912265447078
 20
115.7371105679173
 30
0.0
 11
71.35912265447055
 21
116.7181671177282
 31
0.0
  0
ELLIPSE
  5
459
330
2
100
AcDbEntity
  8
01-MODEL
370
    15
100
AcDbEllipse
 10
70.82879256858056
 20
117.0235639030724
 30
0.0
 11
-0.7500000000000018
 21
-0.0000000000001478
 31
0.0
210
0.0
220
0.0
230
1.0
 40
0.5758617009854836
 41
0.7853981633976952
 42
2.356194490192591
  0
LINE
  5
45A
330
2
100
AcDbEntity
  8
01-MODEL
370
    15
100
AcDbLine
 10
70.29846248269167
 20
113.0800824121792
 30
0.0
 11
70.29846248269072
 21
116.7181671177279
 31
0.0
  0
ELLIPSE
  5
45B
330
2
100
AcDbEntity
  8
01-MODEL
370
    15
100
AcDbEllipse
 10
70.8287925685815
 20
113.3854791975237
 30
0.0
 11
-0.7500000000000018
 21
-0.0000000000001478
 31
0.0
210
0.0
220
0.0
230
1.0
 40
0.5758617009854836
 41
0.7853981633976952
 42
2.356194490192585
  0
LINE
  5
45C
330
2
100
AcDbEntity
  8
01-MODEL
370
    15
100
AcDbLine
 10
71.35912265447149
 20
113.0800824121795
 30
0.0
 11
71.35912265447122
 21
114.1028052425468
 31
0.0
  0
LINE
  5
45D
330
2
100
AcDbEntity
  8
01-MODEL
370
    15
100
AcDbLine
 10
70.29846248269167
 20
113.0800824121792
 30
0.0
 11
56.86343364014527
 21
120.8168009742324
 31
0.0
  0
LINE
  5
45E
330
2
100
AcDbEntity
  8
01-MODEL
370
    15
100
AcDbLine
 10
56.86343364014707
 20
113.8676504130718
 30
0.0
 11
56.86343364014527
 21
120.8168009742324
 31
0.0
  0
LINE
  5
45F
330
2
100
AcDbEntity
  8
01-MODEL
370
    15
100
AcDbLine
 10
70.29846248269345
 20
106.1309318510186
 30
0.0
 11
56.86343364014707
 21
113.8676504130718
 31
0.0
  0
LINE
  5
460
330
2
100
AcDbEntity
  8
01-MODEL
370
    15
100
AcDbLine
 10
70.29846248269345
 20
106.1309318510186
 30
0.0
 11
70.29846248269167
 21
113.0800824121792
 31
0.0
  0
ELLIPSE
  5
461
330
2
100
AcDbEntity
  8
01-MODEL
370
    15
100
AcDbEllipse
 10
57.39376372603509
 20
121.1221977595768
 30
0.0
 11
-0.749999999999999
 21
-0.0000000000001926
 31
0.0
210
0.0
220
0.0
230
1.0
 40
0.5758617009854837
 41
0.0
 42
0.7853981633974279
  0
ELLIPSE
  5
462
330
2
100
AcDbEntity
  8
01-MODEL
370
    15
100
AcDbEllipse
 10
57.3937637260369
 20
114.1730471984162
 30
0.0
 11
-0.749999999999999
 21
-0.0000000000001926
 31
0.0
210
0.0
220
0.0
230
1.0
 40
0.5758617009854837
 41
0.0
 42
0.785398163397452
  0
LINE
  5
463
330
2
100
AcDbEntity
  8
01-MODEL
370
    15
100
AcDbLine
 10
77.36953029455624
 20
116.5412459794169
 30
0.0
 11
77.33588951909236
 21
116.5218735452357
 31
0.0
  0
LINE
  5
464
330
2
100
AcDbEntity
  8
01-MODEL
370
    15
100
AcDbLine
 10
74.30429651506591
 20
114.7760952412403
 30
0.0
 11
73.80035561316015
 21
114.4858949762726
 31
0.0
  0
LINE
  5
465
330
2
100
AcDbEntity
  8
01-MODEL
370
    15
100
AcDbLine
 10
72.24711609857191
 20
113.5914438273634
 30
0.0
 11
71.35912265447149
 21
113.0800824121795
 31
0.0
  0
LINE
  5
466
330
2
100
AcDbEntity
  8
01-MODEL
370
    15
100
AcDbLine
 10
77.36953029455624
 20
116.5412459794169
 30
0.0
 11
77.36953029455621
 21
116.7840648354804
 31
0.0
  0
ELLIPSE
  5
467
330
2
100
AcDbEntity
  8
01-MODEL
370
    15
100
AcDbEllipse
 10
76.83920020866624
 20
116.8466427647611
 30
0.0
 11
0.7499999999999975
 21
0.0000000000001924
 31
0.0
210
0.0
220
0.0
230
1.0
 40
0.5758617009854837
 41
5.497787143782118
 42
6.200201114462316
  0
ELLIPSE
  5
468
330
2
100
AcDbEntity
  8
01-MODEL
370
    15
100
AcDbEllipse
 10
76.83920020866533
 20
120.4847274703098
 30
0.0
 11
0.7499999999999996
 21
0.0000000000001924
 31
0.0
210
0.0
220
0.0
230
1.0
 40
0.5758617009854836
 41
5.497787143782118
 42
7.068583470577013
  0
LINE
  5
469
330
2
100
AcDbEntity
  8
01-MODEL
370
    15
100
AcDbLine
 10
77.36953029455555
 20
119.1982741351547
 30
0.0
 11
77.36953029455529
 21
120.1793306849656
 31
0.0
  0
LINE
  5
46A
330
2
100
AcDbEntity
  8
01-MODEL
370
    15
100
AcDbLine
 10
63.93450145200876
 20
128.5268428177075
 30
0.0
 11
64.09979056604967
 21
128.4316591473416
 31
0.0
  0
LINE
  5
46B
330
2
100
AcDbEntity
  8
01-MODEL
370
    15
100
AcDbLine
 10
75.51059444172854
 20
121.8606142178853
 30
0.0
 11
77.36953029455516
 21
120.7901242556543
 31
0.0
  0
ELLIPSE
  5
46C
330
2
100
AcDbEntity
  8
01-MODEL
370
    15
100
AcDbEllipse
 10
76.83920020866804
 20
109.8974922036005
 30
0.0
 11
0.749999999999996
 21
0.0000000000001931
 31
0.0
210
0.0
220
0.0
230
1.0
 40
0.5758617009854836
 41
5.497787143782114
 42
6.283185307179567
  0
LINE
  5
46D
330
2
100
AcDbEntity
  8
01-MODEL
370
    15
100
AcDbLine
 10
77.36953029455856
 20
107.466472893666
 30
0.0
 11
77.36953029455801
 21
109.5920954182563
 31
0.0
  0
LINE
  5
46E
330
2
100
AcDbEntity
  8
01-MODEL
370
    15
100
AcDbLine
 10
77.36953029455801
 20
109.5920954182563
 30
0.0
 11
71.35912265447325
 21
106.1309318510189
 31
0.0
  0
LINE
  5
46F
330
2
100
AcDbEntity
  8
01-MODEL
370
    15
100
AcDbLine
 10
71.35912265447382
 20
104.0053093264286
 30
0.0
 11
71.35912265447325
 21
106.1309318510189
 31
0.0
  0
ELLIPSE
  5
470
330
2
100
AcDbEntity
  8
01-MODEL
370
    15
100
AcDbEllipse
 10
70.82879256858328
 20
106.4363286363631
 30
0.0
 11
-0.7500000000000018
 21
-0.0000000000001478
 31
0.0
210
0.0
220
0.0
230
1.0
 40
0.5758617009854836
 41
0.7853981633976952
 42
2.356194490192585
  0
LINE
  5
471
330
2
100
AcDbEntity
  8
01-MODEL
370
    15
100
AcDbLine
 10
70.29846248269399
 20
104.0053093264283
 30
0.0
 11
70.29846248269345
 21
106.1309318510186
 31
0.0
  0
LINE
  5
472
330
2
100
AcDbEntity
  8
01-MODEL
370
    15
100
AcDbLine
 10
56.8634336401476
 20
111.7420278884815
 30
0.0
 11
56.86343364014707
 21
113.8676504130718
 31
0.0
  0
LINE
  5
473
330
2
100
AcDbEntity
  8
01-MODEL
370
    15
100
AcDbLine
 10
56.86343364014527
 20
120.8168009742324
 30
0.0
 11
56.86343364014433
 21
124.4548856797811
 31
0.0
  0
ELLIPSE
  5
474
330
2
100
AcDbEntity
  8
01-MODEL
370
    15
100
AcDbEllipse
 10
57.39376372603415
 20
124.7602824651256
 30
0.0
 11
-0.7500000000000036
 21
-0.0000000000001926
 31
0.0
210
0.0
220
0.0
230
1.0
 40
0.5758617009854836
 41
5.497787143782132
 42
7.068583470577013
  0
LINE
  5
475
330
2
100
AcDbEntity
  8
01-MODEL
370
    15
100
AcDbLine
 10
77.36953029455801
 20
109.5920954182563
 30
0.0
 11
77.36953029455666
 21
114.9765471014806
 31
0.0
  0
LINE
  5
476
330
2
100
AcDbEntity
  8
01-MODEL
370
    15
100
AcDbLine
 10
77.36953029455624
 20
116.5154383223769
 30
0.0
 11
77.36953029455624
 21
116.5412459794169
 31
0.0
  0
LINE
  5
477
330
2
100
AcDbEntity
  8
01-MODEL
370
    15
100
AcDbLine
 10
71.35912265447325
 20
106.1309318510189
 30
0.0
 11
71.35912265447149
 21
113.0800824121795
 31
0.0
  0
LINE
  5
478
330
2
100
AcDbEntity
  8
01-MODEL
370
    15
100
AcDbLine
 10
77.36953029455529
 20
120.1793306849656
 30
0.0
 11
71.35912265447055
 21
116.7181671177282
 31
0.0
  0
LINE
  5
479
330
2
100
AcDbEntity
  8
01-MODEL
370
    15
100
AcDbLine
 10
66.97506053579663
 20
118.6319870159237
 30
0.0
 11
62.59099705539049
 21
121.1566007487374
 31
0.0
  0
LINE
  5
47A
330
2
100
AcDbEntity
  8
01-MODEL
370
    15
100
AcDbLine
 10
70.29846248269072
 20
116.7181671177279
 30
0.0
 11
66.97506053579663
 21
118.6319870159237
 31
0.0
  0
LINE
  5
47B
330
2
100
AcDbEntity
  8
01-MODEL
370
    15
100
AcDbLine
 10
59.33830581537193
 20
123.0297010589939
 30
0.0
 11
56.86343364014433
 21
124.4548856797811
 31
0.0
  0
LINE
  5
47C
330
2
100
AcDbEntity
  8
01-MODEL
370
    15
100
AcDbLine
 10
56.6437637260369
 20
114.1730471984161
 30
0.0
 11
56.64376372603508
 21
121.1221977595767
 31
0.0
  0
LINE
  5
47D
330
2
100
AcDbEntity
  8
01-MODEL
370
    15
100
AcDbLine
 10
77.5892002086657
 20
119.0319354227274
 30
0.0
 11
77.58920020866532
 21
120.48472747031
 31
0.0
  0
LINE
  5
47E
330
2
100
AcDbEntity
  8
01-MODEL
370
    15
100
AcDbLine
 10
77.5892002086686
 20
107.7718696790104
 30
0.0
 11
77.58920020866804
 21
109.8974922036007
 31
0.0
  0
LINE
  5
47F
330
2
100
AcDbEntity
  8
01-MODEL
370
    15
100
AcDbLine
 10
56.64376372603508
 20
121.1221977595767
 30
0.0
 11
56.64376372603415
 21
124.7602824651254
 31
0.0
  0
LINE
  5
480
330
2
100
AcDbEntity
  8
01-MODEL
370
    15
100
AcDbLine
 10
77.58920020866804
 20
109.8974922036007
 30
0.0
 11
77.58920020866671
 21
115.0162027756842
 31
0.0
  0
LINE
  5
481
330
2
100
AcDbEntity
  8
01-MODEL
370
    15
100
AcDbLine
 10
77.58920020866634
 20
116.4884877144165
 30
0.0
 11
77.58920020866627
 21
116.8110154434408
 31
0.0
  0
LINE
  5
482
330
2
100
AcDbEntity
  8
01-MODEL
370
    15
100
AcDbLine
 10
56.64376372603743
 20
112.0474246738258
 30
0.0
 11
56.6437637260369
 21
114.1730471984161
 31
0.0
  0
LINE
  5
483
330
2
100
AcDbEntity
  8
01-MODEL
370
    15
100
AcDbLine
 10
66.40937407894151
 20
128.6958753504829
 30
0.0
 11
67.11648196734829
 21
128.288678999085
 31
0.0
  0
LINE
  5
484
330
2
100
AcDbEntity
  8
01-MODEL
370
    15
100
AcDbLine
 10
67.39932467982294
 20
128.1258007135681
 30
0.0
 11
67.64681205323828
 21
127.9832822137408
 31
0.0
  0
LINE
  5
485
330
2
100
AcDbEntity
  8
01-MODEL
370
    15
100
AcDbLine
 10
67.92965476571293
 20
127.8204039282239
 30
0.0
 11
69.66206531896006
 21
126.8227750402264
 31
0.0
  0
LINE
  5
486
330
2
100
AcDbEntity
  8
01-MODEL
370
    15
100
AcDbLine
 10
62.87384017300929
 20
126.6598967815198
 30
0.0
 11
66.40937407894151
 21
128.6958753504829
 31
0.0
  0
LINE
  5
487
330
2
100
AcDbEntity
  8
01-MODEL
370
    15
100
AcDbLine
 10
59.33830581537153
 20
124.6239179524366
 30
0.0
 11
62.87384017300929
 21
126.6598967815198
 31
0.0
  0
LINE
  5
488
330
2
100
AcDbEntity
  8
01-MODEL
370
    15
100
AcDbLine
 10
62.59099705539009
 20
122.7508176421801
 30
0.0
 11
59.33830581537153
 21
124.6239179524366
 31
0.0
  0
LINE
  5
489
330
2
100
AcDbEntity
  8
01-MODEL
370
    15
100
AcDbLine
 10
66.12653141302783
 20
124.7867964712632
 30
0.0
 11
62.59099705539009
 21
122.7508176421801
 31
0.0
  0
LINE
  5
48A
330
2
100
AcDbEntity
  8
01-MODEL
370
    15
100
AcDbLine
 10
69.66206531896006
 20
126.8227750402264
 30
0.0
 11
66.12653141302783
 21
124.7867964712632
 31
0.0
  0
LINE
  5
48B
330
2
100
AcDbEntity
  8
01-MODEL
370
    15
100
AcDbLine
 10
67.11648196734829
 20
128.288678999085
 30
0.0
 11
67.11648196734829
 21
128.1660469303586
 31
0.0
  0
LINE
  5
48C
330
2
100
AcDbEntity
  8
01-MODEL
370
    15
100
AcDbLine
 10
67.11648196734829
 20
128.1660469303586
 30
0.0
 11
67.29284766588325
 21
128.0644846792049
 31
0.0
  0
LINE
  5
48D
330
2
100
AcDbEntity
  8
01-MODEL
370
    15
100
AcDbLine
 10
67.64681205323828
 20
127.9832822137408
 30
0.0
 11
67.64681205323829
 21
127.8606501450144
 31
0.0
  0
LINE
  5
48E
330
2
100
AcDbEntity
  8
01-MODEL
370
    15
100
AcDbLine
 10
67.64681205323829
 20
127.8606501450144
 30
0.0
 11
67.82317775177323
 21
127.7590878938607
 31
0.0
  0
LINE
  5
48F
330
2
100
AcDbEntity
  8
01-MODEL
370
    15
100
AcDbLine
 10
67.92965476571293
 20
127.8204039282239
 30
0.0
 11
66.58615142975313
 21
127.0467318118979
 31
0.0
  0
LINE
  5
490
330
2
100
AcDbEntity
  8
01-MODEL
370
    15
100
AcDbLine
 10
67.64681205323829
 20
127.8606501450144
 30
0.0
 11
66.40978573121822
 21
127.1482940630517
 31
0.0
  0
LINE
  5
491
330
2
100
AcDbEntity
  8
01-MODEL
370
    15
100
AcDbLine
 10
66.30330871727847
 20
127.2096100974149
 30
0.0
 11
67.64681205323828
 21
127.9832822137408
 31
0.0
  0
LINE
  5
492
330
2
100
AcDbEntity
  8
01-MODEL
370
    15
100
AcDbLine
 10
66.58615142975313
 20
127.0467318118979
 30
0.0
 11
66.30330871727847
 21
127.2096100974149
 31
0.0
  0
ELLIPSE
  5
493
330
2
100
AcDbEntity
  8
01-MODEL
370
    15
100
AcDbEllipse
 10
61.49498194969742
 20
119.2784571749924
 30
0.0
 11
-4.990322115840164
 21
-8.665834361451347
 31
0.0
210
0.0
220
0.0
230
1.0
 40
0.578093115915639
 41
3.900054569894415
 42
3.950059779693159
  0
LINE
  5
494
330
2
100
AcDbEntity
  8
01-MODEL
370
    15
100
AcDbLine
 10
61.31820478623158
 20
127.3495739777477
 30
0.0
 11
60.96465139563825
 21
127.5531718346438
 31
0.0
  0
LINE
  5
495
330
2
100
AcDbEntity
  8
01-MODEL
370
    15
100
AcDbLine
 10
61.31820478623146
 20
127.756769718613
 30
0.0
 11
61.67175817682479
 21
127.5531718617169
 31
0.0
  0
LINE
  5
496
330
2
100
AcDbEntity
  8
01-MODEL
370
    15
100
AcDbLine
 10
61.31820478623146
 20
127.756769718613
 30
0.0
 11
61.3182047862315
 21
127.6366928704331
 31
0.0
  0
LINE
  5
497
330
2
100
AcDbEntity
  8
01-MODEL
370
    15
100
AcDbLine
 10
61.56563552207106
 20
127.4942069860165
 30
0.0
 11
61.3182047862315
 21
127.6366928704331
 31
0.0
  0
ELLIPSE
  5
498
330
2
100
AcDbEntity
  8
01-MODEL
370
    15
100
AcDbEllipse
 10
61.14142855910411
 20
119.4820550318885
 30
0.0
 11
4.990322115840686
 21
8.66583436145105
 31
0.0
210
0.0
220
0.0
230
1.0
 40
0.5780931159156392
 41
0.7584619163048796
 42
0.8084671261036131
  0
LINE
  5
499
330
2
100
AcDbEntity
  8
01-MODEL
370
    15
100
AcDbLine
 10
61.3182047862315
 20
127.6366928704331
 30
0.0
 11
61.06890977998779
 21
127.4931334240903
 31
0.0
  0
ELLIPSE
  5
49A
330
2
100
AcDbEntity
  8
01-MODEL
370
    15
100
AcDbEllipse
 10
62.5556421214774
 20
118.667663604304
 30
0.0
 11
-4.990322115840164
 21
-8.665834361451347
 31
0.0
210
0.0
220
0.0
230
1.0
 40
0.578093115915639
 41
3.900054569894415
 42
3.950059779693159
  0
LINE
  5
49B
330
2
100
AcDbEntity
  8
01-MODEL
370
    15
100
AcDbLine
 10
62.37886495801155
 20
126.7387804070593
 30
0.0
 11
62.02531156741822
 21
126.9423782639554
 31
0.0
  0
LINE
  5
49C
330
2
100
AcDbEntity
  8
01-MODEL
370
    15
100
AcDbLine
 10
62.37886495801143
 20
127.1459761479246
 30
0.0
 11
62.73241834860478
 21
126.9423782910285
 31
0.0
  0
LINE
  5
49D
330
2
100
AcDbEntity
  8
01-MODEL
370
    15
100
AcDbLine
 10
62.37886495801143
 20
127.1459761479246
 30
0.0
 11
62.37886495801149
 21
127.0258992997447
 31
0.0
  0
LINE
  5
49E
330
2
100
AcDbEntity
  8
01-MODEL
370
    15
100
AcDbLine
 10
62.62629569385104
 20
126.8834134153281
 30
0.0
 11
62.37886495801149
 21
127.0258992997447
 31
0.0
  0
ELLIPSE
  5
49F
330
2
100
AcDbEntity
  8
01-MODEL
370
    15
100
AcDbEllipse
 10
62.2020887308841
 20
118.8712614612001
 30
0.0
 11
4.990322115840686
 21
8.66583436145105
 31
0.0
210
0.0
220
0.0
230
1.0
 40
0.5780931159156392
 41
0.7584619163048796
 42
0.8084671261036131
  0
LINE
  5
4A0
330
2
100
AcDbEntity
  8
01-MODEL
370
    15
100
AcDbLine
 10
62.37886495801149
 20
127.0258992997447
 30
0.0
 11
62.12956995176777
 21
126.8823398534019
 31
0.0
  0
LINE
  5
4A1
330
2
100
AcDbEntity
  8
01-MODEL
370
    15
100
AcDbLine
 10
62.90919504390139
 20
127.0846878366485
 30
0.0
 11
62.64403000095638
 21
127.2373862293206
 31
0.0
  0
ELLIPSE
  5
4A2
330
2
100
AcDbEntity
  8
01-MODEL
370
    15
100
AcDbEllipse
 10
62.24628290470792
 20
118.8458117290815
 30
0.0
 11
4.990322115844561
 21
8.665834361457783
 31
0.0
210
0.0
220
0.0
230
1.0
 40
0.578093115915639
 41
0.6895766463689263
 42
0.7271848158877337
  0
LINE
  5
4A3
330
2
100
AcDbEntity
  8
01-MODEL
370
    15
100
AcDbLine
 10
62.90919504390132
 20
127.2803966208651
 30
0.0
 11
62.73926814662577
 21
127.1825422287567
 31
0.0
  0
LINE
  5
4A4
330
2
100
AcDbEntity
  8
01-MODEL
370
    15
100
AcDbLine
 10
62.90919504390132
 20
127.367022085885
 30
0.0
 11
62.90919504390132
 21
127.2803966208651
 31
0.0
  0
LINE
  5
4A5
330
2
100
AcDbEntity
  8
01-MODEL
370
    15
100
AcDbLine
 10
62.90919504390132
 20
127.367022085885
 30
0.0
 11
63.17436008684628
 21
127.2143236932129
 31
0.0
  0
LINE
  5
4A6
330
2
100
AcDbEntity
  8
01-MODEL
370
    15
100
AcDbLine
 10
63.0918345723714
 20
127.1752215113332
 30
0.0
 11
62.90919504390132
 21
127.2803966208651
 31
0.0
  0
ELLIPSE
  5
4A7
330
2
100
AcDbEntity
  8
01-MODEL
370
    15
100
AcDbEllipse
 10
62.51144794765298
 20
118.6931133364105
 30
0.0
 11
-4.990322115843455
 21
-8.66583436145706
 31
0.0
210
0.0
220
0.0
230
1.0
 40
0.5780931159156393
 41
3.831169299958421
 42
3.868777469477243
  0
LINE
  5
4A8
330
2
100
AcDbEntity
  8
01-MODEL
370
    15
100
AcDbLine
 10
61.8485348721214
 20
127.6954814073369
 30
0.0
 11
61.5833698291764
 21
127.848179800009
 31
0.0
  0
ELLIPSE
  5
4A9
330
2
100
AcDbEntity
  8
01-MODEL
370
    15
100
AcDbEllipse
 10
61.18562273292795
 20
119.45660529977
 30
0.0
 11
4.990322115844561
 21
8.665834361457783
 31
0.0
210
0.0
220
0.0
230
1.0
 40
0.578093115915639
 41
0.6895766463689263
 42
0.7271848158877337
  0
LINE
  5
4AA
330
2
100
AcDbEntity
  8
01-MODEL
370
    15
100
AcDbLine
 10
61.84853487212135
 20
127.8911901915535
 30
0.0
 11
61.6786079748458
 21
127.7933357994452
 31
0.0
  0
LINE
  5
4AB
330
2
100
AcDbEntity
  8
01-MODEL
370
    15
100
AcDbLine
 10
61.84853487212133
 20
127.9778156565734
 30
0.0
 11
61.84853487212135
 21
127.8911901915535
 31
0.0
  0
LINE
  5
4AC
330
2
100
AcDbEntity
  8
01-MODEL
370
    15
100
AcDbLine
 10
61.84853487212133
 20
127.9778156565734
 30
0.0
 11
62.11369991506632
 21
127.8251172639013
 31
0.0
  0
LINE
  5
4AD
330
2
100
AcDbEntity
  8
01-MODEL
370
    15
100
AcDbLine
 10
62.03117440059141
 20
127.7860150820216
 30
0.0
 11
61.84853487212135
 21
127.8911901915535
 31
0.0
  0
ELLIPSE
  5
4AE
330
2
100
AcDbEntity
  8
01-MODEL
370
    15
100
AcDbEllipse
 10
61.45078777587301
 20
119.3039069070989
 30
0.0
 11
-4.990322115843455
 21
-8.66583436145706
 31
0.0
210
0.0
220
0.0
230
1.0
 40
0.5780931159156393
 41
3.831169299958421
 42
3.868777469477243
  0
LINE
  5
4AF
330
2
100
AcDbEntity
  8
01-MODEL
370
    15
100
AcDbLine
 10
61.31820478623164
 20
127.0846877756566
 30
0.0
 11
61.58336982917664
 21
126.9319893829845
 31
0.0
  0
LINE
  5
4B0
330
2
100
AcDbEntity
  8
01-MODEL
370
    15
100
AcDbLine
 10
61.31820478623164
 20
127.0846877756566
 30
0.0
 11
61.31820478623168
 21
126.9749998355204
 31
0.0
  0
LINE
  5
4B1
330
2
100
AcDbEntity
  8
01-MODEL
370
    15
100
AcDbLine
 10
61.4937721585089
 20
126.8738973098833
 30
0.0
 11
61.31820478623168
 21
126.9749998355204
 31
0.0
  0
ELLIPSE
  5
4B2
330
2
100
AcDbEntity
  8
01-MODEL
370
    15
100
AcDbEllipse
 10
61.98111786176345
 20
118.9985101217553
 30
0.0
 11
-4.99032211584319
 21
-8.665834361456601
 31
0.0
210
0.0
220
0.0
230
1.0
 40
0.578093115915639
 41
3.981336880278917
 42
4.018945050173535
  0
LINE
  5
4B3
330
2
100
AcDbEntity
  8
01-MODEL
370
    15
100
AcDbLine
 10
61.31820478623172
 20
126.7562284132554
 30
0.0
 11
61.05303974328673
 21
126.9089268059275
 31
0.0
  0
ELLIPSE
  5
4B4
330
2
100
AcDbEntity
  8
01-MODEL
370
    15
100
AcDbEllipse
 10
61.71595281881844
 20
119.151208514428
 30
0.0
 11
4.990322115843358
 21
8.665834361455686
 31
0.0
210
0.0
220
0.0
230
1.0
 40
0.578093115915639
 41
0.8397442266893378
 42
0.8773523965839443
  0
LINE
  5
4B5
330
2
100
AcDbEntity
  8
01-MODEL
370
    15
100
AcDbLine
 10
61.31820478623168
 20
126.9749998355204
 30
0.0
 11
61.12825342995067
 21
126.8656141243878
 31
0.0
  0
ELLIPSE
  5
4B6
330
2
100
AcDbEntity
  8
01-MODEL
370
    15
100
AcDbEllipse
 10
61.93692368793801
 20
119.023959853878
 30
0.0
 11
-4.990322115836212
 21
-8.665834361444478
 31
0.0
210
0.0
220
0.0
230
1.0
 40
0.578093115915639
 41
4.062994171826437
 42
4.088280979181471
  0
LINE
  5
4B7
330
2
100
AcDbEntity
  8
01-MODEL
370
    15
100
AcDbLine
 10
60.7878747003419
 20
126.429073788935
 30
0.0
 11
60.61109800504524
 21
126.5308727173831
 31
0.0
  0
ELLIPSE
  5
4B8
330
2
100
AcDbEntity
  8
01-MODEL
370
    15
100
AcDbEllipse
 10
61.7601469926436
 20
119.1257587823102
 30
0.0
 11
4.990322115847313
 21
8.665834361462557
 31
0.0
210
0.0
220
0.0
230
1.0
 40
0.5780931159156393
 41
0.9214015182368502
 42
0.9466883255918119
  0
LINE
  5
4B9
330
2
100
AcDbEntity
  8
01-MODEL
370
    15
100
AcDbLine
 10
60.78787470034186
 20
126.6187035859518
 30
0.0
 11
60.62322596897782
 21
126.5238886874434
 31
0.0
  0
LINE
  5
4BA
330
2
100
AcDbEntity
  8
01-MODEL
370
    15
100
AcDbLine
 10
60.78787470034186
 20
126.6636830469599
 30
0.0
 11
60.78787470034186
 21
126.6187035859518
 31
0.0
  0
LINE
  5
4BB
330
2
100
AcDbEntity
  8
01-MODEL
370
    15
100
AcDbLine
 10
60.78787470034186
 20
126.6636830469599
 30
0.0
 11
60.9646513956385
 21
126.5618841185118
 31
0.0
  0
LINE
  5
4BC
330
2
100
AcDbEntity
  8
01-MODEL
370
    15
100
AcDbLine
 10
60.93044915953568
 20
126.5366004153634
 30
0.0
 11
60.78787470034186
 21
126.6187035859518
 31
0.0
  0
ELLIPSE
  5
4BD
330
2
100
AcDbEntity
  8
01-MODEL
370
    15
100
AcDbEllipse
 10
61.93692368793907
 20
119.0239598538705
 30
0.0
 11
-4.990322115841219
 21
-8.665834361453171
 31
0.0
210
0.0
220
0.0
230
1.0
 40
0.5780931159156393
 41
3.761833372148453
 42
3.787120178989518
  0
LINE
  5
4BE
330
2
100
AcDbEntity
  8
01-MODEL
370
    15
100
AcDbLine
 10
62.90919504390121
 20
127.6816724817233
 30
0.0
 11
62.73241834860457
 21
127.7834714101714
 31
0.0
  0
ELLIPSE
  5
4BF
330
2
100
AcDbEntity
  8
01-MODEL
370
    15
100
AcDbEllipse
 10
61.76014699264275
 20
119.1257587823212
 30
0.0
 11
4.99032211584018
 21
8.665834361450173
 31
0.0
210
0.0
220
0.0
230
1.0
 40
0.578093115915639
 41
0.6202407185589909
 42
0.6455275254000572
  0
LINE
  5
4C0
330
2
100
AcDbEntity
  8
01-MODEL
370
    15
100
AcDbLine
 10
62.90919504390118
 20
127.8402907273298
 30
0.0
 11
62.77147252707553
 21
127.7609816045265
 31
0.0
  0
LINE
  5
4C1
330
2
100
AcDbEntity
  8
01-MODEL
370
    15
100
AcDbLine
 10
62.90919504390118
 20
127.8542589654976
 30
0.0
 11
62.90919504390118
 21
127.8402907273298
 31
0.0
  0
LINE
  5
4C2
330
2
100
AcDbEntity
  8
01-MODEL
370
    15
100
AcDbLine
 10
62.90919504390118
 20
127.8542589654976
 30
0.0
 11
63.08597173919785
 21
127.7524600370495
 31
0.0
  0
LINE
  5
4C3
330
2
100
AcDbEntity
  8
01-MODEL
370
    15
100
AcDbLine
 10
63.07145999188081
 20
127.7468485583759
 30
0.0
 11
62.90919504390118
 21
127.8402907273298
 31
0.0
  0
LINE
  5
4C4
330
2
100
AcDbEntity
  8
01-MODEL
370
    15
100
AcDbLine
 10
63.43952512979117
 20
127.5488621801534
 30
0.0
 11
63.61630182508785
 21
127.4470632517053
 31
0.0
  0
LINE
  5
4C5
330
2
100
AcDbEntity
  8
01-MODEL
370
    15
100
AcDbLine
 10
63.43952512979117
 20
127.5488621801534
 30
0.0
 11
63.43952512979117
 21
127.5348939419855
 31
0.0
  0
LINE
  5
4C6
330
2
100
AcDbEntity
  8
01-MODEL
370
    15
100
AcDbLine
 10
63.60179007777081
 20
127.4414517730317
 30
0.0
 11
63.43952512979117
 21
127.5348939419855
 31
0.0
  0
ELLIPSE
  5
4C7
330
2
100
AcDbEntity
  8
01-MODEL
370
    15
100
AcDbEllipse
 10
62.46725377382905
 20
118.7185630685263
 30
0.0
 11
-4.990322115841219
 21
-8.665834361453171
 31
0.0
210
0.0
220
0.0
230
1.0
 40
0.5780931159156393
 41
3.761833372148453
 42
3.787120178989518
  0
LINE
  5
4C8
330
2
100
AcDbEntity
  8
01-MODEL
370
    15
100
AcDbLine
 10
63.43952512979122
 20
127.3762756963791
 30
0.0
 11
63.26274843449454
 21
127.4780746248272
 31
0.0
  0
ELLIPSE
  5
4C9
330
2
100
AcDbEntity
  8
01-MODEL
370
    15
100
AcDbEllipse
 10
62.29047707853272
 20
118.820361996977
 30
0.0
 11
4.99032211584018
 21
8.665834361450173
 31
0.0
210
0.0
220
0.0
230
1.0
 40
0.578093115915639
 41
0.6202407185589909
 42
0.6455275254000572
  0
LINE
  5
4CA
330
2
100
AcDbEntity
  8
01-MODEL
370
    15
100
AcDbLine
 10
63.43952512979117
 20
127.5348939419855
 30
0.0
 11
63.30180261296552
 21
127.4555848191823
 31
0.0
  0
ELLIPSE
  5
4CB
330
2
100
AcDbEntity
  8
01-MODEL
370
    15
100
AcDbEllipse
 10
62.29047707853358
 20
118.820361996966
 30
0.0
 11
4.990322115847313
 21
8.665834361462557
 31
0.0
210
0.0
220
0.0
230
1.0
 40
0.5780931159156393
 41
0.9214015182368502
 42
0.9466883255918119
  0
LINE
  5
4CC
330
2
100
AcDbEntity
  8
01-MODEL
370
    15
100
AcDbLine
 10
61.31820478623185
 20
126.3133068006076
 30
0.0
 11
61.15355605486779
 21
126.2184919020992
 31
0.0
  0
LINE
  5
4CD
330
2
100
AcDbEntity
  8
01-MODEL
370
    15
100
AcDbLine
 10
61.31820478623185
 20
126.3582862616157
 30
0.0
 11
61.31820478623185
 21
126.3133068006076
 31
0.0
  0
LINE
  5
4CE
330
2
100
AcDbEntity
  8
01-MODEL
370
    15
100
AcDbLine
 10
61.31820478623185
 20
126.3582862616157
 30
0.0
 11
61.4949814815285
 21
126.2564873331676
 31
0.0
  0
LINE
  5
4CF
330
2
100
AcDbEntity
  8
01-MODEL
370
    15
100
AcDbLine
 10
61.46077924542566
 20
126.2312036300192
 30
0.0
 11
61.31820478623185
 21
126.3133068006076
 31
0.0
  0
ELLIPSE
  5
4D0
330
2
100
AcDbEntity
  8
01-MODEL
370
    15
100
AcDbEllipse
 10
62.46725377382799
 20
118.7185630685337
 30
0.0
 11
-4.990322115836212
 21
-8.665834361444478
 31
0.0
210
0.0
220
0.0
230
1.0
 40
0.578093115915639
 41
4.062994171826437
 42
4.088280979181471
  0
LINE
  5
4D1
330
2
100
AcDbEntity
  8
01-MODEL
370
    15
100
AcDbLine
 10
61.31820478623189
 20
126.1236770035908
 30
0.0
 11
61.14142809093524
 21
126.2254759320389
 31
0.0
  0
ELLIPSE
  5
4D2
330
2
100
AcDbEntity
  8
01-MODEL
370
    15
100
AcDbEllipse
 10
61.40659360204803
 20
119.3293566392222
 30
0.0
 11
-4.990322115836212
 21
-8.665834361444478
 31
0.0
210
0.0
220
0.0
230
1.0
 40
0.578093115915639
 41
4.062994171826437
 42
4.088280979181471
  0
LINE
  5
4D3
330
2
100
AcDbEntity
  8
01-MODEL
370
    15
100
AcDbLine
 10
60.2575446144519
 20
126.7344705742792
 30
0.0
 11
60.08076791915526
 21
126.8362695027273
 31
0.0
  0
ELLIPSE
  5
4D4
330
2
100
AcDbEntity
  8
01-MODEL
370
    15
100
AcDbEllipse
 10
61.2298169067536
 20
119.4311555676544
 30
0.0
 11
4.990322115847313
 21
8.665834361462557
 31
0.0
210
0.0
220
0.0
230
1.0
 40
0.5780931159156393
 41
0.9214015182368502
 42
0.9466883255918119
  0
LINE
  5
4D5
330
2
100
AcDbEntity
  8
01-MODEL
370
    15
100
AcDbLine
 10
60.25754461445186
 20
126.924100371296
 30
0.0
 11
60.09289588308784
 21
126.8292854727876
 31
0.0
  0
LINE
  5
4D6
330
2
100
AcDbEntity
  8
01-MODEL
370
    15
100
AcDbLine
 10
60.25754461445186
 20
126.9690798323041
 30
0.0
 11
60.25754461445186
 21
126.924100371296
 31
0.0
  0
LINE
  5
4D7
330
2
100
AcDbEntity
  8
01-MODEL
370
    15
100
AcDbLine
 10
60.25754461445186
 20
126.9690798323041
 30
0.0
 11
60.43432130974853
 21
126.867280903856
 31
0.0
  0
LINE
  5
4D8
330
2
100
AcDbEntity
  8
01-MODEL
370
    15
100
AcDbLine
 10
60.40011907364568
 20
126.8419972007076
 30
0.0
 11
60.25754461445186
 21
126.924100371296
 31
0.0
  0
ELLIPSE
  5
4D9
330
2
100
AcDbEntity
  8
01-MODEL
370
    15
100
AcDbEllipse
 10
61.40659360204909
 20
119.3293566392147
 30
0.0
 11
-4.990322115841219
 21
-8.665834361453171
 31
0.0
210
0.0
220
0.0
230
1.0
 40
0.5780931159156393
 41
3.761833372148453
 42
3.787120178989518
  0
LINE
  5
4DA
330
2
100
AcDbEntity
  8
01-MODEL
370
    15
100
AcDbLine
 10
62.37886495801123
 20
127.9870692670675
 30
0.0
 11
62.20208826271456
 21
128.0888681955155
 31
0.0
  0
ELLIPSE
  5
4DB
330
2
100
AcDbEntity
  8
01-MODEL
370
    15
100
AcDbEllipse
 10
61.22981690675276
 20
119.4311555676655
 30
0.0
 11
4.99032211584018
 21
8.665834361450173
 31
0.0
210
0.0
220
0.0
230
1.0
 40
0.578093115915639
 41
0.6202407185589909
 42
0.6455275254000572
  0
LINE
  5
4DC
330
2
100
AcDbEntity
  8
01-MODEL
370
    15
100
AcDbLine
 10
62.3788649580112
 20
128.1456875126739
 30
0.0
 11
62.24114244118555
 21
128.0663783898707
 31
0.0
  0
LINE
  5
4DD
330
2
100
AcDbEntity
  8
01-MODEL
370
    15
100
AcDbLine
 10
62.3788649580112
 20
128.1596557508418
 30
0.0
 11
62.3788649580112
 21
128.1456875126739
 31
0.0
  0
LINE
  5
4DE
330
2
100
AcDbEntity
  8
01-MODEL
370
    15
100
AcDbLine
 10
62.3788649580112
 20
128.1596557508418
 30
0.0
 11
62.55564165330786
 21
128.0578568223937
 31
0.0
  0
LINE
  5
4DF
330
2
100
AcDbEntity
  8
01-MODEL
370
    15
100
AcDbLine
 10
62.54112990599083
 20
128.0522453437201
 30
0.0
 11
62.3788649580112
 21
128.1456875126739
 31
0.0
  0
ELLIPSE
  5
4E0
330
2
100
AcDbEntity
  8
01-MODEL
370
    15
100
AcDbEllipse
 10
61.45078777587346
 20
119.3039069070996
 30
0.0
 11
-4.99032211584319
 21
-8.665834361456601
 31
0.0
210
0.0
220
0.0
230
1.0
 40
0.578093115915639
 41
3.981336880278917
 42
4.018945050173535
  0
LINE
  5
4E1
330
2
100
AcDbEntity
  8
01-MODEL
370
    15
100
AcDbLine
 10
60.78787470034174
 20
127.0616251985996
 30
0.0
 11
60.52270965739675
 21
127.2143235912717
 31
0.0
  0
ELLIPSE
  5
4E2
330
2
100
AcDbEntity
  8
01-MODEL
370
    15
100
AcDbEllipse
 10
61.18562273292844
 20
119.4566052997722
 30
0.0
 11
4.990322115843358
 21
8.665834361455686
 31
0.0
210
0.0
220
0.0
230
1.0
 40
0.578093115915639
 41
0.8397442266893378
 42
0.8773523965839443
  0
LINE
  5
4E3
330
2
100
AcDbEntity
  8
01-MODEL
370
    15
100
AcDbLine
 10
60.78787470034169
 20
127.2803966208646
 30
0.0
 11
60.59792334406071
 21
127.171010909732
 31
0.0
  0
LINE
  5
4E4
330
2
100
AcDbEntity
  8
01-MODEL
370
    15
100
AcDbLine
 10
60.78787470034165
 20
127.3900845610008
 30
0.0
 11
60.78787470034169
 21
127.2803966208646
 31
0.0
  0
LINE
  5
4E5
330
2
100
AcDbEntity
  8
01-MODEL
370
    15
100
AcDbLine
 10
60.78787470034165
 20
127.3900845610008
 30
0.0
 11
61.05303974328666
 21
127.2373861683287
 31
0.0
  0
LINE
  5
4E6
330
2
100
AcDbEntity
  8
01-MODEL
370
    15
100
AcDbLine
 10
60.96344207261889
 20
127.1792940952275
 30
0.0
 11
60.78787470034169
 21
127.2803966208646
 31
0.0
  0
ELLIPSE
  5
4E7
330
2
100
AcDbEntity
  8
01-MODEL
370
    15
100
AcDbEllipse
 10
61.981117861763
 20
118.9985101217546
 30
0.0
 11
-4.990322115843455
 21
-8.66583436145706
 31
0.0
210
0.0
220
0.0
230
1.0
 40
0.5780931159156393
 41
3.831169299958421
 42
3.868777469477243
  0
LINE
  5
4E8
330
2
100
AcDbEntity
  8
01-MODEL
370
    15
100
AcDbLine
 10
62.37886495801139
 20
127.3900846219927
 30
0.0
 11
62.11369991506639
 21
127.5427830146648
 31
0.0
  0
ELLIPSE
  5
4E9
330
2
100
AcDbEntity
  8
01-MODEL
370
    15
100
AcDbEllipse
 10
61.71595281881794
 20
119.1512085144257
 30
0.0
 11
4.990322115844561
 21
8.665834361457783
 31
0.0
210
0.0
220
0.0
230
1.0
 40
0.578093115915639
 41
0.6895766463689263
 42
0.7271848158877337
  0
LINE
  5
4EA
330
2
100
AcDbEntity
  8
01-MODEL
370
    15
100
AcDbLine
 10
62.37886495801134
 20
127.5857934062093
 30
0.0
 11
62.20893806073577
 21
127.487939014101
 31
0.0
  0
LINE
  5
4EB
330
2
100
AcDbEntity
  8
01-MODEL
370
    15
100
AcDbLine
 10
62.37886495801132
 20
127.6724188712292
 30
0.0
 11
62.37886495801134
 21
127.5857934062093
 31
0.0
  0
LINE
  5
4EC
330
2
100
AcDbEntity
  8
01-MODEL
370
    15
100
AcDbLine
 10
62.37886495801132
 20
127.6724188712292
 30
0.0
 11
62.64403000095629
 21
127.5197204785571
 31
0.0
  0
LINE
  5
4ED
330
2
100
AcDbEntity
  8
01-MODEL
370
    15
100
AcDbLine
 10
62.56150448648142
 20
127.4806182966774
 30
0.0
 11
62.37886495801134
 21
127.5857934062093
 31
0.0
  0
LINE
  5
4EE
330
2
100
AcDbEntity
  8
01-MODEL
370
    15
100
AcDbLine
 10
61.84853487212172
 20
126.4508316279112
 30
0.0
 11
61.58336982917672
 21
126.6035300205833
 31
0.0
  0
ELLIPSE
  5
4EF
330
2
100
AcDbEntity
  8
01-MODEL
370
    15
100
AcDbEllipse
 10
62.24628290470842
 20
118.8458117290838
 30
0.0
 11
4.990322115843358
 21
8.665834361455686
 31
0.0
210
0.0
220
0.0
230
1.0
 40
0.578093115915639
 41
0.8397442266893378
 42
0.8773523965839443
  0
LINE
  5
4F0
330
2
100
AcDbEntity
  8
01-MODEL
370
    15
100
AcDbLine
 10
61.84853487212167
 20
126.6696030501761
 30
0.0
 11
61.65858351584067
 21
126.5602173390436
 31
0.0
  0
LINE
  5
4F1
330
2
100
AcDbEntity
  8
01-MODEL
370
    15
100
AcDbLine
 10
61.84853487212163
 20
126.7792909903124
 30
0.0
 11
61.84853487212167
 21
126.6696030501761
 31
0.0
  0
LINE
  5
4F2
330
2
100
AcDbEntity
  8
01-MODEL
370
    15
100
AcDbLine
 10
61.84853487212163
 20
126.7792909903124
 30
0.0
 11
62.11369991506663
 21
126.6265925976403
 31
0.0
  0
LINE
  5
4F3
330
2
100
AcDbEntity
  8
01-MODEL
370
    15
100
AcDbLine
 10
62.02410224439889
 20
126.5685005245391
 30
0.0
 11
61.84853487212167
 21
126.6696030501761
 31
0.0
  0
ELLIPSE
  5
4F4
330
2
100
AcDbEntity
  8
01-MODEL
370
    15
100
AcDbEllipse
 10
62.51144794765344
 20
118.6931133364111
 30
0.0
 11
-4.99032211584319
 21
-8.665834361456601
 31
0.0
210
0.0
220
0.0
230
1.0
 40
0.578093115915639
 41
3.981336880278917
 42
4.018945050173535
  0
ELLIPSE
  5
4F5
330
2
100
AcDbEntity
  8
01-MODEL
370
    15
100
AcDbEllipse
 10
61.67175864499411
 20
119.1766582465443
 30
0.0
 11
4.990322115840686
 21
8.66583436145105
 31
0.0
210
0.0
220
0.0
230
1.0
 40
0.5780931159156392
 41
0.7584619163048796
 42
0.8084671261036131
  0
LINE
  5
4F6
330
2
100
AcDbEntity
  8
01-MODEL
370
    15
100
AcDbLine
 10
61.8485348721215
 20
127.3312960850889
 30
0.0
 11
61.59923986587779
 21
127.1877366387461
 31
0.0
  0
LINE
  5
4F7
330
2
100
AcDbEntity
  8
01-MODEL
370
    15
100
AcDbLine
 10
61.84853487212145
 20
127.4513729332688
 30
0.0
 11
61.8485348721215
 21
127.3312960850889
 31
0.0
  0
LINE
  5
4F8
330
2
100
AcDbEntity
  8
01-MODEL
370
    15
100
AcDbLine
 10
61.84853487212145
 20
127.4513729332688
 30
0.0
 11
62.20208826271477
 21
127.2477750763727
 31
0.0
  0
LINE
  5
4F9
330
2
100
AcDbEntity
  8
01-MODEL
370
    15
100
AcDbLine
 10
62.09596560796104
 20
127.1888102006723
 30
0.0
 11
61.8485348721215
 21
127.3312960850889
 31
0.0
  0
LINE
  5
4FA
330
2
100
AcDbEntity
  8
01-MODEL
370
    15
100
AcDbLine
 10
61.84853487212156
 20
127.0441771924035
 30
0.0
 11
61.49498148152824
 21
127.2477750492996
 31
0.0
  0
ELLIPSE
  5
4FB
330
2
100
AcDbEntity
  8
01-MODEL
370
    15
100
AcDbEllipse
 10
62.02531203558742
 20
118.9730603896482
 30
0.0
 11
-4.990322115840164
 21
-8.665834361451347
 31
0.0
210
0.0
220
0.0
230
1.0
 40
0.578093115915639
 41
3.900054569894415
 42
3.950059779693159
  0
LINE
  5
4FC
330
2
100
AcDbEntity
  8
01-MODEL
370
    15
100
AcDbLine
 10
67.11648196734829
 20
128.1660469303586
 30
0.0
 11
65.87945564532822
 21
127.4536908483959
 31
0.0
  0
LINE
  5
4FD
330
2
100
AcDbEntity
  8
01-MODEL
370
    15
100
AcDbLine
 10
65.77297863138847
 20
127.5150068827591
 30
0.0
 11
67.11648196734829
 21
128.288678999085
 31
0.0
  0
LINE
  5
4FE
330
2
100
AcDbEntity
  8
01-MODEL
370
    15
100
AcDbLine
 10
66.05582134386314
 20
127.3521285972422
 30
0.0
 11
65.77297863138847
 21
127.5150068827591
 31
0.0
  0
LINE
  5
4FF
330
2
100
AcDbEntity
  8
01-MODEL
370
    15
100
AcDbLine
 10
67.39932467982294
 20
128.1258007135681
 30
0.0
 11
66.05582134386314
 21
127.3521285972422
 31
0.0
  0
LINE
  5
500
330
2
100
AcDbEntity
  8
01-MODEL
370
    15
100
AcDbLine
 10
62.59099699236848
 20
122.995135087788
 30
0.0
 11
59.76257092828205
 21
124.6239185537507
 31
0.0
  0
LINE
  5
501
330
2
100
AcDbEntity
  8
01-MODEL
370
    15
100
AcDbLine
 10
67.89429785126682
 20
126.0491029412328
 30
0.0
 11
62.59099699236848
 21
122.995135087788
 31
0.0
  0
LINE
  5
502
330
2
100
AcDbEntity
  8
01-MODEL
370
    15
100
AcDbLine
 10
67.78782083732711
 20
125.9877869068696
 30
0.0
 11
65.06587072652024
 21
127.5552537276756
 31
0.0
  0
LINE
  5
503
330
2
100
AcDbEntity
  8
01-MODEL
370
    15
100
AcDbLine
 10
65.0658707265202
 20
127.6778857964019
 30
0.0
 11
67.89429785126682
 21
126.0491029412328
 31
0.0
  0
LINE
  5
504
330
2
100
AcDbEntity
  8
01-MODEL
370
    15
100
AcDbLine
 10
65.0658707265202
 20
127.6778857964019
 30
0.0
 11
65.06587072652024
 21
127.5552537276756
 31
0.0
  0
LINE
  5
505
330
2
100
AcDbEntity
  8
01-MODEL
370
    15
100
AcDbLine
 10
65.06587072652024
 20
127.5552537276756
 30
0.0
 11
59.86904790229291
 21
124.5626024963941
 31
0.0
  0
LINE
  5
506
330
2
100
AcDbEntity
  8
01-MODEL
370
    15
100
AcDbLine
 10
59.76257092828205
 20
124.6239185537507
 30
0.0
 11
65.0658707265202
 21
127.6778857964019
 31
0.0
  0
LINE
  5
507
330
2
100
AcDbEntity
  8
01-MODEL
370
    15
100
AcDbLine
 10
69.66206531896038
 20
125.5410370031927
 30
0.0
 11
69.66206531896006
 21
126.8227750402264
 31
0.0
  0
LINE
  5
508
330
2
100
AcDbEntity
  8
01-MODEL
370
    15
100
AcDbLine
 10
65.78751002929727
 20
119.723046656959
 30
0.0
 11
65.78751002929706
 21
120.4427211080453
 31
0.0
  0
LINE
  5
509
330
2
100
AcDbEntity
  8
01-MODEL
370
    15
100
AcDbLine
 10
65.78751002929727
 20
119.723046656959
 30
0.0
 11
62.94454973887694
 21
121.360198198438
 31
0.0
  0
LINE
  5
50A
330
2
100
AcDbEntity
  8
01-MODEL
370
    15
100
AcDbLine
 10
62.94454973887694
 20
121.360198198438
 30
0.0
 11
62.59099705539049
 21
121.1566007487374
 31
0.0
  0
LINE
  5
50B
330
2
100
AcDbEntity
  8
01-MODEL
370
    15
100
AcDbLine
 10
62.59099705539049
 20
121.1566007487374
 30
0.0
 11
62.59099705539009
 21
122.7508176421801
 31
0.0
  0
LINE
  5
50C
330
2
100
AcDbEntity
  8
01-MODEL
370
    15
100
AcDbLine
 10
59.33830581537193
 20
123.0297010589939
 30
0.0
 11
59.33830581537153
 21
124.6239179524366
 31
0.0
  0
ELLIPSE
  5
50D
330
2
100
AcDbEntity
  8
01-MODEL
370
    15
100
AcDbEllipse
 10
63.72236889880143
 20
124.5770441535088
 30
0.0
 11
-4.999999999999978
 21
-0.0000000000012837
 31
0.0
210
0.0
220
0.0
230
1.0
 40
0.5758617009854836
 41
0.0
 42
0.5016036215754829
  0
LINE
  5
50E
330
2
100
AcDbEntity
  8
01-MODEL
370
    15
100
AcDbLine
 10
62.94454973887694
 20
121.360198198438
 30
0.0
 11
62.94454973887672
 21
122.0798724435419
 31
0.0
  0
LINE
  5
50F
330
2
100
AcDbEntity
  8
01-MODEL
370
    15
100
AcDbLine
 10
58.72236889880144
 20
124.5770441535075
 30
0.0
 11
58.7223688988012
 21
125.6432426906943
 31
0.0
  0
ELLIPSE
  5
510
330
2
100
AcDbEntity
  8
01-MODEL
370
    15
100
AcDbEllipse
 10
76.8392002086686
 20
107.7718696790102
 30
0.0
 11
0.749999999999996
 21
0.0000000000001931
 31
0.0
210
0.0
220
0.0
230
1.0
 40
0.5758617009854836
 41
5.497787143782114
 42
6.283185307179567
  0
LINE
  5
511
330
2
100
AcDbEntity
  8
01-MODEL
370
    15
100
AcDbLine
 10
73.05617751510769
 20
104.9825765837338
 30
0.0
 11
71.35912265447382
 21
104.0053093264286
 31
0.0
  0
LINE
  5
512
330
2
100
AcDbEntity
  8
01-MODEL
370
    15
100
AcDbLine
 10
77.36953029455856
 20
107.466472893666
 30
0.0
 11
76.36355984672944
 21
106.8871730404377
 31
0.0
  0
ELLIPSE
  5
513
330
2
100
AcDbEntity
  8
01-MODEL
370
    15
100
AcDbEllipse
 10
70.82879256858382
 20
104.3107061117728
 30
0.0
 11
-0.7500000000000018
 21
-0.0000000000001478
 31
0.0
210
0.0
220
0.0
230
1.0
 40
0.5758617009854836
 41
0.7853981633976952
 42
2.356194490192585
  0
LINE
  5
514
330
2
100
AcDbEntity
  8
01-MODEL
370
    15
100
AcDbLine
 10
70.29846248269399
 20
104.0053093264283
 30
0.0
 11
56.8634336401476
 21
111.7420278884815
 31
0.0
  0
ELLIPSE
  5
515
330
2
100
AcDbEntity
  8
01-MODEL
370
    15
100
AcDbEllipse
 10
57.39376372603743
 20
112.047424673826
 30
0.0
 11
-0.749999999999999
 21
-0.0000000000001926
 31
0.0
210
0.0
220
0.0
230
1.0
 40
0.5758617009854837
 41
0.0
 42
0.785398163397452
  0
LINE
  5
516
330
2
100
AcDbEntity
  8
01-MODEL
370
    15
100
AcDbLine
 10
77.36953029455856
 20
107.466472893666
 30
0.0
 11
77.26346286316704
 21
107.2822889276736
 31
0.0
  0
LINE
  5
517
330
2
100
AcDbEntity
  8
01-MODEL
370
    15
100
AcDbLine
 10
71.25305522308228
 20
103.8211253604362
 30
0.0
 11
71.35912265447382
 21
104.0053093264286
 31
0.0
  0
LINE
  5
518
330
2
100
AcDbEntity
  8
01-MODEL
370
    15
100
AcDbLine
 10
70.40452708565843
 20
103.821125360436
 30
0.0
 11
70.29846248269399
 21
104.0053093264283
 31
0.0
  0
LINE
  5
519
330
2
100
AcDbEntity
  8
01-MODEL
370
    15
100
AcDbLine
 10
71.96016341848239
 20
103.9410742721024
 30
0.0
 11
72.70262412451458
 21
104.3686305859761
 31
0.0
  0
LINE
  5
51A
330
2
100
AcDbEntity
  8
01-MODEL
370
    15
100
AcDbLine
 10
56.96949980542174
 20
111.5578430228149
 30
0.0
 11
56.8634336401476
 21
111.7420278884815
 31
0.0
  0
LINE
  5
51B
330
2
100
AcDbEntity
  8
01-MODEL
370
    15
100
AcDbLine
 10
58.171581185343
 20
110.5783644069159
 30
0.0
 11
69.69742030447182
 21
103.9410750864933
 31
0.0
  0
LINE
  5
51C
330
2
100
AcDbEntity
  8
01-MODEL
370
    15
100
AcDbLine
 10
77.400757278561
 20
107.4049178330492
 30
0.0
 11
77.54114697227379
 21
107.6197606956632
 31
0.0
  0
LINE
  5
51D
330
2
100
AcDbEntity
  8
01-MODEL
370
    15
100
AcDbLine
 10
56.83220631515339
 20
111.6804733496953
 30
0.0
 11
56.69181696243231
 21
111.8953156904786
 31
0.0
  0
LINE
  5
51E
330
2
100
AcDbEntity
  8
01-MODEL
370
    15
100
AcDbLine
 10
73.05617751510791
 20
104.16503272908
 30
0.0
 11
73.05617751510769
 21
104.9825765837338
 31
0.0
  0
LINE
  5
51F
330
2
100
AcDbEntity
  8
01-MODEL
370
    15
100
AcDbLine
 10
72.70262412451458
 20
104.3686305859761
 30
0.0
 11
73.05617751510769
 21
104.9825765837338
 31
0.0
  0
LINE
  5
520
330
2
100
AcDbEntity
  8
01-MODEL
370
    15
100
AcDbLine
 10
73.05617751510791
 20
104.16503272908
 30
0.0
 11
72.70262412451458
 21
104.3686305859761
 31
0.0
  0
LINE
  5
521
330
2
100
AcDbEntity
  8
01-MODEL
370
    15
100
AcDbLine
 10
74.40698023349598
 20
104.9429082801872
 30
0.0
 11
73.05617751510791
 21
104.16503272908
 31
0.0
  0
LINE
  5
522
330
2
100
AcDbEntity
  8
01-MODEL
370
    15
100
AcDbLine
 10
72.20764937768398
 20
104.3708395740562
 30
0.0
 11
71.96016341848239
 21
103.9410742721024
 31
0.0
  0
LINE
  5
523
330
2
100
AcDbEntity
  8
01-MODEL
370
    15
100
AcDbLine
 10
71.96016341848239
 20
103.9410742721024
 30
0.0
 11
71.71075664596539
 21
104.0846980803613
 31
0.0
  0
LINE
  5
524
330
2
100
AcDbEntity
  8
01-MODEL
370
    15
100
AcDbLine
 10
57.92409381192763
 20
111.0081288944781
 30
0.0
 11
58.171581185343
 21
110.5783644069159
 31
0.0
  0
LINE
  5
525
330
2
100
AcDbEntity
  8
01-MODEL
370
    15
100
AcDbLine
 10
76.45322278164106
 20
106.8157026961191
 30
0.0
 11
77.26346286316704
 21
107.2822889276736
 31
0.0
  0
LINE
  5
526
330
2
100
AcDbEntity
  8
01-MODEL
370
    15
100
AcDbLine
 10
69.69742030447182
 20
103.9410750864933
 30
0.0
 11
69.44993293105645
 21
104.3708395740555
 31
0.0
  0
LINE
  5
527
330
2
100
AcDbEntity
  8
01-MODEL
370
    15
100
AcDbLine
 10
69.94682566277522
 20
104.0846980803608
 30
0.0
 11
69.69742030447182
 21
103.9410750864933
 31
0.0
  0
LINE
  5
528
330
2
100
AcDbEntity
  8
01-MODEL
370
    15
100
AcDbLine
 10
71.25305522308228
 20
103.8211253604362
 30
0.0
 11
72.20764937768398
 21
104.3708395740562
 31
0.0
  0
ELLIPSE
  5
529
330
2
100
AcDbEntity
  8
01-MODEL
370
    15
100
AcDbEllipse
 10
70.82879115437029
 20
104.0654427887115
 30
0.0
 11
0.5999999999999984
 21
0.0000000000001897
 31
0.0
210
0.0
220
0.0
230
1.0
 40
0.5758617009854836
 41
3.926990816986988
 42
5.497787143781876
  0
LINE
  5
52A
330
2
100
AcDbEntity
  8
01-MODEL
370
    15
100
AcDbLine
 10
69.44993293105645
 20
104.3708395740555
 30
0.0
 11
70.40452708565843
 21
103.821125360436
 31
0.0
  0
ELLIPSE
  5
52B
330
2
100
AcDbEntity
  8
01-MODEL
370
    15
100
AcDbEllipse
 10
76.83919879445506
 20
107.5266063559489
 30
0.0
 11
0.5999999999999996
 21
0.0000000000001539
 31
0.0
210
0.0
220
0.0
230
1.0
 40
0.5758617009854836
 41
5.497787143782159
 42
5.923274190239284
  0
ELLIPSE
  5
52C
330
2
100
AcDbEntity
  8
01-MODEL
370
    15
100
AcDbEllipse
 10
57.39376372603747
 20
111.8021605363733
 30
0.0
 11
-0.5999999999999714
 21
-0.000000000000154
 31
0.0
210
0.0
220
0.0
230
1.0
 40
0.5758617009854837
 41
0.3599085985615477
 42
0.7853985124633179
  0
LINE
  5
52D
330
2
100
AcDbEntity
  8
01-MODEL
370
    15
100
AcDbLine
 10
56.96949980542174
 20
111.5578430228149
 30
0.0
 11
57.92409381192763
 21
111.0081288944781
 31
0.0
  0
ELLIPSE
  5
52E
330
2
100
AcDbEntity
  8
01-MODEL
370
    15
100
AcDbEllipse
 10
66.12653141302996
 20
116.611325222839
 30
0.0
 11
4.990322115841797
 21
8.665834361453017
 31
0.0
210
0.0
220
0.0
230
1.0
 40
0.5780931159156402
 41
0.3166992133270696
 42
0.7834644549747109
  0
ELLIPSE
  5
52F
330
2
100
AcDbEntity
  8
01-MODEL
370
    15
100
AcDbEllipse
 10
66.12653141302994
 20
116.611325222839
 30
0.0
 11
-4.990322115841295
 21
-8.665834361453306
 31
0.0
210
0.0
220
0.0
230
1.0
 40
0.5780931159156393
 41
3.925057108564263
 42
4.391822631122956
  0
LINE
  5
530
330
2
100
AcDbEntity
  8
01-MODEL
370
    15
100
AcDbLine
 10
65.78751002929706
 20
120.4427211080453
 30
0.0
 11
62.94454973887672
 21
122.0798724435419
 31
0.0
  0
POLYLINE
  5
531
330
2
100
AcDbEntity
  8
01-MODEL
370
    15
100
AcDb2dPolyline
 66
     1
 10
0.0
 20
0.0
 30
0.0
 70
   128
  0
VERTEX
  5
532
330
531
100
AcDbEntity
  8
01-MODEL
370
    15
100
AcDbVertex
100
AcDb2dVertex
 10
65.78751003941292
 20
120.442721039826
 30
0.0
  0
VERTEX
  5
533
330
531
100
AcDbEntity
  8
01-MODEL
370
    15
100
AcDbVertex
100
AcDb2dVertex
 10
65.76457003660403
 20
120.4946269195722
 30
0.0
  0
VERTEX
  5
534
330
531
100
AcDbEntity
  8
01-MODEL
370
    15
100
AcDbVertex
100
AcDb2dVertex
 10
65.74265030363045
 20
120.5469160479429
 30
0.0
  0
VERTEX
  5
535
330
531
100
AcDbEntity
  8
01-MODEL
370
    15
100
AcDbVertex
100
AcDb2dVertex
 10
65.72174641507314
 20
120.5995586349529
 30
0.0
  0
VERTEX
  5
536
330
531
100
AcDbEntity
  8
01-MODEL
370
    15
100
AcDbVertex
100
AcDb2dVertex
 10
65.70185520991842
 20
120.6525256206208
 30
0.0
  0
VERTEX
  5
537
330
531
100
AcDbEntity
  8
01-MODEL
370
    15
100
AcDbVertex
100
AcDb2dVertex
 10
65.68297215738005
 20
120.7057870329307
 30
0.0
  0
VERTEX
  5
538
330
531
100
AcDbEntity
  8
01-MODEL
370
    15
100
AcDbVertex
100
AcDb2dVertex
 10
65.66509378034308
 20
120.759312776632
 30
0.0
  0
VERTEX
  5
539
330
531
100
AcDbEntity
  8
01-MODEL
370
    15
100
AcDbVertex
100
AcDb2dVertex
 10
65.64821586412264
 20
120.8130736703894
 30
0.0
  0
VERTEX
  5
53A
330
531
100
AcDbEntity
  8
01-MODEL
370
    15
100
AcDbVertex
100
AcDb2dVertex
 10
65.63233472086949
 20
120.8670399848948
 30
0.0
  0
VERTEX
  5
53B
330
531
100
AcDbEntity
  8
01-MODEL
370
    15
100
AcDbVertex
100
AcDb2dVertex
 10
65.61744613589874
 20
120.9211815642206
 30
0.0
  0
VERTEX
  5
53C
330
531
100
AcDbEntity
  8
01-MODEL
370
    15
100
AcDbVertex
100
AcDb2dVertex
 10
65.60354652672832
 20
120.9754688629701
 30
0.0
  0
VERTEX
  5
53D
330
531
100
AcDbEntity
  8
01-MODEL
370
    15
100
AcDbVertex
100
AcDb2dVertex
 10
65.59063167867339
 20
121.0298724552197
 30
0.0
  0
VERTEX
  5
53E
330
531
100
AcDbEntity
  8
01-MODEL
370
    15
100
AcDbVertex
100
AcDb2dVertex
 10
65.57869821998598
 20
121.0843624296303
 30
0.0
  0
VERTEX
  5
53F
330
531
100
AcDbEntity
  8
01-MODEL
370
    15
100
AcDbVertex
100
AcDb2dVertex
 10
65.56774193598133
 20
121.138908872982
 30
0.0
  0
VERTEX
  5
540
330
531
100
AcDbEntity
  8
01-MODEL
370
    15
100
AcDbVertex
100
AcDb2dVertex
 10
65.55775840124029
 20
121.1934827271744
 30
0.0
  0
VERTEX
  5
541
330
531
100
AcDbEntity
  8
01-MODEL
370
    15
100
AcDbVertex
100
AcDb2dVertex
 10
65.5487446654835
 20
121.2480533489838
 30
0.0
  0
VERTEX
  5
542
330
531
100
AcDbEntity
  8
01-MODEL
370
    15
100
AcDbVertex
100
AcDb2dVertex
 10
65.54069609255759
 20
121.3025917997826
 30
0.0
  0
VERTEX
  5
543
330
531
100
AcDbEntity
  8
01-MODEL
370
    15
100
AcDbVertex
100
AcDb2dVertex
 10
65.53360909998048
 20
121.3570678041704
 30
0.0
  0
VERTEX
  5
544
330
531
100
AcDbEntity
  8
01-MODEL
370
    15
100
AcDbVertex
100
AcDb2dVertex
 10
65.52747989453576
 20
121.411452178931
 30
0.0
  0
VERTEX
  5
545
330
531
100
AcDbEntity
  8
01-MODEL
370
    15
100
AcDbVertex
100
AcDb2dVertex
 10
65.52230405080436
 20
121.4657148913718
 30
0.0
  0
VERTEX
  5
546
330
531
100
AcDbEntity
  8
01-MODEL
370
    15
100
AcDbVertex
100
AcDb2dVertex
 10
65.5180781970384
 20
121.5198262728612
 30
0.0
  0
VERTEX
  5
547
330
531
100
AcDbEntity
  8
01-MODEL
370
    15
100
AcDbVertex
100
AcDb2dVertex
 10
65.51479811855303
 20
121.573756654768
 30
0.0
  0
VERTEX
  5
548
330
531
100
AcDbEntity
  8
01-MODEL
370
    15
100
AcDbVertex
100
AcDb2dVertex
 10
65.5124602328661
 20
121.627476247107
 30
0.0
  0
VERTEX
  5
549
330
531
100
AcDbEntity
  8
01-MODEL
370
    15
100
AcDbVertex
100
AcDb2dVertex
 10
65.51106011455857
 20
121.6809555026006
 30
0.0
  0
VERTEX
  5
54A
330
531
100
AcDbEntity
  8
01-MODEL
370
    15
100
AcDbVertex
100
AcDb2dVertex
 10
65.51059439188254
 20
121.7341645099098
 30
0.0
  0
SEQEND
  5
54B
330
531
100
AcDbEntity
  8
01-MODEL
370
    15
  0
LINE
  5
54C
330
2
100
AcDbEntity
  8
01-MODEL
370
    15
100
AcDbLine
 10
69.3085113133208
 20
125.7446352142704
 30
0.0
 11
70.26603644209625
 21
125.1932331648778
 31
0.0
  0
POLYLINE
  5
54D
330
2
100
AcDbEntity
  8
01-MODEL
370
    15
100
AcDb2dPolyline
 66
     1
 10
0.0
 20
0.0
 30
0.0
 70
   128
  0
VERTEX
  5
54E
330
54D
100
AcDbEntity
  8
01-MODEL
370
    15
100
AcDbVertex
100
AcDb2dVertex
 10
60.18683524198031
 20
128.2072398947065
 30
0.0
  0
VERTEX
  5
54F
330
54D
100
AcDbEntity
  8
01-MODEL
370
    15
100
AcDbVertex
100
AcDb2dVertex
 10
60.35115633445424
 20
128.295217418253
 30
0.0
  0
VERTEX
  5
550
330
54D
100
AcDbEntity
  8
01-MODEL
370
    15
100
AcDbVertex
100
AcDb2dVertex
 10
60.52449524566089
 20
128.375177232434
 30
0.0
  0
VERTEX
  5
551
330
54D
100
AcDbEntity
  8
01-MODEL
370
    15
100
AcDbVertex
100
AcDb2dVertex
 10
60.70616707614109
 20
128.4468597980339
 30
0.0
  0
VERTEX
  5
552
330
54D
100
AcDbEntity
  8
01-MODEL
370
    15
100
AcDbVertex
100
AcDb2dVertex
 10
60.89549024549997
 20
128.5100040911343
 30
0.0
  0
VERTEX
  5
553
330
54D
100
AcDbEntity
  8
01-MODEL
370
    15
100
AcDbVertex
100
AcDb2dVertex
 10
61.09178234357657
 20
128.5643486062243
 30
0.0
  0
VERTEX
  5
554
330
54D
100
AcDbEntity
  8
01-MODEL
370
    15
100
AcDbVertex
100
AcDb2dVertex
 10
61.29436011727295
 20
128.6096328105042
 30
0.0
  0
VERTEX
  5
555
330
54D
100
AcDbEntity
  8
01-MODEL
370
    15
100
AcDbVertex
100
AcDb2dVertex
 10
61.50254036617479
 20
128.645596688809
 30
0.0
  0
VERTEX
  5
556
330
54D
100
AcDbEntity
  8
01-MODEL
370
    15
100
AcDbVertex
100
AcDb2dVertex
 10
61.71563988986768
 20
128.6719792513813
 30
0.0
  0
VERTEX
  5
557
330
54D
100
AcDbEntity
  8
01-MODEL
370
    15
100
AcDbVertex
100
AcDb2dVertex
 10
61.93297422353182
 20
128.6885620970241
 30
0.0
  0
VERTEX
  5
558
330
54D
100
AcDbEntity
  8
01-MODEL
370
    15
100
AcDbVertex
100
AcDb2dVertex
 10
62.15375890894932
 20
128.6956392321126
 30
0.0
  0
VERTEX
  5
559
330
54D
100
AcDbEntity
  8
01-MODEL
370
    15
100
AcDbVertex
100
AcDb2dVertex
 10
62.37710085440022
 20
128.6937408705634
 30
0.0
  0
VERTEX
  5
55A
330
54D
100
AcDbEntity
  8
01-MODEL
370
    15
100
AcDbVertex
100
AcDb2dVertex
 10
62.6021006461373
 20
128.6833862499059
 30
0.0
  0
VERTEX
  5
55B
330
54D
100
AcDbEntity
  8
01-MODEL
370
    15
100
AcDbVertex
100
AcDb2dVertex
 10
62.82785750064075
 20
128.6650962478266
 30
0.0
  0
VERTEX
  5
55C
330
54D
100
AcDbEntity
  8
01-MODEL
370
    15
100
AcDbVertex
100
AcDb2dVertex
 10
63.05347210953049
 20
128.6393896752353
 30
0.0
  0
VERTEX
  5
55D
330
54D
100
AcDbEntity
  8
01-MODEL
370
    15
100
AcDbVertex
100
AcDb2dVertex
 10
63.27804442685654
 20
128.6067863764305
 30
0.0
  0
VERTEX
  5
55E
330
54D
100
AcDbEntity
  8
01-MODEL
370
    15
100
AcDbVertex
100
AcDb2dVertex
 10
63.50067461740323
 20
128.5678058297681
 30
0.0
  0
VERTEX
  5
55F
330
54D
100
AcDbEntity
  8
01-MODEL
370
    15
100
AcDbVertex
100
AcDb2dVertex
 10
63.72046305668904
 20
128.5229681260158
 30
0.0
  0
VERTEX
  5
560
330
54D
100
AcDbEntity
  8
01-MODEL
370
    15
100
AcDbVertex
100
AcDb2dVertex
 10
63.94008480518903
 20
128.4720053125969
 30
0.0
  0
VERTEX
  5
561
330
54D
100
AcDbEntity
  8
01-MODEL
370
    15
100
AcDbVertex
100
AcDb2dVertex
 10
64.16236117294246
 20
128.4145919679098
 30
0.0
  0
VERTEX
  5
562
330
54D
100
AcDbEntity
  8
01-MODEL
370
    15
100
AcDbVertex
100
AcDb2dVertex
 10
64.38642604221247
 20
128.3511987747394
 30
0.0
  0
VERTEX
  5
563
330
54D
100
AcDbEntity
  8
01-MODEL
370
    15
100
AcDbVertex
100
AcDb2dVertex
 10
64.61141266305938
 20
128.2822960518094
 30
0.0
  0
VERTEX
  5
564
330
54D
100
AcDbEntity
  8
01-MODEL
370
    15
100
AcDbVertex
100
AcDb2dVertex
 10
64.83645323187243
 20
128.2083549654389
 30
0.0
  0
VERTEX
  5
565
330
54D
100
AcDbEntity
  8
01-MODEL
370
    15
100
AcDbVertex
100
AcDb2dVertex
 10
65.06068120944616
 20
128.1298464430014
 30
0.0
  0
VERTEX
  5
566
330
54D
100
AcDbEntity
  8
01-MODEL
370
    15
100
AcDbVertex
100
AcDb2dVertex
 10
65.28322942437251
 20
128.0472415313433
 30
0.0
  0
SEQEND
  5
567
330
54D
100
AcDbEntity
  8
01-MODEL
370
    15
  0
POLYLINE
  5
568
330
2
100
AcDbEntity
  8
01-MODEL
370
    15
100
AcDb2dPolyline
 66
     1
 10
0.0
 20
0.0
 30
0.0
 70
   128
  0
VERTEX
  5
569
330
568
100
AcDbEntity
  8
01-MODEL
370
    15
100
AcDbVertex
100
AcDb2dVertex
 10
59.33832140076861
 20
123.7834234341594
 30
0.0
  0
VERTEX
  5
56A
330
568
100
AcDbEntity
  8
01-MODEL
370
    15
100
AcDbVertex
100
AcDb2dVertex
 10
59.22279962854536
 20
123.9462636917379
 30
0.0
  0
VERTEX
  5
56B
330
568
100
AcDbEntity
  8
01-MODEL
370
    15
100
AcDbVertex
100
AcDb2dVertex
 10
59.118743484991
 20
124.1165729706794
 30
0.0
  0
VERTEX
  5
56C
330
568
100
AcDbEntity
  8
01-MODEL
370
    15
100
AcDbVertex
100
AcDb2dVertex
 10
59.02670066840197
 20
124.293363891047
 30
0.0
  0
VERTEX
  5
56D
330
568
100
AcDbEntity
  8
01-MODEL
370
    15
100
AcDbVertex
100
AcDb2dVertex
 10
58.94701593999903
 20
124.4755755279103
 30
0.0
  0
VERTEX
  5
56E
330
568
100
AcDbEntity
  8
01-MODEL
370
    15
100
AcDbVertex
100
AcDb2dVertex
 10
58.87959130835945
 20
124.6619470698015
 30
0.0
  0
VERTEX
  5
56F
330
568
100
AcDbEntity
  8
01-MODEL
370
    15
100
AcDbVertex
100
AcDb2dVertex
 10
58.82431782387978
 20
124.851212849221
 30
0.0
  0
VERTEX
  5
570
330
568
100
AcDbEntity
  8
01-MODEL
370
    15
100
AcDbVertex
100
AcDb2dVertex
 10
58.78108464034848
 20
125.0421061027233
 30
0.0
  0
VERTEX
  5
571
330
568
100
AcDbEntity
  8
01-MODEL
370
    15
100
AcDbVertex
100
AcDb2dVertex
 10
58.74978259742786
 20
125.2333605541586
 30
0.0
  0
VERTEX
  5
572
330
568
100
AcDbEntity
  8
01-MODEL
370
    15
100
AcDbVertex
100
AcDb2dVertex
 10
58.73030211331187
 20
125.423710171966
 30
0.0
  0
VERTEX
  5
573
330
568
100
AcDbEntity
  8
01-MODEL
370
    15
100
AcDbVertex
100
AcDb2dVertex
 10
58.72253255252307
 20
125.6118883140537
 30
0.0
  0
VERTEX
  5
574
330
568
100
AcDbEntity
  8
01-MODEL
370
    15
100
AcDbVertex
100
AcDb2dVertex
 10
58.72639847220264
 20
125.7989427451908
 30
0.0
  0
VERTEX
  5
575
330
568
100
AcDbEntity
  8
01-MODEL
370
    15
100
AcDbVertex
100
AcDb2dVertex
 10
58.74198037283132
 20
125.9879166224399
 30
0.0
  0
VERTEX
  5
576
330
568
100
AcDbEntity
  8
01-MODEL
370
    15
100
AcDbVertex
100
AcDb2dVertex
 10
58.76940300908065
 20
126.177687493531
 30
0.0
  0
VERTEX
  5
577
330
568
100
AcDbEntity
  8
01-MODEL
370
    15
100
AcDbVertex
100
AcDb2dVertex
 10
58.80878966048252
 20
126.3670392427399
 30
0.0
  0
VERTEX
  5
578
330
568
100
AcDbEntity
  8
01-MODEL
370
    15
100
AcDbVertex
100
AcDb2dVertex
 10
58.86026276363185
 20
126.5547577016462
 30
0.0
  0
VERTEX
  5
579
330
568
100
AcDbEntity
  8
01-MODEL
370
    15
100
AcDbVertex
100
AcDb2dVertex
 10
58.92394559806056
 20
126.7396257799336
 30
0.0
  0
VERTEX
  5
57A
330
568
100
AcDbEntity
  8
01-MODEL
370
    15
100
AcDbVertex
100
AcDb2dVertex
 10
58.99996239160461
 20
126.9204274244361
 30
0.0
  0
VERTEX
  5
57B
330
568
100
AcDbEntity
  8
01-MODEL
370
    15
100
AcDbVertex
100
AcDb2dVertex
 10
59.08843642379591
 20
127.0959470067256
 30
0.0
  0
VERTEX
  5
57C
330
568
100
AcDbEntity
  8
01-MODEL
370
    15
100
AcDbVertex
100
AcDb2dVertex
 10
59.18941036831856
 20
127.2649631425671
 30
0.0
  0
VERTEX
  5
57D
330
568
100
AcDbEntity
  8
01-MODEL
370
    15
100
AcDbVertex
100
AcDb2dVertex
 10
59.30234168986513
 20
127.42661550505
 30
0.0
  0
VERTEX
  5
57E
330
568
100
AcDbEntity
  8
01-MODEL
370
    15
100
AcDbVertex
100
AcDb2dVertex
 10
59.42644124138079
 20
127.5802855637409
 30
0.0
  0
VERTEX
  5
57F
330
568
100
AcDbEntity
  8
01-MODEL
370
    15
100
AcDbVertex
100
AcDb2dVertex
 10
59.56091882213955
 20
127.7253546649718
 30
0.0
  0
VERTEX
  5
580
330
568
100
AcDbEntity
  8
01-MODEL
370
    15
100
AcDbVertex
100
AcDb2dVertex
 10
59.7049868655934
 20
127.8612027595061
 30
0.0
  0
VERTEX
  5
581
330
568
100
AcDbEntity
  8
01-MODEL
370
    15
100
AcDbVertex
100
AcDb2dVertex
 10
59.85785519735809
 20
127.9872121834372
 30
0.0
  0
VERTEX
  5
582
330
568
100
AcDbEntity
  8
01-MODEL
370
    15
100
AcDbVertex
100
AcDb2dVertex
 10
60.01873442013194
 20
128.102764262224
 30
0.0
  0
VERTEX
  5
583
330
568
100
AcDbEntity
  8
01-MODEL
370
    15
100
AcDbVertex
100
AcDb2dVertex
 10
60.18683524198031
 20
128.2072398947065
 30
0.0
  0
SEQEND
  5
584
330
568
100
AcDbEntity
  8
01-MODEL
370
    15
  0
ELLIPSE
  5
585
330
2
100
AcDbEntity
  8
01-MODEL
370
    15
100
AcDbEllipse
 10
70.51059459468182
 20
124.4286824138357
 30
0.0
 11
0.6
 21
0.0000000000001182
 31
0.0
210
0.0
220
0.0
230
1.0
 40
0.5758617009854833
 41
0.0000000000002001
 42
6.283185307179585
  0
ELLIPSE
  5
586
330
2
100
AcDbEntity
  8
01-MODEL
370
    15
100
AcDbEllipse
 10
70.51059444172844
 20
122.2621824783296
 30
0.0
 11
-5.0
 21
-0.0000000000012822
 31
0.0
210
0.0
220
0.0
230
1.0
 40
0.5758617009854836
 41
4.836701183232626
 42
10.87126208471634
  0
ELLIPSE
  5
587
330
2
100
AcDbEntity
  8
01-MODEL
370
    15
100
AcDbEllipse
 10
70.51059444172884
 20
120.6679655848869
 30
0.0
 11
-5.000000000000001
 21
-0.0000000000012829
 31
0.0
210
0.0
220
0.0
230
1.0
 40
0.5758617009854833
 41
0.3343715549713391
 42
0.7853981633974492
  0
ELLIPSE
  5
588
330
2
100
AcDbEntity
  8
01-MODEL
370
    15
100
AcDbEllipse
 10
70.51059444172884
 20
120.6679655848869
 30
0.0
 11
5.0
 21
0.0000000000012826
 31
0.0
210
0.0
220
0.0
230
1.0
 40
0.5758617009854836
 41
3.92699081698724
 42
6.283185307179584
  0
ELLIPSE
  5
589
330
2
100
AcDbEntity
  8
01-MODEL
370
    15
100
AcDbEllipse
 10
70.51059444172844
 20
122.2621824783296
 30
0.0
 11
-3.125
 21
-0.0000000000008021
 31
0.0
210
0.0
220
0.0
230
1.0
 40
0.5758617009854837
 41
5.864682400727661
 42
9.843280867221306
  0
ELLIPSE
  5
58A
330
2
100
AcDbEntity
  8
01-MODEL
370
    15
100
AcDbEllipse
 10
70.51059444172827
 20
122.8344654657193
 30
0.0
 11
-2.721132527208879
 21
-0.0000000000006981
 31
0.0
210
0.0
220
0.0
230
1.0
 40
0.5758617009854833
 41
5.29623996238338
 42
10.41172330556558
  0
ELLIPSE
  5
58B
330
2
100
AcDbEntity
  8
01-MODEL
370
    15
100
AcDbEllipse
 10
70.51059444172827
 20
122.8344654657193
 30
0.0
 11
-1.275000041020357
 21
-0.000000000000327
 31
0.0
210
0.0
220
0.0
230
1.0
 40
0.5758617009854836
 41
0.3025006280937035
 42
2.839092025496084
  0
ELLIPSE
  5
58C
330
2
100
AcDbEntity
  8
01-MODEL
370
    15
100
AcDbEllipse
 10
70.51059444172821
 20
123.1206069594142
 30
0.0
 11
-1.5
 21
-0.0000000000003848
 31
0.0
210
0.0
220
0.0
230
1.0
 40
0.5758617009854836
 41
0.0
 42
3.141592653589788
  0
ELLIPSE
  5
58D
330
2
100
AcDbEntity
  8
01-MODEL
370
    15
100
AcDbEllipse
 10
70.51059444172789
 20
124.3060502904357
 30
0.0
 11
-1.5
 21
-0.0000000000003848
 31
0.0
210
0.0
220
0.0
230
1.0
 40
0.5758617009854836
 41
5.501639961259532
 42
10.20632330668944
  0
ELLIPSE
  5
58E
330
2
100
AcDbEntity
  8
01-MODEL
370
    15
100
AcDbEllipse
 10
70.51059444172789
 20
124.428682359162
 30
0.0
 11
1.350000041020357
 21
0.0000000000003465
 31
0.0
210
0.0
220
0.0
230
1.0
 40
0.5758617009854833
 41
0.0
 42
6.283185307179585
  0
LINE
  5
58F
330
2
100
AcDbEntity
  8
01-MODEL
370
    15
100
AcDbLine
 10
65.51059444172856
 20
121.7341643266602
 30
0.0
 11
65.51059444172844
 21
122.2621824783283
 31
0.0
  0
LINE
  5
590
330
2
100
AcDbEntity
  8
01-MODEL
370
    15
100
AcDbLine
 10
75.51059444172884
 20
120.6679655848882
 30
0.0
 11
75.51059444172844
 21
122.2621824783309
 31
0.0
  0
LINE
  5
591
330
2
100
AcDbEntity
  8
01-MODEL
370
    15
100
AcDbLine
 10
72.99688880286851
 20
123.4712817001989
 30
0.0
 11
73.36590185541497
 21
122.9935142722978
 31
0.0
  0
LINE
  5
592
330
2
100
AcDbEntity
  8
01-MODEL
370
    15
100
AcDbLine
 10
68.02430008058775
 20
123.4712817001976
 30
0.0
 11
67.6552870280415
 21
122.9935142722963
 31
0.0
  0
LINE
  5
593
330
2
100
AcDbEntity
  8
01-MODEL
370
    15
100
AcDbLine
 10
69.01059444172822
 20
123.1206069594138
 30
0.0
 11
69.01059444172789
 21
124.3060502904353
 31
0.0
  0
LINE
  5
594
330
2
100
AcDbEntity
  8
01-MODEL
370
    15
100
AcDbLine
 10
72.01059444172821
 20
123.1206069594145
 30
0.0
 11
72.0105944417279
 21
124.3060502904361
 31
0.0
  0
LINE
  5
595
330
2
100
AcDbEntity
  8
01-MODEL
370
    15
100
AcDbLine
 10
71.46885940830467
 20
124.9762745661015
 30
0.0
 11
71.57533326112731
 21
124.9144860574363
 31
0.0
  0
LINE
  5
596
330
2
100
AcDbEntity
  8
01-MODEL
370
    15
100
AcDbLine
 10
69.55232947515082
 20
124.976274566101
 30
0.0
 11
69.44585562232818
 21
124.9144860574358
 31
0.0
  0
LWPOLYLINE
  5
597
330
2
100
AcDbEntity
  8
TITLE
100
AcDbPolyline
 90
        4
 70
     1
 43
0.0
 10
85.59999999999991
 20
89.39999999999997
 10
20.59999999999991
 20
89.39999999999997
 10
20.59999999999991
 20
189.4
 10
85.59999999999991
 20
189.4
  0
MTEXT
  5
598
330
2
100
AcDbEntity
  8
TITLE
100
AcDbMText
 10
25.6699574319739
 20
148.8641682261537
 30
0.0
 40
3.0
 41
33.12449862354203
 71
     1
 72
     5
  1
\P\PKRS-2346ICS\P\PPDS-23**\Pシリーズ\P\PPS-21**\Pシリーズ
 73
     1
 44
1.0
1001
ACAD
1000
MTEXTBEGIN
1070
    73
1070
     1
1070
    44
1040
1.0
1070
    74
1070
     0
1000
MTEXTEND
  0
LEADER
  5
599
330
2
100
AcDbEntity
  8
03-DIMMENTION
100
AcDbLeader
  3
Standard
 73
     0
 40
7.225042301184432
 41
20.63451776649746
 76
     3
 10
188.750018
 20
109.9999999999999
 30
0.0
 10
196.5572692320496
 20
119.8368814050676
 30
0.0
 10
200.6155915088687
 20
119.8368814050676
 30
0.0
340
59A
213
0.0
223
-1.25
233
0.0
1001
ACAD
1000
DSTYLE
1002
{
1070
    40
1040
1.0
1070
    77
1070
     0
1002
}
  0
MTEXT
  5
59A
102
{ACAD_REACTORS
330
599
102
}
330
2
100
AcDbEntity
  8
03-DIMMENTION
100
AcDbMText
 10
201.1155915088687
 20
121.0868814050676
 30
0.0
 40
2.5
 41
0.0
 71
     1
 72
     1
  1
4-%%c2.7\P(M3タップ下穴)
 73
     1
 44
1.0
1001
ACAD
1000
MTEXTBEGIN
1070
    73
1070
     1
1070
    44
1040
1.0
1070
    74
1070
     0
1000
MTEXTEND
  0
ENDSEC
  0
SECTION
  2
OBJECTS
  0
DICTIONARY
  5
9
330
0
100
AcDbDictionary
281
     1
  3
ACAD_COLOR
350
33
  3
ACAD_GROUP
350
2F
  3
ACAD_LAYOUT
350
D
  3
ACAD_MATERIAL
350
32
  3
ACAD_MLINESTYLE
350
30
  3
ACAD_PLOTSETTINGS
350
31
  3
ACAD_PLOTSTYLENAME
350
8
  3
ACAD_TABLESTYLE
350
34
  3
ACDBHEADERROUNDTRIPXREC
350
659
  3
AcDbVariableDictionary
350
59D
  3
DWGPROPS
350
658
  0
DICTIONARY
  5
16
330
15
100
AcDbDictionary
280
     1
281
     1
  3
ACAD_LAYERFILTERS
360
17
  3
ACAD_LAYERSTATES
360
18
  3
ACLYDICTIONARY
360
19
  0
DICTIONARY
  5
3
330
2
100
AcDbDictionary
280
     1
281
     1
  3
ACAD_SORTENTS
360
59B
  0
DICTIONARY
  5
33
102
{ACAD_REACTORS
330
9
102
}
330
9
100
AcDbDictionary
281
     1
  0
DICTIONARY
  5
2F
102
{ACAD_REACTORS
330
9
102
}
330
9
100
AcDbDictionary
281
     1
  0
DICTIONARY
  5
D
102
{ACAD_REACTORS
330
9
102
}
330
9
100
AcDbDictionary
281
     1
  3
Model
350
C
  3
レイアウト1
350
650
  0
DICTIONARY
  5
32
102
{ACAD_REACTORS
330
9
102
}
330
9
100
AcDbDictionary
281
     1
  0
DICTIONARY
  5
30
102
{ACAD_REACTORS
330
9
102
}
330
9
100
AcDbDictionary
281
     1
  3
Standard
350
36
  0
DICTIONARY
  5
31
102
{ACAD_REACTORS
330
9
102
}
330
9
100
AcDbDictionary
281
     1
  0
ACDBDICTIONARYWDFLT
  5
8
102
{ACAD_REACTORS
330
9
102
}
330
9
100
AcDbDictionary
281
     1
  3
Normal
350
7
100
AcDbDictionaryWithDefault
340
7
  0
DICTIONARY
  5
34
102
{ACAD_REACTORS
330
9
102
}
330
9
100
AcDbDictionary
281
     1
  3
Standard
350
37
  0
DICTIONARY
  5
659
102
{ACAD_REACTORS
330
9
102
}
330
9
100
AcDbDictionary
281
     1
  0
DICTIONARY
  5
59D
102
{ACAD_REACTORS
330
9
102
}
330
9
100
AcDbDictionary
281
     1
  3
CTABLESTYLE
350
59E
  3
DIMASSOC
350
655
  3
HIDETEXT
350
654
  3
PROJECTNAME
350
656
  0
XRECORD
  5
658
102
{ACAD_REACTORS
330
9
102
}
330
9
100
AcDbXrecord
280
     1
  1
DWGPROPS COOKIE
  2

  3

  4

  6

  7

  8

  9

300
=
301
=
302
=
303
=
304
=
305
=
306
=
307
=
308
=
309
=
 40
0.7677317939814815
 41
2453314.561093206
 42
2453645.535901505
  1

 90
        0
  0
DICTIONARY
  5
17
102
{ACAD_REACTORS
330
16
102
}
330
16
100
AcDbDictionary
281
     1
  0
DICTIONARY
  5
18
102
{ACAD_REACTORS
330
16
102
}
330
16
100
AcDbDictionary
281
     1
  0
DICTIONARY
  5
19
102
{ACAD_REACTORS
330
16
102
}
330
16
100
AcDbDictionary
281
     1
1001
ACAD
1000
<All
  0
SORTENTSTABLE
  5
59B
102
{ACAD_REACTORS
330
3
102
}
330
3
100
AcDbSortentsTable
330
2
  0
LAYOUT
  5
C
102
{ACAD_XDICTIONARY
360
65A
102
}
102
{ACAD_REACTORS
330
D
102
}
330
D
100
AcDbPlotSettings
  1

  2
none_device
  4
ISO_A4_(210.00_x_297.00_MM)
  6

 40
7.5
 41
20.0
 42
7.5
 43
20.0
 44
210.0
 45
297.0
 46
0.0
 47
0.0
 48
0.0
 49
0.0
140
0.0
141
0.0
142
1.0
143
2.118856597913635
 70
 11952
 72
     1
 73
     1
 74
     0
  7

 75
     0
147
0.4719526564396408
148
163.4541791910325
149
24.84313812447351
100
AcDbLayout
  1
Model
 70
     1
 71
     0
 10
0.0
 20
0.0
 11
12.0
 21
9.0
 12
0.0
 22
0.0
 32
0.0
 14
0.0
 24
0.0
 34
0.0
 15
0.0
 25
0.0
 35
0.0
146
0.0
 13
0.0
 23
0.0
 33
0.0
 16
1.0
 26
0.0
 36
0.0
 17
0.0
 27
1.0
 37
0.0
 76
     0
330
2
1001
ACAD_PSEXT
1000
なし
1000
なし
1000
適切ではありません
1000
新しいプロッタ環境設定名を選択しない限り、レイアウトは印刷されません。
1070
     0
  0
LAYOUT
  5
650
102
{ACAD_XDICTIONARY
360
65C
102
}
102
{ACAD_REACTORS
330
D
102
}
330
D
100
AcDbPlotSettings
  1

  2
RICOH imagio Neo W400 RPCS
  4

  6

 40
0.0
 41
0.0
 42
0.0
 43
0.0
 44
0.0
 45
0.0
 46
0.0
 47
0.0
 48
0.0
 49
0.0
140
0.0
141
0.0
142
1.0
143
1.0
 70
   688
 72
     0
 73
     0
 74
     5
  7
acad.ctb
 75
    16
147
1.0
148
0.0
149
0.0
100
AcDbLayout
  1
レイアウト1
 70
     1
 71
     1
 10
0.0
 20
0.0
 11
12.0
 21
9.0
 12
0.0
 22
0.0
 32
0.0
 14
0.0
 24
0.0
 34
0.0
 15
0.0
 25
0.0
 35
0.0
146
0.0
 13
0.0
 23
0.0
 33
0.0
 16
1.0
 26
0.0
 36
0.0
 17
0.0
 27
1.0
 37
0.0
 76
     0
330
64F
  0
MLINESTYLE
  5
36
102
{ACAD_REACTORS
330
30
102
}
330
30
100
AcDbMlineStyle
  2
STANDARD
 70
     0
  3

 62
   256
 51
90.0
 52
90.0
 71
     2
 49
0.5
 62
   256
  6
BYLAYER
 49
-0.5
 62
   256
  6
BYLAYER
  0
ACDBPLACEHOLDER
  5
7
102
{ACAD_REACTORS
330
8
102
}
330
8
  0
TABLESTYLE
  5
37
102
{ACAD_REACTORS
330
34
102
}
330
34
100
AcDbTableStyle
  3
Standard
 70
     0
 71
     0
 40
1.5
 41
1.5
280
     0
281
     0
  7
Standard
140
4.5
170
     2
 62
     0
 63
     7
283
     0
274
    -2
284
     1
 64
     0
275
    -2
285
     1
 65
     0
276
    -2
286
     1
 66
     0
277
    -2
287
     1
 67
     0
278
    -2
288
     1
 68
     0
279
    -2
289
     1
 69
     0
  7
Standard
140
6.0
170
     5
 62
     0
 63
     7
283
     0
274
    -2
284
     1
 64
     0
275
    -2
285
     1
 65
     0
276
    -2
286
     1
 66
     0
277
    -2
287
     1
 67
     0
278
    -2
288
     1
 68
     0
279
    -2
289
     1
 69
     0
  7
Standard
140
4.5
170
     5
 62
     0
 63
     7
283
     0
274
    -2
284
     1
 64
     0
275
    -2
285
     1
 65
     0
276
    -2
286
     1
 66
     0
277
    -2
287
     1
 67
     0
278
    -2
288
     1
 68
     0
279
    -2
289
     1
 69
     0
  0
DICTIONARYVAR
  5
59E
102
{ACAD_REACTORS
330
59D
102
}
330
59D
100
DictionaryVariables
280
     0
  1
STANDARD
  0
DICTIONARYVAR
  5
655
102
{ACAD_REACTORS
330
59D
102
}
330
59D
100
DictionaryVariables
280
     0
  1
1
  0
DICTIONARYVAR
  5
654
102
{ACAD_REACTORS
330
59D
102
}
330
59D
100
DictionaryVariables
280
     0
  1
1
  0
DICTIONARYVAR
  5
656
102
{ACAD_REACTORS
330
59D
102
}
330
59D
100
DictionaryVariables
280
     0
  1

  0
DICTIONARY
  5
65A
330
C
100
AcDbDictionary
280
     1
281
     1
  3
ACAD_XREC_ROUNDTRIP
360
65B
  0
DICTIONARY
  5
65C
330
650
100
AcDbDictionary
280
     1
281
     1
  3
ACAD_XREC_ROUNDTRIP
360
65D
  0
XRECORD
  5
65B
102
{ACAD_REACTORS
330
65A
102
}
330
65A
100
AcDbXrecord
280
     1
102
SHADEPLOT
 70
     0
102
SHADEPLOTRESLEVEL
 70
     2
102
SHADEPLOTCUSTOMDPI
 70
   300
  0
XRECORD
  5
65D
102
{ACAD_REACTORS
330
65C
102
}
330
65C
100
AcDbXrecord
280
     1
102
SHADEPLOT
 70
     0
102
SHADEPLOTRESLEVEL
 70
     2
102
SHADEPLOTCUSTOMDPI
 70
   300
  0
ENDSEC
  0
EOF
